osu file format v14

[General]
AudioFilename: Tatsh - HEAVENLY MOON.mp3
AudioLeadIn: 0
PreviewTime: 69801
Countdown: 0
SampleSet: Soft
StackLeniency: 0.7
Mode: 3
LetterboxInBreaks: 0
SpecialStyle: 0
WidescreenStoryboard: 0

[Editor]
DistanceSpacing: 0.8
BeatDivisor: 4
GridSize: 8
TimelineZoom: 1.3

[Metadata]
Title:HEAVENLY MOON
TitleUnicode:HEAVENLY MOON
Artist:Tatsh
ArtistUnicode:Tatsh
Creator:Spy
Version:BASIC
Source:jubeat copious
Tags:CORE BEMANI KONAMI plus jukebeat pop'n music Sunny Park REFLEC BEAT limelight Mashiro-Fang
BeatmapID:730960
BeatmapSetID:243654

[Difficulty]
HPDrainRate:6
CircleSize:4
OverallDifficulty:7
ApproachRate:5
SliderMultiplier:1.4
SliderTickRate:1

[Events]
//Background and Video events
0,0,"BG.jpg",0,0
//Break Periods
//Storyboard Layer 0 (Background)
//Storyboard Layer 1 (Fail)
//Storyboard Layer 2 (Pass)
//Storyboard Layer 3 (Foreground)
//Storyboard Sound Samples

[TimingPoints]
1045,324.324324324324,4,2,1,65,1,0
69801,-100,4,2,1,65,0,1
90558,-100,4,2,1,65,0,0
90882,-100,4,2,1,65,0,1
95747,-100,4,2,1,65,0,0
96072,-100,4,2,1,65,0,1
106126,-100,4,2,1,65,0,0

[HitObjects]
448,192,1045,5,4,0:0:0:0:
320,192,1045,1,8,0:0:0:0:
64,192,1207,1,0,0:0:0:0:
320,192,1369,1,8,0:0:0:0:
64,192,1531,1,0,0:0:0:0:
448,192,1693,1,8,0:0:0:0:
192,192,1855,1,0,0:0:0:0:
320,192,2017,1,8,0:0:0:0:
64,192,2180,1,0,0:0:0:0:
448,192,2342,1,8,0:0:0:0:
192,192,2504,1,0,0:0:0:0:
448,192,2666,1,8,0:0:0:0:
64,192,2828,1,0,0:0:0:0:
192,192,3639,1,8,0:0:0:0:
448,192,3801,1,0,0:0:0:0:
64,192,3963,1,8,0:0:0:0:
320,192,4126,1,0,0:0:0:0:
448,192,4288,1,8,0:0:0:0:
192,192,4450,1,0,0:0:0:0:
320,192,4612,1,8,0:0:0:0:
64,192,4774,1,0,0:0:0:0:
448,192,4936,1,8,0:0:0:0:
64,192,5099,1,0,0:0:0:0:
320,192,5261,1,8,0:0:0:0:
192,192,5423,1,0,0:0:0:0:
448,192,5585,1,0,0:0:0:0:
448,192,5909,1,0,0:0:0:0:
320,192,6234,1,4,0:0:0:0:
64,192,6234,1,8,0:0:0:0:
192,192,6396,1,0,0:0:0:0:
448,192,6558,1,8,0:0:0:0:
64,192,6720,1,0,0:0:0:0:
320,192,6882,1,8,0:0:0:0:
192,192,7044,1,0,0:0:0:0:
448,192,7207,1,8,0:0:0:0:
64,192,7369,1,0,0:0:0:0:
320,192,7531,1,8,0:0:0:0:
64,192,7693,1,0,0:0:0:0:
448,192,7855,1,8,0:0:0:0:
192,192,8017,1,0,0:0:0:0:
320,192,8180,1,0,0:0:0:0:
320,192,8504,1,0,0:0:0:0:
192,192,8828,1,8,0:0:0:0:
448,192,8828,1,0,0:0:0:0:
64,192,8990,1,0,0:0:0:0:
192,192,9153,1,0,0:0:0:0:
320,192,9477,1,0,0:0:0:0:
448,192,9801,1,0,0:0:0:0:
192,192,9963,1,0,0:0:0:0:
320,192,10126,1,4,0:0:0:0:
64,192,10369,1,8,0:0:0:0:
192,192,10612,1,4,0:0:0:0:
448,192,10774,1,4,0:0:0:0:
192,192,10936,1,4,0:0:0:0:
320,192,11099,1,8,0:0:0:0:
64,192,11261,1,8,0:0:0:0:
192,192,11423,1,4,0:0:0:0:
448,192,11423,1,0,0:0:0:0:
64,192,11747,1,0,0:0:0:0:
192,192,12072,1,0,0:0:0:0:
448,192,12396,1,0,0:0:0:0:
320,192,12720,1,0,0:0:0:0:
192,192,14342,1,0,0:0:0:0:
320,192,14666,1,0,0:0:0:0:
448,192,14990,1,0,0:0:0:0:
64,192,15315,1,0,0:0:0:0:
448,192,15963,1,0,0:0:0:0:
320,192,16288,1,0,0:0:0:0:
192,192,16612,1,0,0:0:0:0:
448,192,17585,1,0,0:0:0:0:
192,192,17909,1,0,0:0:0:0:
64,192,19207,1,0,0:0:0:0:
192,192,20180,1,0,0:0:0:0:
448,192,20342,1,0,0:0:0:0:
64,192,20504,1,0,0:0:0:0:
192,192,21801,1,0,0:0:0:0:
320,192,24396,5,8,0:0:0:0:
64,192,24396,1,4,0:0:0:0:
192,192,24639,1,0,0:0:0:0:
448,192,24720,1,2,0:0:0:0:
64,192,24882,1,0,0:0:0:0:
448,192,25044,1,8,0:0:0:0:
64,192,25288,1,0,0:0:0:0:
320,192,25369,1,10,0:0:0:0:
192,192,25531,1,0,0:0:0:0:
448,192,25693,1,8,0:0:0:0:
320,192,25936,1,0,0:0:0:0:
64,192,26017,1,10,0:0:0:0:
192,192,26180,1,0,0:0:0:0:
320,192,26342,1,8,0:0:0:0:
64,192,26585,1,0,0:0:0:0:
448,192,26666,1,2,0:0:0:0:
320,192,26828,1,0,0:0:0:0:
192,192,26990,1,8,0:0:0:0:
448,192,27234,1,0,0:0:0:0:
192,192,27315,1,10,0:0:0:0:
320,192,27477,1,0,0:0:0:0:
64,192,27639,1,8,0:0:0:0:
192,192,27882,1,0,0:0:0:0:
448,192,27963,1,10,0:0:0:0:
320,192,28126,1,0,0:0:0:0:
192,192,28288,1,8,0:0:0:0:
64,192,28531,1,0,0:0:0:0:
320,192,28612,1,10,0:0:0:0:
192,192,28774,1,0,0:0:0:0:
320,192,28936,1,8,0:0:0:0:
64,192,29099,1,0,0:0:0:0:
448,192,29261,1,8,0:0:0:0:
320,192,29423,1,8,0:0:0:0:
192,192,29585,1,12,0:0:0:0:
448,192,29828,1,0,0:0:0:0:
192,192,29909,1,10,0:0:0:0:
320,192,30072,1,0,0:0:0:0:
64,192,30234,1,8,0:0:0:0:
320,192,30477,1,0,0:0:0:0:
64,192,30558,1,2,0:0:0:0:
192,192,30720,1,0,0:0:0:0:
448,192,30882,1,8,0:0:0:0:
320,192,31126,1,0,0:0:0:0:
64,192,31207,1,2,0:0:0:0:
192,192,31369,1,0,0:0:0:0:
448,192,31531,1,8,0:0:0:0:
64,192,31774,1,0,0:0:0:0:
320,192,31855,1,2,0:0:0:0:
192,192,32017,1,0,0:0:0:0:
320,192,32180,1,8,0:0:0:0:
64,192,32342,1,8,0:0:0:0:
448,192,32423,1,0,0:0:0:0:
320,192,32504,1,10,0:0:0:0:
64,192,32666,1,0,0:0:0:0:
192,192,32828,1,8,0:0:0:0:
448,192,32990,1,8,0:0:0:0:
192,192,33153,1,10,0:0:0:0:
64,192,33315,1,8,0:0:0:0:
448,192,33477,1,8,0:0:0:0:
64,192,33639,1,8,0:0:0:0:
192,192,33801,1,12,0:0:0:0:
448,192,33963,1,0,0:0:0:0:
192,192,34126,1,12,0:0:0:0:
320,192,34288,1,0,0:0:0:0:
64,192,34369,1,0,0:0:0:0:
192,192,34450,128,8,34774:0:0:0:0:
448,192,34774,128,12,34936:0:0:0:0:
192,192,35261,128,0,35423:0:0:0:0:
320,192,35747,128,2,35909:0:0:0:0:
64,192,36072,128,8,36234:0:0:0:0:
192,192,36558,128,0,36720:0:0:0:0:
448,192,37044,128,2,37207:0:0:0:0:
192,192,37369,128,8,37531:0:0:0:0:
320,192,37855,128,0,38017:0:0:0:0:
64,192,38342,128,2,38504:0:0:0:0:
448,192,38666,1,8,0:0:0:0:
192,192,38828,1,8,0:0:0:0:
320,192,38990,1,10,0:0:0:0:
64,192,39315,1,8,0:0:0:0:
192,192,39477,1,8,0:0:0:0:
320,192,39639,1,10,0:0:0:0:
448,192,39801,1,8,0:0:0:0:
192,192,39963,128,12,40126:0:0:0:0:
448,192,40450,128,0,40612:0:0:0:0:
64,192,40936,128,2,41099:0:0:0:0:
192,192,41261,128,8,41423:0:0:0:0:
320,192,41747,128,0,41909:0:0:0:0:
192,192,42234,128,0,42558:0:0:0:0:
448,192,42558,128,8,43855:0:0:0:0:
64,192,43855,1,8,0:0:0:0:
192,192,44017,1,0,0:0:0:0:
320,192,44180,1,0,0:0:0:0:
448,192,44342,1,0,0:0:0:0:
192,192,44504,1,8,0:0:0:0:
64,192,44666,1,8,0:0:0:0:
192,192,44828,1,8,0:0:0:0:
320,192,44990,1,8,0:0:0:0:
448,192,46450,1,8,0:0:0:0:
192,192,46450,1,0,0:0:0:0:
64,192,46774,1,0,0:0:0:0:
320,192,46936,1,8,0:0:0:0:
320,192,47261,1,8,0:0:0:0:
64,192,47423,1,2,0:0:0:0:
448,192,47747,1,8,0:0:0:0:
64,192,48072,1,0,0:0:0:0:
320,192,48234,1,8,0:0:0:0:
320,192,48558,1,8,0:0:0:0:
64,192,48720,1,2,0:0:0:0:
192,192,49044,1,8,0:0:0:0:
448,192,49369,1,0,0:0:0:0:
64,192,49531,1,8,0:0:0:0:
64,192,49855,1,8,0:0:0:0:
448,192,50017,1,2,0:0:0:0:
320,192,50342,1,8,0:0:0:0:
64,192,50504,1,0,0:0:0:0:
320,192,50666,1,0,0:0:0:0:
192,192,50828,1,8,0:0:0:0:
320,192,51153,1,8,0:0:0:0:
448,192,51315,1,8,0:0:0:0:
64,192,51639,1,4,0:0:0:0:
320,192,51639,1,8,0:0:0:0:
448,192,51963,1,0,0:0:0:0:
192,192,52126,1,8,0:0:0:0:
192,192,52450,1,8,0:0:0:0:
448,192,52612,1,2,0:0:0:0:
64,192,52936,1,8,0:0:0:0:
448,192,53261,1,0,0:0:0:0:
192,192,53423,1,8,0:0:0:0:
192,192,53747,1,8,0:0:0:0:
448,192,53909,1,2,0:0:0:0:
320,192,54234,1,8,0:0:0:0:
64,192,54558,1,0,0:0:0:0:
320,192,54720,1,8,0:0:0:0:
448,192,55044,1,8,0:0:0:0:
64,192,55207,1,0,0:0:0:0:
320,192,55531,1,8,0:0:0:0:
192,192,55693,1,8,0:0:0:0:
64,192,55855,1,8,0:0:0:0:
192,192,56017,1,8,0:0:0:0:
320,192,56504,1,8,0:0:0:0:
192,192,56828,128,8,57315:0:0:0:0:
448,192,57315,128,8,57801:0:0:0:0:
64,192,57801,128,8,59423:0:0:0:0:
320,192,59423,1,8,0:0:0:0:
192,192,59585,1,0,0:0:0:0:
448,192,59747,1,0,0:0:0:0:
64,192,59909,1,0,0:0:0:0:
320,192,60072,1,0,0:0:0:0:
192,192,60234,1,0,0:0:0:0:
64,192,60396,1,0,0:0:0:0:
448,192,60720,1,8,0:0:0:0:
320,192,60882,1,8,0:0:0:0:
192,192,61044,1,0,0:0:0:0:
64,192,61207,1,8,0:0:0:0:
192,192,61531,1,0,0:0:0:0:
64,192,61693,1,0,0:0:0:0:
192,192,61855,1,8,0:0:0:0:
448,192,62017,1,4,0:0:0:0:
64,192,62180,1,0,0:0:0:0:
320,192,62342,1,2,0:0:0:0:
64,192,62504,1,0,0:0:0:0:
192,192,62666,1,8,0:0:0:0:
448,192,62828,1,0,0:0:0:0:
320,192,62990,1,2,0:0:0:0:
64,192,63153,1,0,0:0:0:0:
448,192,63315,1,8,0:0:0:0:
320,192,63477,1,0,0:0:0:0:
64,192,63639,1,2,0:0:0:0:
320,192,63801,1,0,0:0:0:0:
448,192,63963,1,8,0:0:0:0:
192,192,64126,1,0,0:0:0:0:
320,192,64288,1,2,0:0:0:0:
64,192,64450,1,0,0:0:0:0:
448,192,64612,1,8,0:0:0:0:
192,192,64774,1,8,0:0:0:0:
320,192,64936,1,8,0:0:0:0:
192,192,65099,1,8,0:0:0:0:
448,192,65261,1,8,0:0:0:0:
64,192,65423,1,8,0:0:0:0:
320,192,65585,1,8,0:0:0:0:
64,192,65747,1,8,0:0:0:0:
448,192,65909,1,8,0:0:0:0:
192,192,66072,1,8,0:0:0:0:
320,192,66234,1,8,0:0:0:0:
192,192,66396,1,8,0:0:0:0:
448,192,66558,1,8,0:0:0:0:
64,192,66720,1,8,0:0:0:0:
320,192,66882,1,8,0:0:0:0:
192,192,67044,1,8,0:0:0:0:
448,192,67207,1,4,0:0:0:0:
448,192,67369,1,4,0:0:0:0:
64,192,67531,1,4,0:0:0:0:
64,192,67693,1,4,0:0:0:0:
320,192,67855,1,4,0:0:0:0:
320,192,68017,1,4,0:0:0:0:
64,192,68180,128,0,68504:0:0:0:0:
448,192,68504,1,0,0:0:0:0:
192,192,68504,1,0,0:0:0:0:
64,192,69801,1,4,0:0:0:0:
448,192,69801,1,8,0:0:0:0:
320,192,69963,1,0,0:0:0:0:
64,192,70126,1,10,0:0:0:0:
192,192,70288,1,0,0:0:0:0:
448,192,70450,1,8,0:0:0:0:
192,192,70693,1,0,0:0:0:0:
320,192,70936,1,0,0:0:0:0:
64,192,71099,1,8,0:0:0:0:
192,192,71423,1,2,0:0:0:0:
320,192,71747,1,8,0:0:0:0:
448,192,71990,1,0,0:0:0:0:
320,192,72234,1,8,0:0:0:0:
64,192,72396,1,8,0:0:0:0:
320,192,72720,1,10,0:0:0:0:
448,192,73044,1,8,0:0:0:0:
320,192,73288,1,0,0:0:0:0:
192,192,73531,1,0,0:0:0:0:
64,192,73693,1,8,0:0:0:0:
192,192,74017,1,2,0:0:0:0:
320,192,74342,1,8,0:0:0:0:
448,192,74666,128,2,74990:0:0:0:0:
64,192,74990,1,8,0:0:0:0:
320,192,75315,1,10,0:0:0:0:
192,192,75639,1,8,0:0:0:0:
448,192,75882,1,0,0:0:0:0:
320,192,76126,1,0,0:0:0:0:
64,192,76288,1,8,0:0:0:0:
192,192,76612,1,10,0:0:0:0:
320,192,76936,1,8,0:0:0:0:
448,192,77261,128,2,77585:0:0:0:0:
64,192,77585,1,8,0:0:0:0:
320,192,77909,1,2,0:0:0:0:
64,192,78234,1,8,0:0:0:0:
448,192,78477,1,0,0:0:0:0:
320,192,78720,1,8,0:0:0:0:
64,192,78882,128,8,80180:0:0:0:0:
192,192,79531,128,8,80180:0:0:0:0:
448,192,80180,1,8,0:0:0:0:
320,192,80180,1,4,0:0:0:0:
320,192,80666,1,0,0:0:0:0:
192,192,81153,1,8,0:0:0:0:
448,192,81639,1,0,0:0:0:0:
320,192,82126,1,8,0:0:0:0:
192,192,82288,1,8,0:0:0:0:
64,192,82450,1,8,0:0:0:0:
192,192,82612,1,8,0:0:0:0:
448,192,82774,1,8,0:0:0:0:
64,192,82936,1,0,0:0:0:0:
320,192,83099,1,8,0:0:0:0:
192,192,83261,1,0,0:0:0:0:
448,192,83423,1,8,0:0:0:0:
192,192,83585,1,0,0:0:0:0:
320,192,83747,1,8,0:0:0:0:
64,192,83909,1,0,0:0:0:0:
448,192,84072,1,8,0:0:0:0:
192,192,84234,1,0,0:0:0:0:
320,192,84396,1,10,0:0:0:0:
448,192,84720,1,8,0:0:0:0:
320,192,84882,1,8,0:0:0:0:
192,192,85044,128,8,85369:0:0:0:0:
448,192,85369,1,4,0:0:0:0:
64,192,85531,1,0,0:0:0:0:
320,192,85693,1,8,0:0:0:0:
192,192,85855,1,0,0:0:0:0:
448,192,86017,1,8,0:0:0:0:
320,192,86180,1,0,0:0:0:0:
192,192,86342,1,10,0:0:0:0:
64,192,86504,1,0,0:0:0:0:
320,192,86666,1,8,0:0:0:0:
448,192,86828,1,0,0:0:0:0:
320,192,86990,1,10,0:0:0:0:
192,192,87153,1,0,0:0:0:0:
64,192,87315,1,8,0:0:0:0:
320,192,87477,1,0,0:0:0:0:
192,192,87639,128,8,87963:0:0:0:0:
448,192,87963,1,8,0:0:0:0:
320,192,88288,1,2,0:0:0:0:
64,192,88450,1,8,0:0:0:0:
192,192,88612,1,8,0:0:0:0:
448,192,88936,1,10,0:0:0:0:
320,192,89261,128,8,90558:0:0:0:0:
64,192,90882,1,12,0:0:0:0:
448,192,90882,1,2,0:0:0:0:
320,192,91044,1,0,0:0:0:0:
192,192,91207,1,8,0:0:0:0:
448,192,91531,1,10,0:0:0:0:
64,192,91693,1,0,0:0:0:0:
320,192,91855,1,8,0:0:0:0:
192,192,92017,1,0,0:0:0:0:
64,192,92180,1,2,0:0:0:0:
192,192,92342,1,0,0:0:0:0:
448,192,92504,1,8,0:0:0:0:
320,192,92666,1,0,0:0:0:0:
64,192,92828,1,2,0:0:0:0:
192,192,92990,1,8,0:0:0:0:
320,192,93153,1,8,0:0:0:0:
448,192,93477,1,10,0:0:0:0:
320,192,93639,1,0,0:0:0:0:
64,192,93801,1,8,0:0:0:0:
192,192,94126,1,2,0:0:0:0:
448,192,94288,1,0,0:0:0:0:
192,192,94450,1,8,0:0:0:0:
320,192,94774,1,2,0:0:0:0:
192,192,94936,1,0,0:0:0:0:
64,192,95099,1,8,0:0:0:0:
192,192,95423,1,8,0:0:0:0:
448,192,95585,1,8,0:0:0:0:
320,192,96072,1,2,0:0:0:0:
64,192,96072,1,4,0:0:0:0:
448,192,96234,1,0,0:0:0:0:
192,192,96396,1,8,0:0:0:0:
448,192,96720,1,2,0:0:0:0:
192,192,96882,1,0,0:0:0:0:
320,192,97044,1,8,0:0:0:0:
192,192,97207,5,0,0:0:0:0:
448,192,97369,1,10,0:0:0:0:
192,192,97531,1,0,0:0:0:0:
320,192,97693,1,8,0:0:0:0:
192,192,97855,1,0,0:0:0:0:
64,192,98017,1,2,0:0:0:0:
320,192,98180,1,0,0:0:0:0:
448,192,98342,128,8,99639:0:0:0:0:
320,192,99639,1,8,0:0:0:0:
192,192,99639,128,0,100288:0:0:0:0:
64,192,100288,128,0,100936:0:0:0:0:
448,192,100936,5,8,0:0:0:0:
448,192,101099,1,0,0:0:0:0:
64,192,101261,1,2,0:0:0:0:
64,192,101423,1,0,0:0:0:0:
320,192,101585,1,8,0:0:0:0:
320,192,101747,1,0,0:0:0:0:
192,192,101909,1,10,0:0:0:0:
192,192,102072,1,0,0:0:0:0:
448,192,102234,1,8,0:0:0:0:
448,192,102396,1,0,0:0:0:0:
192,192,102558,1,2,0:0:0:0:
192,192,102720,1,0,0:0:0:0:
320,192,102882,1,8,0:0:0:0:
320,192,103044,1,0,0:0:0:0:
64,192,103207,1,10,0:0:0:0:
64,192,103369,1,0,0:0:0:0:
320,192,103531,1,8,0:0:0:0:
320,192,103693,1,0,0:0:0:0:
448,192,103855,1,2,0:0:0:0:
448,192,104017,1,0,0:0:0:0:
64,192,104180,1,8,0:0:0:0:
64,192,104342,1,0,0:0:0:0:
320,192,104504,1,10,0:0:0:0:
320,192,104666,1,0,0:0:0:0:
192,192,104828,1,8,0:0:0:0:
192,192,104990,1,0,0:0:0:0:
448,192,105153,1,2,0:0:0:0:
448,192,105315,1,0,0:0:0:0:
64,192,105477,1,8,0:0:0:0:
64,192,105639,1,0,0:0:0:0:
448,192,105801,1,2,0:0:0:0:
448,192,105963,1,0,0:0:0:0:
320,192,106126,1,8,0:0:0:0:
64,192,106126,1,0,0:0:0:0:
320,192,106612,1,8,0:0:0:0:
64,192,106612,1,0,0:0:0:0:
448,192,107099,1,8,0:0:0:0:
192,192,107099,1,4,0:0:0:0:
448,192,108396,128,8,108720:0:0:0:0:
320,192,108720,1,8,0:0:0:0:
64,192,108720,1,0,0:0:0:0:
64,192,109207,1,8,0:0:0:0:
320,192,109207,1,0,0:0:0:0:
192,192,109693,1,4,0:0:0:0:
448,192,109693,1,8,0:0:0:0:
448,192,111315,1,12,0:0:0:0:
64,192,111639,1,14,0:0:0:0:
448,192,111963,1,12,0:0:0:0:
64,192,112288,1,14,0:0:0:0:
448,192,112612,1,12,0:0:0:0:
64,192,112936,1,14,0:0:0:0:
448,192,113261,1,10,0:0:0:0:
448,192,113423,1,10,0:0:0:0:
64,192,113585,1,10,0:0:0:0:
320,192,113585,1,4,0:0:0:0:
