osu file format v10

[General]
AudioFilename: 10.HEAVENLY MOON.mp3
AudioLeadIn: 1000
PreviewTime: 80148
Countdown: 0
SampleSet: Normal
StackLeniency: 0.7
Mode: 1
LetterboxInBreaks: 0

[Editor]
DistanceSpacing: 0.8
BeatDivisor: 4
GridSize: 8

[Metadata]
Title:HEAVENLY MOON
TitleUnicode:
Artist:Tatsh
ArtistUnicode:
Creator:Dark Fang
Version:Taiko
Source:jubeat copious
Tags:Frobe reflec beat limelight
BeatmapID:145292
BeatmapSetID:46706

[Difficulty]
HPDrainRate:7
CircleSize:5
OverallDifficulty:5
ApproachRate:5
SliderMultiplier:1.4
SliderTickRate:1

[Events]
//Background and Video events
0,0,"TaikoBG.png"
//Break Periods
//Storyboard Layer 0 (Background)
//Storyboard Layer 1 (Fail)
//Storyboard Layer 2 (Pass)
//Storyboard Layer 3 (Foreground)
//Storyboard Sound Samples
//Background Colour Transformations
3,100,163,162,255

[TimingPoints]
1013,324.324324324324,4,1,0,70,1,0
11715,-100,4,1,0,50,0,0
24364,-90.9090909090909,4,1,0,70,0,0
34742,-90.9090909090909,4,1,0,70,0,0
34823,-90.9090909090909,4,1,0,50,0,0
43823,-90.9090909090909,4,1,0,70,0,0
45445,-90.9090909090909,4,1,0,50,0,0
46418,-100,4,1,0,50,0,0
61985,-100,4,1,0,60,0,0
64418,-100,4,1,0,70,0,0
67823,-100,4,1,0,60,0,0
68148,-100,4,1,0,50,0,0
69769,-90.9090909090909,4,1,0,70,0,1
90526,-90.9090909090909,4,1,0,70,0,0
90850,-90.9090909090909,4,1,0,60,0,1
95715,-90.9090909090909,4,1,0,60,0,0
96040,-90.9090909090909,4,1,0,60,0,1
98310,-90.9090909090909,4,1,0,60,0,0
100904,-100,4,1,0,60,0,0

[Colours]
Combo1 : 128,150,255
Combo2 : 255,0,0

[HitObjects]
256,184,1013,5,0,0:0:0
256,184,1175,5,8,0:0:0
256,184,1337,5,0,0:0:0
256,184,1499,5,8,0:0:0
256,184,1661,5,0,0:0:0
256,184,1823,5,8,0:0:0
256,184,1985,5,0,0:0:0
256,184,2148,5,8,0:0:0
256,184,2310,5,0,0:0:0
256,184,2472,5,8,0:0:0
256,184,2634,5,0,0:0:0
256,184,2796,5,8,0:0:0
256,184,3607,5,0,0:0:0
256,184,3769,5,8,0:0:0
256,184,3931,5,0,0:0:0
256,184,4094,5,8,0:0:0
256,184,4256,5,0,0:0:0
256,184,4418,5,8,0:0:0
256,184,4580,5,0,0:0:0
256,184,4742,5,8,0:0:0
256,184,4904,5,0,0:0:0
256,184,5067,5,8,0:0:0
256,184,5229,5,0,0:0:0
256,184,5391,5,8,0:0:0
256,184,5877,1,8,0:0:0
256,184,6040,5,0,0:0:0
256,184,6202,1,0,0:0:0
256,184,6364,5,8,0:0:0
256,184,6526,5,0,0:0:0
256,184,6688,5,8,0:0:0
256,184,6850,5,0,0:0:0
256,184,7012,5,8,0:0:0
256,184,7175,5,0,0:0:0
256,184,7337,5,8,0:0:0
256,184,7499,5,0,0:0:0
256,184,7661,5,8,0:0:0
256,184,7823,5,0,0:0:0
256,184,7985,5,8,0:0:0
256,184,8796,1,8,0:0:0
256,184,8958,5,0,0:0:0
256,184,9121,5,8,0:0:0
256,184,9445,1,8,0:0:0
256,184,9769,1,8,0:0:0
256,184,9931,5,0,0:0:0
256,184,10094,5,8,0:0:0
256,184,10337,5,0,0:0:0
256,184,10580,1,0,0:0:0
256,184,10742,5,8,0:0:0
256,184,10823,1,8,0:0:0
256,184,10904,5,0,0:0:0
256,184,10985,1,0,0:0:0
256,184,11067,5,8,0:0:0
256,184,11148,1,8,0:0:0
256,184,11229,1,8,0:0:0
256,184,11310,1,8,0:0:0
256,184,11391,1,8,0:0:0
256,184,11715,5,0,0:0:0
256,184,12040,5,8,0:0:0
256,184,12364,1,8,0:0:0
256,184,12688,1,8,0:0:0
256,184,12850,5,0,0:0:0
256,184,13013,5,8,0:0:0
256,184,13175,5,0,0:0:0
256,184,13337,5,8,0:0:0
256,184,13499,5,0,0:0:0
256,184,13661,1,0,0:0:0
256,184,13823,1,0,0:0:0
256,184,13985,5,8,0:0:0
256,184,14310,1,8,0:0:0
256,184,14634,1,8,0:0:0
256,184,14796,5,0,0:0:0
256,184,14958,1,0,0:0:0
256,184,15283,5,8,0:0:0
256,184,15445,5,0,0:0:0
256,184,15607,5,8,0:0:0
256,184,15769,5,0,0:0:0
256,184,15931,5,8,0:0:0
256,184,16256,1,8,0:0:0
256,184,16418,5,0,0:0:0
256,184,16580,5,8,0:0:0
256,184,16904,5,0,0:0:0
256,184,17067,5,8,0:0:0
256,184,17391,5,0,0:0:0
256,184,17553,5,8,0:0:0
256,184,17877,1,8,0:0:0
256,184,18040,1,8,0:0:0
256,184,18202,5,0,0:0:0
256,184,18364,5,8,0:0:0
256,184,18688,5,0,0:0:0
256,184,18850,5,8,0:0:0
256,184,19175,1,8,0:0:0
256,184,19337,5,0,0:0:0
256,184,19499,5,8,0:0:0
256,184,19661,1,8,0:0:0
256,184,20148,1,8,0:0:0
256,184,20310,1,8,0:0:0
256,184,20472,5,0,0:0:0
256,184,20634,1,0,0:0:0
256,184,20796,5,8,0:0:0
256,184,20958,5,0,0:0:0
256,184,21121,1,0,0:0:0
256,184,21283,1,0,0:0:0
256,184,21445,5,8,0:0:0
256,184,21607,5,0,0:0:0
256,184,21769,5,8,0:0:0
256,192,21931,12,0,23634,0:0:0
256,184,24364,5,12,0:0:0
256,184,24607,1,0,0:0:0
256,184,24688,5,8,0:0:0
256,184,24850,5,0,0:0:0
256,184,25012,5,8,0:0:0
256,184,25256,5,0,0:0:0
256,184,25337,5,8,0:0:0
256,184,25499,5,0,0:0:0
256,184,25661,5,8,0:0:0
256,184,25904,5,0,0:0:0
256,184,25985,1,0,0:0:0
256,184,26148,1,0,0:0:0
256,184,26310,5,8,0:0:0
256,184,26553,5,0,0:0:0
256,184,26634,1,0,0:0:0
256,184,26796,1,0,0:0:0
256,184,26958,5,8,0:0:0
256,184,27202,5,0,0:0:0
256,184,27283,5,8,0:0:0
256,184,27445,5,0,0:0:0
256,184,27607,5,8,0:0:0
256,184,27850,5,0,0:0:0
256,184,27931,5,8,0:0:0
256,184,28094,5,0,0:0:0
256,184,28256,5,8,0:0:0
256,184,28418,5,0,0:0:0
256,184,28580,5,8,0:0:0
256,184,28742,1,8,0:0:0
256,184,28904,5,0,0:0:0
256,184,29067,1,0,0:0:0
256,184,29148,1,0,0:0:0
256,184,29229,5,8,0:0:0
256,184,29391,5,0,0:0:0
256,184,29472,1,0,0:0:0
256,184,29553,5,8,0:0:0
256,184,29796,5,0,0:0:0
256,184,29877,5,8,0:0:0
256,184,30040,5,0,0:0:0
256,184,30202,5,8,0:0:0
256,184,30364,5,0,0:0:0
256,184,30526,5,8,0:0:0
256,184,30688,5,0,0:0:0
256,184,30850,5,8,0:0:0
256,184,31094,5,0,0:0:0
256,184,31175,5,8,0:0:0
256,184,31337,5,0,0:0:0
256,184,31499,5,8,0:0:0
256,184,31661,5,0,0:0:0
256,184,31823,5,8,0:0:0
256,184,31985,5,0,0:0:0
256,184,32067,1,0,0:0:0
256,184,32148,5,8,0:0:0
256,184,32310,5,0,0:0:0
256,184,32472,1,0,0:0:0
256,184,32634,5,8,0:0:0
256,184,32796,5,0,0:0:0
256,184,32958,5,8,0:0:0
256,184,33121,5,0,0:0:0
256,184,33202,1,0,0:0:0
256,184,33283,1,0,0:0:0
256,184,33364,1,0,0:0:0
256,184,33445,5,8,0:0:0
256,184,33607,1,8,0:0:0
256,184,33769,1,8,0:0:0
256,184,33931,5,0,0:0:0
256,184,34094,1,0,0:0:0
256,184,34175,1,0,0:0:0
256,184,34256,1,0,0:0:0
256,184,34337,1,0,0:0:0
256,184,34418,5,8,0:0:0
256,184,34499,1,8,0:0:0
256,184,34580,1,8,0:0:0
256,184,34661,1,8,0:0:0
256,184,34742,1,8,0:0:0
256,184,35067,5,0,0:0:0
256,184,35229,5,8,0:0:0
256,184,35553,5,0,0:0:0
256,184,35715,5,8,0:0:0
256,184,36040,1,8,0:0:0
256,184,36364,5,0,0:0:0
256,184,36526,5,8,0:0:0
256,184,36850,5,0,0:0:0
256,184,36931,1,0,0:0:0
256,184,37012,5,8,0:0:0
256,184,37337,1,8,0:0:0
256,184,37661,5,0,0:0:0
256,184,37823,5,8,0:0:0
256,184,38148,5,0,0:0:0
256,184,38310,5,8,0:0:0
256,184,38634,1,8,0:0:0
256,184,38796,5,0,0:0:0
256,184,38958,5,8,0:0:0
256,184,39121,5,0,0:0:0
256,184,39283,5,8,0:0:0
256,184,39364,5,0,0:0:0
256,184,39445,5,8,0:0:0
256,184,39526,5,0,0:0:0
256,184,39607,5,8,0:0:0
256,184,39688,1,8,0:0:0
256,184,39769,1,8,0:0:0
256,184,39850,1,8,0:0:0
256,184,39931,5,0,0:0:0
256,184,40256,1,0,0:0:0
256,184,40418,5,8,0:0:0
256,184,40742,5,0,0:0:0
256,184,40904,5,8,0:0:0
256,184,41229,5,0,0:0:0
256,184,41553,1,0,0:0:0
256,184,41715,5,8,0:0:0
256,184,42040,1,8,0:0:0
256,184,42202,1,8,0:0:0
144,200,42526,2,0,B|560:-40,1,461.999986231328
256,184,43823,1,8,0:0:0
256,184,43985,5,0,0:0:0
256,184,44148,1,0,0:0:0
256,184,44310,5,8,0:0:0
256,184,44472,5,0,0:0:0
256,184,44553,1,0,0:0:0
256,184,44634,1,0,0:0:0
256,184,44715,1,0,0:0:0
256,184,44796,5,8,0:0:0
256,184,44877,1,8,0:0:0
256,184,44958,1,8,0:0:0
256,184,45040,1,8,0:0:0
256,184,45121,1,8,0:0:0
256,184,45445,1,8,0:0:0
256,184,46094,1,8,0:0:0
256,184,46418,5,0,0:0:0
256,184,46580,1,0,0:0:0
256,184,46742,5,8,0:0:0
256,184,46904,5,0,0:0:0
256,184,47229,1,0,0:0:0
256,184,47310,1,0,0:0:0
256,184,47391,5,8,0:0:0
256,184,47715,5,0,0:0:0
256,184,47877,1,0,0:0:0
256,184,48040,5,8,0:0:0
256,184,48202,5,0,0:0:0
256,184,48526,1,0,0:0:0
256,184,48607,1,0,0:0:0
256,184,48688,5,8,0:0:0
256,184,49012,5,0,0:0:0
256,184,49175,1,0,0:0:0
256,184,49337,5,8,0:0:0
256,184,49499,5,0,0:0:0
256,184,49823,1,0,0:0:0
256,184,49904,1,0,0:0:0
256,184,49985,5,8,0:0:0
256,184,50310,5,0,0:0:0
256,184,50472,5,8,0:0:0
256,184,50634,1,8,0:0:0
256,184,50796,5,0,0:0:0
256,184,51121,5,8,0:0:0
256,184,51283,5,0,0:0:0
256,184,51607,1,0,0:0:0
256,184,51769,1,0,0:0:0
256,184,51931,5,8,0:0:0
256,184,52094,5,0,0:0:0
256,184,52418,1,0,0:0:0
256,184,52499,1,0,0:0:0
256,184,52580,5,8,0:0:0
256,184,52904,5,0,0:0:0
256,184,53067,1,0,0:0:0
256,184,53229,5,8,0:0:0
256,184,53391,5,0,0:0:0
256,184,53715,1,0,0:0:0
256,184,53796,1,0,0:0:0
256,184,53877,5,8,0:0:0
256,184,54202,5,0,0:0:0
256,184,54364,1,0,0:0:0
256,184,54526,5,8,0:0:0
256,184,54688,5,0,0:0:0
256,184,54850,1,0,0:0:0
256,184,55012,5,8,0:0:0
256,184,55175,5,0,0:0:0
256,184,55499,5,8,0:0:0
256,184,55661,5,0,0:0:0
256,184,55823,1,0,0:0:0
256,184,55985,5,8,0:0:0
256,184,56310,1,8,0:0:0
256,184,56472,5,0,0:0:0
256,184,56796,5,8,0:0:0
256,184,57121,5,0,0:0:0
256,184,57283,5,12,0:0:0
256,184,57607,5,0,0:0:0
256,184,57769,5,12,0:0:0
256,184,59391,1,8,0:0:0
256,184,59553,5,0,0:0:0
256,184,59715,1,0,0:0:0
256,184,59877,5,8,0:0:0
256,184,60040,5,0,0:0:0
256,184,60202,1,0,0:0:0
256,184,60364,5,8,0:0:0
256,184,60526,5,0,0:0:0
256,184,60688,5,8,0:0:0
256,184,60850,5,0,0:0:0
256,184,61012,1,0,0:0:0
256,184,61175,1,0,0:0:0
256,184,61337,5,8,0:0:0
256,184,61499,5,0,0:0:0
256,184,61661,1,0,0:0:0
256,184,61823,1,0,0:0:0
256,184,61985,5,8,0:0:0
256,184,62148,5,0,0:0:0
256,184,62310,1,0,0:0:0
256,184,62472,5,8,0:0:0
256,184,62634,5,0,0:0:0
256,184,62796,1,0,0:0:0
256,184,62958,5,8,0:0:0
256,184,63121,5,0,0:0:0
256,184,63283,1,0,0:0:0
256,184,63445,5,8,0:0:0
256,184,63607,5,0,0:0:0
256,184,63769,1,0,0:0:0
256,184,63931,5,8,0:0:0
256,184,64094,5,0,0:0:0
256,184,64256,1,0,0:0:0
256,184,64418,5,8,0:0:0
256,184,64580,5,0,0:0:0
256,184,64742,1,0,0:0:0
256,184,64904,5,8,0:0:0
256,184,65067,5,0,0:0:0
256,184,65229,1,0,0:0:0
256,184,65391,5,8,0:0:0
256,184,65553,5,0,0:0:0
256,184,65715,1,0,0:0:0
256,184,65877,5,8,0:0:0
256,184,66040,5,0,0:0:0
256,184,66202,5,8,0:0:0
256,184,66364,5,0,0:0:0
256,184,66526,5,8,0:0:0
256,184,66688,5,0,0:0:0
256,184,66850,5,8,0:0:0
256,184,67012,5,0,0:0:0
256,184,67175,5,12,0:0:0
256,184,67337,1,12,0:0:0
256,184,67499,1,12,0:0:0
256,184,67661,1,12,0:0:0
256,184,67823,1,12,0:0:0
256,184,67985,1,12,0:0:0
256,184,68148,1,8,0:0:0
256,184,68229,5,0,0:0:0
256,184,68310,5,8,0:0:0
256,184,68391,5,0,0:0:0
256,184,68472,5,8,0:0:0
256,184,69769,1,12,0:0:0
256,184,69931,5,0,0:0:0
256,184,70094,5,8,0:0:0
256,184,70256,5,0,0:0:0
256,184,70418,5,8,0:0:0
256,184,70580,5,0,0:0:0
256,184,70661,5,8,0:0:0
256,184,70904,1,8,0:0:0
256,184,71067,1,12,0:0:0
256,184,71229,5,0,0:0:0
256,184,71391,5,8,0:0:0
256,184,71553,5,0,0:0:0
256,184,71715,5,8,0:0:0
256,184,71877,5,0,0:0:0
256,184,71958,5,8,0:0:0
256,184,72202,1,8,0:0:0
256,184,72364,1,12,0:0:0
256,184,72526,5,0,0:0:0
256,184,72688,5,8,0:0:0
256,184,72850,5,0,0:0:0
256,184,73012,5,8,0:0:0
256,184,73175,5,0,0:0:0
256,184,73256,1,0,0:0:0
256,184,73337,5,8,0:0:0
256,184,73499,5,0,0:0:0
256,184,73661,5,12,0:0:0
256,184,73823,5,0,0:0:0
256,184,73985,5,8,0:0:0
256,184,74148,5,0,0:0:0
256,184,74310,5,8,0:0:0
256,184,74472,5,0,0:0:0
256,184,74634,1,0,0:0:0
256,184,74715,1,0,0:0:0
256,184,74796,1,0,0:0:0
256,184,74877,1,0,0:0:0
256,184,74958,5,8,0:0:0
256,184,75121,5,0,0:0:0
256,184,75283,5,8,0:0:0
256,184,75364,1,8,0:0:0
256,184,75445,5,0,0:0:0
256,184,75607,5,8,0:0:0
256,184,75769,5,0,0:0:0
256,184,75850,5,8,0:0:0
256,184,76094,5,0,0:0:0
256,184,76256,5,8,0:0:0
256,184,76418,5,0,0:0:0
256,184,76580,5,8,0:0:0
256,184,76742,5,0,0:0:0
256,184,76904,5,8,0:0:0
256,184,77067,5,0,0:0:0
256,184,77229,1,0,0:0:0
256,184,77310,1,0,0:0:0
256,184,77391,5,8,0:0:0
256,184,77472,5,0,0:0:0
256,184,77553,5,8,0:0:0
256,184,77715,5,0,0:0:0
256,184,77877,1,0,0:0:0
256,184,78040,1,0,0:0:0
256,184,78202,5,8,0:0:0
256,184,78364,5,0,0:0:0
256,184,78526,1,0,0:0:0
256,184,78688,1,0,0:0:0
256,184,78850,5,8,0:0:0
256,184,78931,5,0,0:0:0
256,184,79012,1,0,0:0:0
256,184,79094,1,0,0:0:0
256,184,79175,5,8,0:0:0
256,184,79256,5,0,0:0:0
256,184,79337,1,0,0:0:0
256,184,79418,1,0,0:0:0
256,184,79499,5,8,0:0:0
256,184,79580,5,0,0:0:0
256,184,79661,5,8,0:0:0
256,184,79742,5,0,0:0:0
256,184,79823,5,8,0:0:0
256,184,79904,1,8,0:0:0
256,184,79985,5,0,0:0:0
256,184,80067,1,0,0:0:0
256,184,80148,5,8,0:0:0
256,184,80310,5,0,0:0:0
256,184,80472,1,0,0:0:0
256,184,80634,5,8,0:0:0
256,184,80715,1,8,0:0:0
256,184,80796,5,0,0:0:0
256,184,80958,1,0,0:0:0
256,184,81121,5,8,0:0:0
256,184,81202,5,0,0:0:0
256,184,81283,1,0,0:0:0
256,184,81445,1,0,0:0:0
256,184,81607,5,8,0:0:0
256,184,81769,5,0,0:0:0
256,184,81931,1,0,0:0:0
256,184,82094,5,8,0:0:0
256,184,82175,5,0,0:0:0
256,184,82256,1,0,0:0:0
256,184,82337,1,0,0:0:0
256,184,82418,5,8,0:0:0
256,184,82580,5,0,0:0:0
256,184,82742,5,8,0:0:0
256,184,82904,5,0,0:0:0
256,184,83067,1,0,0:0:0
256,184,83229,5,8,0:0:0
256,184,83391,5,0,0:0:0
256,184,83553,1,0,0:0:0
256,184,83634,1,0,0:0:0
256,184,83715,5,8,0:0:0
256,184,83877,5,0,0:0:0
256,184,84040,1,0,0:0:0
256,184,84202,5,8,0:0:0
256,184,84364,5,0,0:0:0
256,184,84526,5,8,0:0:0
256,184,84688,5,0,0:0:0
256,184,84769,1,0,0:0:0
256,184,84850,1,0,0:0:0
256,184,84931,1,0,0:0:0
256,184,85012,5,8,0:0:0
256,184,85094,1,8,0:0:0
256,184,85175,1,8,0:0:0
256,184,85256,1,8,0:0:0
256,184,85337,5,0,0:0:0
256,184,85499,1,0,0:0:0
256,184,85580,1,0,0:0:0
256,184,85661,1,0,0:0:0
256,184,85823,5,8,0:0:0
256,184,85985,5,0,0:0:0
256,184,86067,1,0,0:0:0
256,184,86148,1,0,0:0:0
256,184,86310,5,8,0:0:0
256,184,86472,5,0,0:0:0
256,184,86553,1,0,0:0:0
256,184,86634,1,0,0:0:0
256,184,86796,5,8,0:0:0
256,184,86958,5,0,0:0:0
256,184,87121,1,0,0:0:0
256,184,87283,5,8,0:0:0
256,184,87445,5,0,0:0:0
256,184,87607,1,0,0:0:0
256,184,87688,1,0,0:0:0
256,184,87769,1,0,0:0:0
256,184,87850,1,0,0:0:0
256,184,87931,5,8,0:0:0
256,184,88094,5,0,0:0:0
256,184,88256,1,0,0:0:0
256,184,88418,5,8,0:0:0
256,184,88580,5,0,0:0:0
256,184,88742,5,8,0:0:0
256,184,88904,1,8,0:0:0
256,184,89067,5,0,0:0:0
256,184,89229,5,8,0:0:0
256,184,89310,5,0,0:0:0
256,184,89391,5,8,0:0:0
256,184,89472,5,0,0:0:0
256,184,89553,5,8,0:0:0
256,184,89634,5,0,0:0:0
256,184,89715,5,8,0:0:0
256,184,89796,5,0,0:0:0
256,184,89877,5,8,0:0:0
256,184,89958,1,8,0:0:0
256,184,90040,5,0,0:0:0
256,184,90121,1,0,0:0:0
256,184,90202,5,8,0:0:0
256,184,90283,1,8,0:0:0
256,184,90364,5,0,0:0:0
256,184,90445,1,0,0:0:0
256,184,90526,5,8,0:0:0
256,184,90850,5,4,0:0:0
256,184,91175,5,12,0:0:0
256,184,91499,1,8,0:0:0
256,184,91580,1,8,0:0:0
256,184,91661,5,0,0:0:0
256,184,91823,5,8,0:0:0
256,184,91985,5,0,0:0:0
256,184,92148,5,8,0:0:0
256,184,92310,5,0,0:0:0
256,184,92472,5,8,0:0:0
256,184,92553,5,0,0:0:0
256,184,92634,1,0,0:0:0
256,184,92715,1,0,0:0:0
256,184,92796,5,8,0:0:0
256,184,92958,5,0,0:0:0
256,184,93121,5,8,0:0:0
256,184,93283,1,8,0:0:0
256,184,93445,1,8,0:0:0
256,184,93607,5,0,0:0:0
256,184,93769,5,8,0:0:0
256,184,93850,1,8,0:0:0
256,184,93931,5,0,0:0:0
256,184,94094,5,8,0:0:0
256,184,94256,5,0,0:0:0
256,184,94418,5,8,0:0:0
256,184,94580,5,0,0:0:0
256,184,94661,1,0,0:0:0
256,184,94742,5,8,0:0:0
256,184,94904,5,0,0:0:0
256,184,95067,5,8,0:0:0
256,184,95148,1,8,0:0:0
256,184,95229,5,0,0:0:0
256,184,95310,1,0,0:0:0
256,184,95391,5,8,0:0:0
256,184,95553,5,0,0:0:0
256,184,96040,1,4,0:0:0
256,184,96364,5,12,0:0:0
256,184,96526,5,0,0:0:0
256,184,96688,5,8,0:0:0
256,184,96769,1,8,0:0:0
256,184,96850,5,0,0:0:0
256,184,97012,1,0,0:0:0
256,184,97175,5,8,0:0:0
256,184,97256,1,8,0:0:0
256,184,97337,5,0,0:0:0
256,184,97499,1,0,0:0:0
256,184,97661,1,0,0:0:0
256,184,97742,1,0,0:0:0
256,184,97823,5,8,0:0:0
256,184,97985,5,0,0:0:0
256,184,98067,1,0,0:0:0
256,184,98148,5,8,0:0:0
256,192,98310,8,0,100580,0:0:0
256,192,100904,5,8,0:0:0
256,192,101067,1,0,0:0:0
256,192,101229,1,0,0:0:0
256,192,101391,1,0,0:0:0
256,192,101553,5,8,0:0:0
256,192,101715,5,0,0:0:0
256,192,101877,1,0,0:0:0
256,192,102040,1,0,0:0:0
256,192,102202,5,8,0:0:0
256,192,102364,5,0,0:0:0
256,192,102526,1,0,0:0:0
256,192,102688,1,0,0:0:0
256,192,102850,5,8,0:0:0
256,192,103012,5,0,0:0:0
256,192,103175,1,0,0:0:0
256,192,103337,1,0,0:0:0
256,192,103499,5,8,0:0:0
256,192,103661,1,8,0:0:0
256,192,103823,1,8,0:0:0
256,192,103985,1,8,0:0:0
256,192,104148,1,8,0:0:0
256,192,104310,1,8,0:0:0
256,192,104472,1,8,0:0:0
256,192,104634,1,8,0:0:0
256,192,104796,1,12,0:0:0
256,192,104958,1,12,0:0:0
256,192,105121,1,12,0:0:0
256,192,105283,1,12,0:0:0
256,192,105445,1,12,0:0:0
256,192,105607,1,12,0:0:0
256,192,105769,1,12,0:0:0
256,192,105931,1,12,0:0:0
256,192,106094,5,4,0:0:0
256,192,106580,1,4,0:0:0
96,152,107067,2,0,B|504:40,1,420
256,192,108364,5,8,0:0:0
256,192,108445,1,8,0:0:0
256,192,108526,1,8,0:0:0
256,192,108607,1,8,0:0:0
256,192,108688,5,0,0:0:0
256,192,109175,1,0,0:0:0
120,168,109661,2,0,B|528:24,1,420
256,192,111283,1,4,0:0:0
256,192,111607,1,4,0:0:0
256,192,111931,1,4,0:0:0
256,192,112256,1,4,0:0:0
256,192,112580,1,4,0:0:0
256,192,112904,1,4,0:0:0
256,192,113229,5,12,0:0:0
256,192,113391,1,12,0:0:0
256,192,113553,1,12,0:0:0
