osu file format v10

[General]
AudioFilename: 10.HEAVENLY MOON.mp3
AudioLeadIn: 1000
PreviewTime: 80148
Countdown: 0
SampleSet: Soft
StackLeniency: 0.7
Mode: 0
LetterboxInBreaks: 0

[Editor]
Bookmarks: 13022,59401,61995,85500
DistanceSpacing: 1.5
BeatDivisor: 4
GridSize: 4

[Metadata]
Title:HEAVENLY MOON
TitleUnicode:HEAVENLY MOON
Artist:Tatsh
ArtistUnicode:Tatsh
Creator:Dark Fang
Version:Extreme
Source:jubeat copious
Tags:Frobe reflec beat limelight
BeatmapID:150621
BeatmapSetID:46706

[Difficulty]
HPDrainRate:6
CircleSize:4
OverallDifficulty:8
ApproachRate:9
SliderMultiplier:1.6
SliderTickRate:2

[Events]
//Background and Video events
0,0,"BG.jpg"
//Break Periods
//Storyboard Layer 0 (Background)
//Storyboard Layer 1 (Fail)
//Storyboard Layer 2 (Pass)
//Storyboard Layer 3 (Foreground)
//Storyboard Sound Samples
//Background Colour Transformations
3,100,163,162,255

[TimingPoints]
1013,324.324324324324,4,1,0,60,1,0
8796,-100,4,1,0,45,0,0
8958,-100,4,2,0,70,0,0
9445,-100,4,1,0,55,0,0
9607,-100,4,2,0,70,0,0
10094,-100,4,1,0,60,0,0
11067,-100,4,1,0,50,0,0
11715,-133.333333333333,4,2,0,50,0,0
21850,-200,4,2,0,5,0,0
24364,-100,4,1,0,60,0,1
34742,-100,4,1,0,60,0,0
45121,-100,4,2,0,70,0,0
45769,-100,4,2,0,60,0,0
45931,-100,4,2,0,70,0,0
46418,-100,4,1,0,60,0,0
58256,-100,4,2,0,75,0,0
58418,-100,4,1,0,60,0,0
58580,-100,4,2,0,75,0,0
58742,-100,4,1,0,60,0,0
59067,-100,4,2,0,75,0,0
62148,-100,4,1,0,55,0,0
62472,-100,4,2,0,75,0,0
62634,-100,4,1,0,60,0,0
62958,-100,4,2,0,75,0,0
63121,-100,4,1,0,60,0,0
63445,-100,4,2,0,75,0,0
63607,-100,4,1,0,60,0,0
63931,-100,4,2,0,75,0,0
64094,-100,4,1,0,60,0,0
64418,-100,4,2,0,75,0,0
64580,-100,4,1,0,60,0,0
64904,-100,4,2,0,75,0,0
65067,-100,4,1,0,60,0,0
65391,-100,4,2,0,75,0,0
65553,-100,4,1,0,60,0,0
65877,-100,4,2,0,75,0,0
66040,-100,4,1,0,60,0,0
66202,-100,4,2,0,75,0,0
66364,-100,4,1,0,60,0,0
66526,-100,4,2,0,75,0,0
67175,-83.3333333333333,4,1,0,60,0,0
68553,-100,4,1,0,5,0,0
69769,-100,4,1,0,65,0,1
90526,-200,4,1,0,40,0,0
90850,-100,4,1,0,65,0,1
95715,-200,4,1,0,40,0,0
96040,-100,4,1,0,65,0,1
98310,-100,4,1,0,65,0,0
106094,-100,4,1,0,60,0,0
111283,-100,4,1,0,10,0,0
111931,-100,4,1,0,20,0,0
112580,-100,4,1,0,30,0,0
112904,-100,4,1,0,45,0,0
113229,-100,4,1,0,50,0,0

[Colours]
Combo1 : 0,0,255
Combo2 : 28,106,140
Combo3 : 0,128,255
Combo4 : 157,206,255
Combo5 : 132,111,249

[HitObjects]
192,48,1013,2,0,B|208:88|192:128,1,80,4|0,0:0|0:0,0:0:0
320,48,1337,2,0,B|304:88|320:128,1,80
217,244,1661,2,0,B|256:260|296:244,1,80
320,236,1904,1,0,0:0:0
340,224,1985,1,0,0:0:0
256,136,2148,1,0,0:0:0
164,164,2310,1,0,0:0:0
72,192,2472,1,0,0:0:0
140,260,2634,1,0,0:0:0
48,288,2796,1,0,0:0:0
100,100,3607,5,0,0:0:0
72,192,3769,1,0,0:0:0
164,164,3931,2,0,B|200:140|208:100,1,80,0|0,0:0|0:0,0:0:0
304,100,4256,2,0,B|312:140|348:164,1,80,0|0,0:0|0:0,0:0:0
368,176,4499,1,0,0:0:0
392,184,4580,1,0,0:0:0
448,260,4742,1,0,0:0:0
288,260,4904,2,0,B|368:260,1,80
252,332,5229,2,0,B|332:332,1,80
160,40,6202,5,4,0:0:0
208,124,6364,1,0,0:0:0
304,124,6526,1,0,0:0:0
352,40,6688,1,0,0:0:0
256,24,6850,1,0,0:0:0
256,192,7012,1,0,0:0:0
256,192,7094,1,0,0:0:0
256,192,7175,2,0,B|248:236|280:268,1,80
320,352,7499,2,0,B|362:336|373:293,1,80
436,224,7823,2,0,B|401:195|358:206,1,80
168,228,8796,5,4,0:0:0
256,192,8958,1,0,0:0:0
344,228,9121,1,0,0:0:0
324,72,9445,2,0,B|304:44|256:28|208:44|184:76,1,160,0|0,0:0|0:0,0:0:0
256,192,9931,1,0,0:0:0
204,328,10094,6,0,B|221:351|256:320|256:320|290:351|307:328,2,120
200,104,10742,5,0,0:0:0
220,92,10823,1,0,0:0:0
240,84,10904,1,0,0:0:0
264,84,10985,1,0,0:0:0
288,92,11067,2,0,B|304:104,8,20,0|0|0|0|0|0|0|0|4,0:0|0:0|0:0|0:0|0:0|0:0|0:0|0:0|0:0,0:0:0
356,192,11715,6,0,B|392:252|356:304,1,120.000004577637,2|0,0:0|0:0,0:0:0
280,248,12364,1,2,0:0:0
184,252,12688,1,2,0:0:0
184,132,13013,6,0,B|239:99|298:133,1,120.000004577637,0|2,0:0|0:0,0:0:0
340,156,13499,1,0,0:0:0
388,152,13661,2,0,B|424:155|447:135,2,60.0000022888184,2|0|0,0:0|0:0|0:0,0:0:0
336,260,14310,5,2,0:0:0
256,348,14634,1,2,0:0:0
172,260,14958,1,2,0:0:0
256,172,15283,1,0,0:0:0
304,60,15607,5,2,0:0:0
256,48,15769,1,0,0:0:0
208,60,15931,1,2,0:0:0
256,172,16256,1,2,0:0:0
256,292,16580,5,2,0:0:0
348,196,16904,5,2,0:0:0
304,180,17067,1,0,0:0:0
256,172,17229,1,2,0:0:0
208,180,17391,1,0,0:0:0
164,196,17553,2,0,B|140:212|104:208,2,60.0000022888184,2|0|0,0:0|0:0|0:0,0:0:0
164,76,18202,5,2,0:0:0
208,60,18365,1,0,0:0:0
256,52,18527,1,2,0:0:0
304,60,18689,1,0,0:0:0
348,76,18851,2,0,B|372:92|408:88,2,60.0000022888184,2|0|0,0:0|0:0|0:0,0:0:0
328,196,19499,6,0,B|284:244,2,60.0000022888184,2|0|0,0:0|0:0|0:0,0:0:0
184,188,20148,2,0,B|228:140,2,60.0000022888184,2|0|2,0:0|0:0|0:0,0:0:0
120,316,20796,6,0,B|152:368,1,60.0000022888184,2|0,0:0|0:0,0:0:0
220,344,21121,2,0,B|281:342,1,60.0000022888184,2|0,0:0|0:0,0:0:0
296,272,21445,2,0,B|325:218,1,60.0000022888184,2|0,0:0|0:0,0:0:0
256,192,21769,1,2,0:0:0
256,192,21850,12,0,23634,0:0:0
264,140,24364,6,0,B|276:76|228:28,2,120,6|0|0,0:0|0:0|0:0,0:0:0
176,104,25012,2,0,B|114:125|97:191,2,120,2|0|0,0:0|0:0|0:0,0:0:0
136,260,25661,6,0,B|184:260|184:260|204:288|248:288,2,120,2|0|0,0:0|0:0|0:0,0:0:0
248,212,26310,2,0,B|296:212|296:212|316:184|360:184,2,120,2|0|0,0:0|0:0|0:0,0:0:0
456,228,26958,6,0,B|456:184|432:156|432:156|432:112,2,120,2|0|0,0:0|0:0|0:0,0:0:0
376,228,27607,2,0,B|376:271|376:271|352:299|352:343,2,120,2|0|0,0:0|0:0|0:0,0:0:0
196,240,28256,6,0,B|148:248|140:288,1,80,2|0,0:0|0:0,0:0:0
316,240,28580,2,0,B|364:248|372:288,1,80,0|0,0:0|0:0,0:0:0
256,332,28904,2,0,B|256:212,1,120,2|0,0:0|0:0,0:0:0
256,172,29229,1,0,0:0:0
256,92,29391,1,0,0:0:0
172,140,29553,6,0,B|164:88|132:88|132:88|84:88,1,120,2|0,0:0|0:0,0:0:0
44,88,29877,1,0,0:0:0
96,168,30040,1,0,0:0:0
220,68,30202,2,0,B|200:24|156:16|120:16,2,120,2|0|0,0:0|0:0|0:0,0:0:0
220,188,30850,6,0,B|212:232|240:264,1,80,2|0,0:0|0:0,0:0:0
312,200,31175,2,0,B|354:184|367:144,1,80,0|0,0:0|0:0,0:0:0
276,116,31499,2,0,B|241:87|200:95,1,80,2|0,0:0|0:0,0:0:0
132,160,31823,1,0,0:0:0
52,108,31985,1,0,0:0:0
24,224,32148,6,0,B|24:304,1,80,2|0,0:0|0:0,0:0:0
132,356,32472,2,0,B|132:276,1,80,0|0,0:0|0:0,0:0:0
240,224,32796,2,0,B|240:304,1,80,2|0,0:0|0:0,0:0:0
348,356,33121,1,0,0:0:0
348,324,33202,1,0,0:0:0
348,292,33283,1,0,0:0:0
348,260,33364,1,0,0:0:0
348,228,33445,6,0,B|328:144,1,80,2|0,0:0|0:0,0:0:0
184,152,33769,2,0,B|202:74,1,80
348,72,34094,2,0,B|329:149,1,80,2|0,0:0|0:0,0:0:0
184,152,34418,1,0,0:0:0
160,172,34499,1,0,0:0:0
136,192,34580,1,0,0:0:0
112,212,34661,1,0,0:0:0
88,232,34742,5,2,0:0:0
210,338,34904,2,0,B|148:288,1,80
256,240,35229,2,0,B|264:180|264:180|316:168|340:120,1,160,2|0,0:0|0:0,0:0:0
264,100,35715,1,10,0:0:0
336,240,35877,1,0,0:0:0
336,240,35958,1,0,0:0:0
336,240,36040,6,0,B|392:208|420:168|420:112,1,160,2|0,0:0|0:0,0:0:0
183,143,36526,2,0,B|207:111|255:95|303:111|324:140,1,160,2|0,0:0|0:0,0:0:0
256,240,37012,1,10,0:0:0
152,300,37175,1,0,0:0:0
152,300,37256,1,0,0:0:0
152,300,37337,6,0,B|128:240|128:240|76:264|36:236,1,160,2|0,0:0|0:0,0:0:0
204,248,37823,2,0,B|192:196|168:172|128:168|128:168|80:184,1,160,2|0,0:0|0:0,0:0:0
76,324,38310,1,10,0:0:0
276,116,38634,5,2,0:0:0
248,24,38796,1,0,0:0:0
156,100,38958,1,2,0:0:0
128,192,39121,1,0,0:0:0
72,272,39283,5,2,0:0:0
96,292,39364,1,0,0:0:0
128,300,39445,1,0,0:0:0
160,292,39526,1,0,0:0:0
188,272,39607,1,2,0:0:0
216,260,39688,1,0,0:0:0
248,252,39769,1,0,0:0:0
280,260,39850,1,0,0:0:0
308,272,39931,6,0,B|360:304|408:272|408:272|456:296,1,160,6|0,0:0|0:0,0:0:0
360,216,40418,2,0,B|396:188|432:204|432:204|508:240,1,160,2|0,0:0|0:0,0:0:0
408,352,40904,1,10,0:0:0
360,216,41067,1,0,0:0:0
360,216,41148,1,0,0:0:0
360,216,41229,6,0,B|324:164|360:112|360:112|360:64,1,160,2|0,0:0|0:0,0:0:0
416,168,41715,2,0,B|436:136|436:104|436:104|436:12,1,160,2|0,0:0|0:0,0:0:0
256,40,42202,1,10,0:0:0
176,40,42364,1,0,0:0:0
176,40,42445,1,0,0:0:0
176,40,42526,6,0,B|104:72,1,80
336,40,42850,2,0,B|408:72,1,80
176,120,43175,2,0,B|132:128|108:160,1,80
336,120,43499,2,0,B|380:128|404:160,1,80
256,120,43823,5,2,0:0:0
240,40,43985,1,0,0:0:0
256,200,44148,1,2,0:0:0
272,280,44310,1,0,0:0:0
144,336,44472,5,2,0:0:0
176,336,44553,1,0,0:0:0
208,336,44634,1,0,0:0:0
240,336,44715,1,0,0:0:0
272,336,44796,1,2,0:0:0
304,336,44877,1,0,0:0:0
336,336,44958,1,0,0:0:0
368,336,45040,1,0,0:0:0
400,336,45121,6,0,B|464:264,1,80,0|2,0:0|0:0,0:0:0
346,156,45445,2,0,B|400:216,1,80,0|2,0:0|0:0,0:0:0
260,156,45769,1,8,0:0:0
172,156,45931,1,0,0:0:0
172,156,46012,1,0,0:0:0
172,156,46094,1,4,0:0:0
40,320,46418,6,0,B|84:260|84:260|40:240|32:196,1,160,6|0,0:0|0:0,0:0:0
112,188,46904,2,0,B|144:208|144:208|168:244|164:288|132:320,1,160,2|0,0:0|0:0,0:0:0
68,120,47391,1,10,0:0:0
268,52,47715,6,0,B|348:52,1,80,2|0,0:0|0:0,0:0:0
396,124,48040,1,0,0:0:0
340,200,48202,2,0,B|432:232|488:152,1,160,2|0,0:0|0:0,0:0:0
296,260,48688,1,10,0:0:0
296,260,49012,6,0,B|216:260,2,80,2|0|0,0:0|0:0|0:0,0:0:0
120,188,49499,2,0,B|280:188,1,160,2|0,0:0|0:0,0:0:0
120,188,49985,1,10,0:0:0
364,80,50310,5,2,0:0:0
456,160,50472,1,0,0:0:0
364,80,50634,1,2,0:0:0
304,184,50796,2,0,B|264:224|264:224|212:204|164:228,1,160,2|0,0:0|0:0,0:0:0
224,304,51283,1,2,0:0:0
252,320,51364,1,0,0:0:0
284,328,51445,1,0,0:0:0
316,320,51526,1,0,0:0:0
344,304,51607,6,0,B|344:248|344:248|384:216|376:144,1,160,6|0,0:0|0:0,0:0:0
300,64,52094,2,0,B|268:112|200:104|200:104|156:120,1,160,2|0,0:0|0:0,0:0:0
228,24,52580,1,10,0:0:0
104,232,52904,6,0,B|180:212,1,80,2|0,0:0|0:0,0:0:0
180,92,53229,1,0,0:0:0
256,168,53391,2,0,B|232:212|180:212|180:212|180:284,1,160,2|0,0:0|0:0,0:0:0
180,92,53877,1,10,0:0:0
324,284,54202,6,0,B|404:284,1,80,2|0,0:0|0:0,0:0:0
332,105,54526,1,2,0:0:0
332,104,54688,2,0,B|252:104,1,80
168,24,55012,2,0,B|248:24,2,80,2|0|0,0:0|0:0|0:0,0:0:0
96,64,55499,6,0,B|40:88|64:160,1,80,2|2,0:0|0:0,0:0:0
144,136,55823,1,0,0:0:0
144,136,55985,2,2,B|184:164|184:164|220:168|256:196|264:232,1,160,2|0,0:0|0:0,0:0:0
180,260,56472,1,2,0:0:0
416,220,56796,6,0,B|448:195|456:147|448:99|416:79,1,160,2|0,0:0|0:0,0:0:0
304,36,57283,2,0,B|271:60|263:108|271:156|303:176,1,160,2|0,0:0|0:0,0:0:0
416,220,57769,1,2,0:0:0
188,300,58094,6,0,B|144:296|120:264,1,80,0|2,0:0|0:0,0:0:0
192,200,58418,2,0,B|217:163|257:159,1,80,0|2,0:0|0:0,0:0:0
280,252,58742,2,0,B|298:292|282:328,1,80,0|0,0:0|0:0,0:0:0
192,200,59067,1,2,0:0:0
376,248,59391,6,0,B|394:288|378:324,1,80,2|0,0:0|0:0,0:0:0
292,284,59715,2,0,B|273:243|289:207,1,80,2|0,0:0|0:0,0:0:0
400,108,60040,2,0,B|374:144|334:148,1,80,2|0,0:0|0:0,0:0:0
312,56,60364,2,0,B|337:19|377:15,1,80,2|0,0:0|0:0,0:0:0
228,84,60688,6,0,B|188:68|148:76,2,80,4|0|2,0:0|0:0|0:0,0:0:0
220,180,61175,2,0,B|260:196|300:188,1,80,0|2,0:0|0:0,0:0:0
220,280,61499,2,0,B|177:286|146:313,1,80,0|2,0:0|0:0,0:0:0
308,136,61985,6,0,B|348:120|388:128,2,80,2|0|0,0:0|0:0|0:0,0:0:0
352,204,62472,1,2,0:0:0
312,272,62634,1,0,0:0:0
236,292,62796,1,0,0:0:0
168,336,62958,2,0,B|152:296|160:256,2,80,2|0|0,0:0|0:0|0:0,0:0:0
64,212,63445,6,0,B|62:168|83:134,2,80,2|0|0,0:0|0:0|0:0,0:0:0
140,184,63931,1,2,0:0:0
208,144,64094,1,0,0:0:0
284,120,64256,1,0,0:0:0
360,100,64418,2,0,B|361:143|340:177,2,80,2|0|0,0:0|0:0|0:0,0:0:0
428,244,64904,6,0,B|414:284|382:310,2,80,2|0|0,0:0|0:0|0:0,0:0:0
348,240,65391,1,2,0:0:0
272,212,65553,1,0,0:0:0
192,220,65715,1,0,0:0:0
172,296,65877,6,0,B|131:282|105:250,1,80,2|0,0:0|0:0,0:0:0
100,116,66202,2,0,B|86:156|54:182,1,80,2|0,0:0|0:0,0:0:0
180,80,66526,2,0,B|206:113|245:126,1,80,2|0,0:0|0:0,0:0:0
340,136,66850,2,0,B|327:173|293:199,1,80,2|0,0:0|0:0,0:0:0
464,108,67175,6,0,B|372:68,1,95.9999970703126,4|0,0:0|0:0,0:0:0
168,96,67499,2,0,B|260:136,1,95.9999970703126,4|0,0:0|0:0,0:0:0
376,308,67823,2,0,B|284:268,1,95.9999970703126,4|0,0:0|0:0,0:0:0
152,224,68148,5,0,0:0:0
152,224,68229,1,0,0:0:0
152,224,68310,1,0,0:0:0
152,224,68391,1,0,0:0:0
152,224,68472,1,0,0:0:0
256,192,68553,12,4,69445,2:0:0
104,96,69769,6,0,B|184:96,1,80,6|0,0:0|0:0,0:0:0
380,48,70094,2,0,B|300:48,1,80,6|0,0:0|0:0,0:0:0
188,160,70418,2,0,B|176:204|208:236,1,80,10|0,0:0|0:0,0:0:0
244,236,70661,2,0,B|364:236,1,120,2|10,0:0|0:0,0:0:0
464,360,71067,6,0,B|384:360,1,80,2|0,0:0|0:0,0:0:0
188,320,71391,2,0,B|268:320,1,80,2|0,0:0|0:0,0:0:0
364,236,71715,2,0,B|408:168,1,80,10|0,0:0|0:0,0:0:0
384,148,71958,1,2,0:0:0
356,132,72040,1,0,0:0:0
328,116,72121,1,0,0:0:0
300,100,72202,1,10,0:0:0
272,84,72283,1,0,0:0:0
244,68,72364,6,0,B|176:28,1,80,2|0,0:0|0:0,0:0:0
32,96,72688,2,0,B|100:136,1,80,10|0,0:0|0:0,0:0:0
192,268,73012,1,2,0:0:0
352,268,73175,1,0,0:0:0
352,268,73256,1,2,0:0:0
352,268,73337,2,0,B|396:264|424:228,1,80,8|2,0:0|0:0,0:0:0
238,313,73661,6,0,B|263:349|308:355,1,80,2|0,0:0|0:0,0:0:0
142,237,73985,2,0,B|123:277|140:319,1,80,10|0,0:0|0:0,0:0:0
160,115,74310,2,0,B|116:120|88:156,1,80,2|0,0:0|0:0,0:0:0
249,71,74634,1,8,0:0:0
241,102,74715,1,0,0:0:0
232,136,74796,1,0,0:0:0
224,168,74877,1,0,0:0:0
216,200,74958,5,2,0:0:0
296,184,75121,1,0,0:0:0
120,196,75283,1,10,0:0:0
392,188,75445,1,0,0:0:0
456,288,75607,2,0,B|424:312|376:312,1,80,2|0,0:0|0:0,0:0:0
352,312,75850,1,2,0:0:0
320,312,75931,1,8,0:0:0
392,188,76094,1,2,0:0:0
456,68,76256,6,0,B|424:44|376:44,1,80,2|0,0:0|0:0,0:0:0
288,72,76580,2,0,B|249:60|209:75,1,80,10|0,0:0|0:0,0:0:0
128,128,76904,2,0,B|88:130|55:157,1,80,2|0,0:0|0:0,0:0:0
128,252,77229,1,8,0:0:0
160,252,77310,1,0,0:0:0
192,252,77391,1,0,0:0:0
224,252,77472,1,0,0:0:0
256,252,77553,6,0,B|288:228|296:184,1,80,2|0,0:0|0:0,0:0:0
192,68,77877,2,0,B|200:112|232:136,1,80,8|0,0:0|0:0,0:0:0
360,118,78202,2,0,B|331:84|292:80,1,80,2|0,0:0|0:0,0:0:0
92,112,78526,2,0,B|120:146|160:150,1,80,8|0,0:0|0:0,0:0:0
88,248,78850,5,2,0:0:0
104,276,78931,1,0,0:0:0
128,296,79012,1,0,0:0:0
156,308,79094,1,0,0:0:0
188,312,79175,1,10,0:0:0
220,308,79256,1,0,0:0:0
248,296,79337,1,0,0:0:0
272,276,79418,1,0,0:0:0
292,252,79499,5,2,0:0:0
312,228,79580,1,0,0:0:0
336,208,79661,1,0,0:0:0
364,192,79742,1,0,0:0:0
396,188,79823,1,10,0:0:0
428,192,79904,1,0,0:0:0
452,212,79985,1,0,0:0:0
476,236,80067,1,0,0:0:0
496,260,80148,6,0,B|484:304|452:328,1,80,2|0,0:0|0:0,0:0:0
396,268,80472,1,8,0:0:0
208,204,80634,6,0,B|175:171|171:131,1,80,2|0,0:0|0:0,0:0:0
252,136,80958,1,0,0:0:0
448,92,81121,6,0,B|432:58|389:39,1,80,10|0,0:0|0:0,0:0:0
368,116,81445,1,0,0:0:0
184,36,81607,6,0,B|150:51|131:94,1,80,2|8,0:0|0:0,0:0:0
208,112,81931,1,0,0:0:0
208,216,82094,5,2,0:0:0
304,168,82256,1,0,0:0:0
120,200,82418,1,10,0:0:0
392,184,82580,1,0,0:0:0
364,300,82742,6,0,B|332:332|284:328,1,80,2|0,0:0|0:0,0:0:0
300,248,83067,1,8,0:0:0
132,144,83229,2,0,B|120:100|147:60,1,80,2|0,0:0|0:0,0:0:0
209,114,83553,1,2,0:0:0
296,32,83715,1,8,0:0:0
416,44,83877,1,2,0:0:0
420,164,84040,6,0,B|452:204|420:244,1,80,0|2,0:0|0:0,0:0:0
236,196,84364,2,0,B|204:156|236:116,1,80,8|2,0:0|0:0,0:0:0
464,304,84688,2,0,B|424:336|384:304,1,80,0|2,0:0|0:0,0:0:0
256,296,85012,5,8,0:0:0
224,296,85094,1,0,0:0:0
192,296,85175,1,2,0:0:0
160,296,85256,1,0,0:0:0
128,296,85337,6,0,B|92:224,1,80,2|0,0:0|0:0,0:0:0
60,152,85661,1,8,0:0:0
220,152,85823,2,0,B|140:152,1,80,2|0,0:0|0:0,0:0:0
60,152,86148,1,0,0:0:0
126,24,86310,2,0,B|88:36|64:72,1,80,10|0,0:0|0:0,0:0:0
156,100,86634,2,0,B|185:127|228:130,1,80,0|2,0:0|0:0,0:0:0
192,220,86958,2,0,B|228:235|270:223,1,80,8|0,0:0|0:0,0:0:0
368,152,87283,2,0,B|352:115|364:73,1,80,2|0,0:0|0:0,0:0:0
452,116,87607,5,8,0:0:0
460,148,87688,1,0,0:0:0
468,180,87769,1,0,0:0:0
476,212,87850,1,0,0:0:0
484,244,87931,2,0,B|472:288|444:312,1,80,2|0,0:0|0:0,0:0:0
364,256,88256,2,0,B|348:304|292:312,1,80,8|2,0:0|0:0,0:0:0
276,220,88580,5,2,0:0:0
256,196,88661,1,0,0:0:0
236,172,88742,1,0,0:0:0
216,148,88823,1,0,0:0:0
196,124,88904,2,0,B|144:60,1,80,10|0,0:0|0:0,0:0:0
68,76,89229,5,6,0:0:0
40,96,89310,1,0,0:0:0
28,124,89391,1,0,0:0:0
24,156,89472,1,0,0:0:0
36,184,89553,1,10,0:0:0
56,208,89634,1,0,0:0:0
84,224,89715,1,0,0:0:0
116,228,89796,1,0,0:0:0
148,220,89877,5,6,0:0:0
172,200,89958,1,0,0:0:0
192,172,90040,1,0,0:0:0
212,148,90121,1,0,0:0:0
236,128,90202,1,14,0:0:0
264,116,90283,1,0,0:0:0
296,116,90364,1,0,0:0:0
328,124,90445,1,0,0:0:0
356,140,90526,6,0,B|380:172|388:228,1,80,0|14,0:0|0:0,0:0:0
292,292,91012,5,0,0:0:0
208,244,91175,2,0,B|184:276|200:340,1,80,2|0,0:0|0:0,0:0:0
152,168,91499,2,0,B|118:189|111:255,1,80,10|0,0:0|0:0,0:0:0
228,132,91823,5,2,0:0:0
284,252,91985,1,0,0:0:0
304,92,92148,1,8,0:0:0
208,292,92310,1,2,0:0:0
152,168,92472,5,2,0:0:0
360,216,92634,1,0,0:0:0
208,292,92796,1,8,0:0:0
304,92,92958,1,2,0:0:0
360,216,93121,6,0,B|408:248|408:296,1,80,2|0,0:0|0:0,0:0:0
312,296,93445,2,0,B|260:321|218:297,1,80,10|0,0:0|0:0,0:0:0
260,212,93769,2,0,B|263:154|305:130,1,80,2|0,0:0|0:0,0:0:0
88,72,94094,6,0,B|64:120|88:168,1,80,10|0,0:0|0:0,0:0:0
44,264,94418,2,0,B|97:270|134:231,1,80,2|0,0:0|0:0,0:0:0
184,348,94742,2,0,B|216:372|264:364,1,80,10|0,0:0|0:0,0:0:0
224,252,95067,2,0,B|231:204|200:179,1,80,2|0,0:0|0:0,0:0:0
224,96,95391,1,10,0:0:0
244,120,95472,1,0,0:0:0
264,144,95553,1,0,0:0:0
284,168,95634,1,0,0:0:0
304,196,95715,6,0,B|332:228|376:224,1,80,0|12,0:0|0:0,0:0:0
364,144,96202,5,0,0:0:0
348,64,96364,2,0,B|392:60|424:92,1,80,2|0,0:0|0:0,0:0:0
452,224,96688,2,0,B|448:268|411:293,1,80,10|0,0:0|0:0,0:0:0
360,352,97012,2,0,B|320:336|304:296,2,80,2|0|8,0:0|0:0|0:0,0:0:0
208,296,97499,2,0,B|192:336|152:352,2,80,2|0|0,0:0|0:0|0:0,0:0:0
152,160,97985,2,0,B|192:176|208:216,1,80,10|0,0:0|0:0,0:0:0
256,104,98310,5,0,0:0:0
320,152,98472,1,0,0:0:0
400,156,98634,2,0,B|392:200|352:220,1,80,8|0,0:0|0:0,0:0:0
108,224,98958,2,0,B|116:180|156:160,1,80,0|0,0:0|0:0,0:0:0
192,232,99283,1,8,0:0:0
260,272,99445,1,0,0:0:0
312,332,99607,6,0,B|348:352|392:340,1,80,0|0,0:0|0:0,0:0:0
368,264,99931,2,0,B|408:270|445:244,1,80,8|0,0:0|0:0,0:0:0
392,184,100256,2,0,B|432:176|458:138,1,80,0|0,0:0|0:0,0:0:0
388,104,100580,2,0,B|423:82|434:38,1,80,8|0,0:0|0:0,0:0:0
356,36,100904,5,2,0:0:0
260,20,101067,1,0,0:0:0
196,120,101229,5,10,0:0:0
292,104,101391,1,0,0:0:0
332,216,101553,5,2,0:0:0
236,200,101715,1,0,0:0:0
180,304,101877,5,10,0:0:0
276,288,102040,1,0,0:0:0
388,104,102202,6,0,B|432:104|472:120,1,80,2|0,0:0|0:0,0:0:0
420,228,102526,2,0,B|420:272|404:312,1,80,10|0,0:0|0:0,0:0:0
288,288,102850,2,0,B|244:288|204:272,1,80,2|0,0:0|0:0,0:0:0
232,156,103175,2,0,B|232:112|248:72,1,80,10|0,0:0|0:0,0:0:0
124,76,103499,6,0,B|64:128,1,80,2|0,0:0|0:0,0:0:0
52,248,103823,1,10,0:0:0
128,188,103985,1,0,0:0:0
248,196,104148,6,0,B|188:248,1,80,2|0,0:0|0:0,0:0:0
268,308,104472,1,10,0:0:0
344,248,104634,1,0,0:0:0
420,192,104796,6,0,B|420:108,1,80,2|0,0:0|0:0,0:0:0
324,100,105121,2,0,B|324:20,1,80,10|0,0:0|0:0,0:0:0
228,188,105445,2,0,B|228:108,1,80,2|0,0:0|0:0,0:0:0
132,96,105770,2,0,B|132:12,1,80,10|0,0:0|0:0,0:0:0
128,216,106094,6,0,B|120:256|144:292,2,80,6|0|8,0:0|0:0|0:0,0:0:0
208,228,106580,2,0,B|196:140|116:104,1,160,2|0,0:0|0:0,0:0:0
60,164,107067,1,10,0:0:0
32,240,107229,1,0,0:0:0
76,308,107391,1,0,0:0:0
152,280,107553,1,0,0:0:0
204,340,107715,2,0,B|243:355|280:332,1,80,8|0,0:0|0:0,0:0:0
296,252,108040,2,0,B|339:253|364:218,1,80
372,96,108364,5,8,0:0:0
340,96,108445,1,0,0:0:0
308,96,108526,1,0,0:0:0
276,96,108607,1,0,0:0:0
244,96,108688,2,0,B|164:96,2,80,6|0|8,0:0|0:0|0:0,0:0:0
44,168,109175,2,0,B|204:168,1,160,2|0,0:0|0:0,0:0:0
284,168,109661,5,10,0:0:0
364,168,109823,1,0,0:0:0
364,248,109985,1,0,0:0:0
284,248,110148,1,0,0:0:0
212,280,110310,2,0,B|228:316|272:328,1,80,8|0,0:0|0:0,0:0:0
148,152,110634,2,0,B|192:164|208:200,1,80
304,72,110958,2,0,B|292:116|256:132,1,80,8|0,0:0|0:0,0:0:0
364,248,111283,6,4,B|404:328,1,80,4|0,0:0|0:0,0:0:0
436,164,111607,2,0,B|396:92,1,80,12|0,0:0|0:0,0:0:0
244,44,111931,6,4,B|164:68,1,80,4|0,0:0|0:0,0:0:0
72,196,112256,2,0,B|160:172,1,80,12|0,0:0|0:0,0:0:0
344,316,112580,6,4,B|280:252,1,80,4|0,0:0|0:0,0:0:0
168,68,112904,2,4,B|232:132,1,80,12|0,0:0|0:0,0:0:0
344,316,113229,5,8,0:0:0
344,124,113391,1,8,0:0:0
176,224,113553,1,4,0:0:0
