osu file format v10

[General]
AudioFilename: 10.HEAVENLY MOON.mp3
AudioLeadIn: 1000
PreviewTime: 80148
Countdown: 0
SampleSet: Normal
StackLeniency: 0.7
Mode: 0
LetterboxInBreaks: 0

[Editor]
DistanceSpacing: 0.8
BeatDivisor: 4
GridSize: 4

[Metadata]
Title:HEAVENLY MOON
TitleUnicode:
Artist:Tatsh
ArtistUnicode:
Creator:Dark Fang
Version:Beginner
Source:jubeat copious
Tags:Frobe reflec beat limelight
BeatmapID:165937
BeatmapSetID:46706

[Difficulty]
HPDrainRate:2
CircleSize:3
OverallDifficulty:3
ApproachRate:3
SliderMultiplier:1
SliderTickRate:1

[Events]
//Background and Video events
0,0,"BG.jpg"
//Break Periods
//Storyboard Layer 0 (Background)
//Storyboard Layer 1 (Fail)
//Storyboard Layer 2 (Pass)
//Storyboard Layer 3 (Foreground)
//Storyboard Sound Samples
//Background Colour Transformations
3,100,163,162,255

[TimingPoints]
1013,324.324324324324,4,1,0,50,1,0
11715,-100,4,2,0,50,0,0
21769,-100,4,2,0,10,0,0
24364,-100,4,1,0,65,0,1
34742,-100,4,1,0,60,0,0
46418,-100,4,1,0,50,0,0
57283,-100,4,1,0,60,0,0
57769,-100,4,1,0,50,0,0
59391,-100,4,1,0,40,0,0
61985,-100,4,1,0,60,0,0
67175,-100,4,1,0,40,0,0
69769,-100,4,1,0,65,0,1
90526,-100,4,1,0,30,0,0
90850,-100,4,1,0,70,0,1
95715,-100,4,1,0,70,0,0
96040,-100,4,1,0,70,0,1
98310,-100,4,1,0,70,0,0
111283,-100,4,1,0,10,0,0
111931,-100,4,1,0,20,0,0
112580,-100,4,1,0,30,0,0
112904,-100,4,1,0,45,0,0
113229,-100,4,1,0,50,0,0

[Colours]
Combo1 : 0,0,255
Combo2 : 28,106,140
Combo3 : 0,128,255
Combo4 : 157,206,255
Combo5 : 132,111,249

[HitObjects]
172,76,1013,2,0,B|204:28|256:8|308:28|336:76,2,200,4|0|0,0:0|0:0|0:0,0:0:0
340,308,3607,6,0,B|308:356|256:376|204:356|176:308,2,200
120,72,6202,5,4,0:0:0
20,196,6850,1,0,0:0:0
120,320,7499,1,0,0:0:0
412,192,8796,6,0,B|360:224|320:192|280:160|220:192,2,200
268,264,10742,1,0,0:0:0
108,264,11391,1,4,0:0:0
108,100,12040,6,0,B|172:24|292:44,1,200,2|0,0:0|0:0,0:0:0
260,204,13337,1,2,0:0:0
409,150,13985,6,0,B|452:260|360:328,1,200,0|2,0:0|0:0,0:0:0
260,204,15283,1,0,0:0:0
100,204,15931,1,2,0:0:0
100,44,16580,6,0,B|176:16|232:72|232:72|292:136|384:120,1,300,0|2,0:0|0:0,0:0:0
452,100,17877,1,0,0:0:0
308,28,18526,1,2,0:0:0
344,184,19175,6,0,B|268:156|212:212|212:212|152:276|60:260,1,300,0|2,0:0|0:0,0:0:0
92,184,20472,1,0,0:0:0
256,192,21769,12,0,23067,0:0:0
272,328,24364,6,0,B|204:346|171:285|171:285|130:207,1,200,2|0,0:0|0:0,0:0:0
292,192,25661,1,2,0:0:0
280,32,26310,1,0,0:0:0
120,48,26958,6,0,B|72:108|72:108|32:156|56:224,1,200,2|0,0:0|0:0,0:0:0
212,184,28256,1,2,0:0:0
136,324,28904,1,0,0:0:0
296,324,29553,5,2,0:0:0
436,248,30202,1,0,0:0:0
388,96,30850,1,2,0:0:0
232,60,31499,1,0,0:0:0
136,188,32148,6,0,B|36:188,2,100,2|0|0,0:0|0:0|0:0,0:0:0
284,128,33445,2,0,B|284:28,2,100,2|0|0,0:0|0:0|0:0,0:0:0
284,288,34742,6,0,B|364:312|424:252,2,150,6|0|0,0:0|0:0|0:0,0:0:0
212,252,36040,2,0,B|132:228|72:288,2,150,2|0|0,0:0|0:0|0:0,0:0:0
276,204,37337,5,2,0:0:0
368,128,37823,1,0,0:0:0
256,84,38310,1,0,0:0:0
180,60,38634,2,0,B|80:96|80:256|180:304,1,300,2|0,0:0|0:0,0:0:0
256,308,39931,6,0,B|404:308,2,150,2|0|0,0:0|0:0|0:0,0:0:0
256,228,41229,1,2,0:0:0
324,128,41716,2,0,B|256:100|174:128,1,150,0|0,0:0|0:0,0:0:0
96,116,42526,6,2,B|56:180|64:272|124:328|228:328,1,300,2|0,0:0|0:0,0:0:0
296,328,43823,1,2,0:0:0
412,216,44472,1,2,0:0:0
412,136,44796,2,0,B|412:84,1,50,2|0,0:0|0:0,0:0:0
68,192,46418,6,0,B|140:152|208:192|208:192|284:240|352:192,1,300,2|0,0:0|0:0,0:0:0
376,272,47715,2,0,B|432:336|512:336,2,150,2|0|0,0:0|0:0|0:0,0:0:0
296,272,49012,6,0,B|196:272|196:272|148:176|192:80,1,300,2|0,0:0|0:0,0:0:0
272,96,50310,2,0,B|304:176|376:200,2,150,2|0|0,0:0|0:0|0:0,0:0:0
192,80,51607,6,0,B|120:72|52:140,2,150,2|0|0,0:0|0:0|0:0,0:0:0
192,160,52904,2,0,B|184:232|252:300,2,150,2|0|0,0:0|0:0|0:0,0:0:0
272,160,54202,5,2,0:0:0
352,160,54526,2,0,B|420:200|420:200|464:224|424:316,1,200
344,312,55499,1,8,0:0:0
192,248,56148,1,8,0:0:0
92,120,56796,6,0,B|104:36|192:20,2,150,2|0|0,0:0|0:0|0:0,0:0:0
242,179,58418,1,8,0:0:0
388,244,59067,1,8,0:0:0
436,180,59391,6,0,B|336:136|240:180,1,200,2|8,0:0|0:0,0:0:0
140,304,60688,2,0,B|240:348|336:304,1,200,2|8,0:0|0:0,0:0:0
336,144,61985,5,2,0:0:0
192,76,62634,1,8,0:0:0
68,176,63282,1,8,0:0:0
152,312,63931,1,8,0:0:0
308,280,64580,6,0,B|389:211|406:110,2,200,2|8|8,0:0|0:0|0:0,0:0:0
232,140,66526,1,8,0:0:0
72,140,67175,2,0,B|8:220|20:328,2,200
444,64,69769,6,0,B|444:128|444:128|504:192|444:268|444:268|444:348,1,300,2|0,0:0|0:0,0:0:0
396,196,71391,1,8,0:0:0
236,192,72040,1,8,0:0:0
236,112,72364,6,0,B|168:64|120:128|120:128|24:264,1,300,2|0,0:0|0:0,0:0:0
148,364,73985,1,8,0:0:0
280,272,74634,1,8,0:0:0
340,324,74958,6,0,B|396:280|396:280|476:256|472:168|472:168|508:96,1,300,2|0,0:0|0:0,0:0:0
372,184,76580,1,8,0:0:0
324,32,77229,1,0,0:0:0
256,76,77553,6,0,B|160:76|160:76|104:112|116:164,1,200,2|0,0:0|0:0,0:0:0
260,232,78850,2,0,B|356:232|356:232|412:196|400:144,1,200,2|0,0:0|0:0,0:0:0
256,76,80148,6,0,B|152:88|144:160|144:160|136:232|44:256,1,300,6|8,0:0|0:0,0:0:0
80,100,81769,1,8,0:0:0
224,168,82418,1,8,0:0:0
264,240,82742,6,0,B|332:324|432:284|432:284|484:184,1,300,2|8,0:0|0:0,0:0:0
344,104,84364,1,8,0:0:0
184,104,85012,1,8,0:0:0
104,104,85337,6,0,B|56:176|104:244,2,150,2|0|8,0:0|0:0|0:0,0:0:0
184,104,86634,2,0,B|284:104,1,100,2|8,0:0|0:0,0:0:0
364,104,87283,2,0,B|388:156|364:208,1,100,2|8,0:0|0:0,0:0:0
344,276,87931,6,0,B|256:336|204:276|144:220|60:276,1,300,2|0,0:0|0:0,0:0:0
32,200,89229,2,0,B|14:153|32:100,1,100,2|0,0:0|0:0,0:0:0
184,156,90202,1,8,0:0:0
344,156,90850,5,4,0:0:0
312,312,91499,2,0,B|208:328|124:264,2,200,8|8|8,0:0|0:0|0:0,0:0:0
252,164,93445,5,8,0:0:0
184,20,94094,2,0,B|288:4|372:68,2,200,8|8|8,0:0|0:0|0:0,0:0:0
88,148,96040,5,4,0:0:0
248,148,96688,1,8,0:0:0
408,148,97337,2,0,B|380:244,1,100,8|0,0:0|0:0,0:0:0
356,320,97985,1,8,0:0:0
276,320,98310,6,2,B|140:324|60:284|72:164,1,300,2|0,0:0|0:0,0:0:0
144,132,99607,2,2,B|196:164|236:132|276:100|336:132,2,200,2|0|4,0:0|0:0|0:0,0:0:0
288,204,101553,5,8,0:0:0
448,204,102202,1,0,0:0:0
364,340,102850,1,8,0:0:0
204,340,103499,6,0,B|172:288|204:248|236:208|204:148,2,200,0|8|0,0:0|0:0|0:0,0:0:0
132,196,105445,1,8,0:0:0
264,108,106094,6,2,B|412:108,1,150,2|2,0:0|0:0,0:0:0
456,220,107067,2,2,B|383:298|275:300,1,200,2|0,0:0|0:0,0:0:0
124,344,108364,5,2,0:0:0
44,344,108688,2,2,B|44:196,1,150,2|2,0:0|0:0,0:0:0
92,84,109661,2,2,B|192:112|252:199,1,200,2|0,0:0|0:0,0:0:0
472,100,111283,6,0,B|516:156|516:232|472:288,2,200
392,100,112904,1,0,0:0:0
324,52,113229,2,0,B|300:100|324:148,1,100,0|4,0:0|0:0,0:0:0
