osu file format v10

[General]
AudioFilename: 10.HEAVENLY MOON.mp3
AudioLeadIn: 1000
PreviewTime: 80148
Countdown: 0
SampleSet: Normal
StackLeniency: 0.7
Mode: 0
LetterboxInBreaks: 0

[Editor]
DistanceSpacing: 1
BeatDivisor: 1
GridSize: 4

[Metadata]
Title:HEAVENLY MOON
TitleUnicode:
Artist:Tatsh
ArtistUnicode:
Creator:Dark Fang
Version:Basic
Source:jubeat copious
Tags:Frobe reflec beat limelight
BeatmapID:145289
BeatmapSetID:46706

[Difficulty]
HPDrainRate:3
CircleSize:3
OverallDifficulty:2
ApproachRate:5
SliderMultiplier:1.2
SliderTickRate:1

[Events]
//Background and Video events
0,0,"BG.jpg"
//Break Periods
//Storyboard Layer 0 (Background)
//Storyboard Layer 1 (Fail)
//Storyboard Layer 2 (Pass)
//Storyboard Layer 3 (Foreground)
//Storyboard Sound Samples
//Background Colour Transformations
3,100,163,162,255

[TimingPoints]
1013,324.324324324324,4,1,0,50,1,0
11715,-100,4,2,0,50,0,0
21769,-100,4,2,0,10,0,0
24364,-100,4,1,0,65,0,1
34742,-100,4,1,0,60,0,0
46418,-100,4,1,0,50,0,0
57283,-100,4,1,0,60,0,0
57769,-100,4,1,0,50,0,0
59391,-100,4,1,0,40,0,0
61985,-100,4,1,0,60,0,0
67175,-100,4,1,0,40,0,0
69769,-100,4,1,0,65,0,1
90526,-100,4,1,0,30,0,0
90850,-100,4,1,0,70,0,1
95715,-100,4,1,0,70,0,0
96040,-100,4,1,0,70,0,1
98310,-100,4,1,0,70,0,0
111283,-100,4,1,0,10,0,0
111931,-100,4,1,0,20,0,0
112580,-100,4,1,0,30,0,0
112904,-100,4,1,0,45,0,0
113229,-100,4,1,0,50,0,0

[Colours]
Combo1 : 0,0,255
Combo2 : 28,106,140
Combo3 : 0,128,255
Combo4 : 157,206,255
Combo5 : 132,111,249

[HitObjects]
80,152,1013,2,0,B|124:104|188:108,1,120,4|0,0:0|0:0,0:0:0
192,228,1661,2,0,B|256:232|300:184,1,120
412,144,2310,2,0,B|431:206|396:259,1,120
40,320,3607,6,0,B|84:368|148:364,1,120
164,244,4256,2,0,B|228:240|272:288,1,120
368,360,4904,2,0,B|403:307|384:245,1,120
96,32,6202,6,0,B|48:76|52:140,1,120,4|0,0:0|0:0,0:0:0
172,144,6850,2,0,B|176:208|128:252,1,120
32,320,7499,2,0,B|76:367|139:363,1,120
428,152,8796,6,0,B|480:116|496:52,1,120
332,32,9445,2,0,B|272:12|212:32,2,120
272,136,10418,1,0,0:0:0
164,184,10742,2,0,B|108:208,4,60,0|0|0|0|4,0:0|0:0|0:0|0:0|0:0,0:0:0
180,304,11715,6,0,B|240:332|296:304,2,120,2|0|2,0:0|0:0|0:0,0:0:0
240,200,12688,1,2,0:0:0
296,92,13012,2,0,B|236:64|180:92,2,120,0|2|0,0:0|0:0|0:0,0:0:0
396,156,13985,1,2,0:0:0
508,200,14310,6,0,B|476:260|412:268,1,120,2|0,0:0|0:0,0:0:0
296,264,14958,1,2,0:0:0
180,228,15283,2,0,B|120:208|88:156,1,120,2|0,0:0|0:0,0:0:0
200,108,15931,2,0,B|167:55|107:35,1,120,2|0,0:0|0:0,0:0:0
12,108,16580,1,2,0:0:0
372,192,17553,5,2,0:0:0
316,88,17877,2,0,B|196:88,1,120,2|0,0:0|0:0,0:0:0
136,192,18526,1,2,0:0:0
372,192,19175,1,2,0:0:0
28,84,20148,6,0,B|80:56|144:64,1,120,2|0,0:0|0:0,0:0:0
100,176,20796,1,0,0:0:0
168,268,21121,2,0,B|116:296|52:288,1,120,2|0,0:0|0:0,0:0:0
256,192,21769,12,4,23634,2:0:0
64,148,24364,5,2,0:0:0
132,48,24688,1,0,0:0:0
200,148,25012,2,0,B|256:188|312:148,1,120,2|0,0:0|0:0,0:0:0
380,48,25661,1,2,0:0:0
448,148,25985,1,0,0:0:0
380,248,26310,2,0,B|364:312|312:344,1,120,2|0,0:0|0:0,0:0:0
256,240,26958,5,2,0:0:0
256,120,27283,1,0,0:0:0
192,20,27607,2,0,B|140:52|124:116,1,120,2|0,0:0|0:0,0:0:0
140,236,28256,1,2,0:0:0
256,196,28580,1,0,0:0:0
372,236,28904,2,0,B|428:264,2,60,2|0|0,0:0|0:0|0:0,0:0:0
360,116,29553,6,0,B|324:64|256:44|188:64|156:116,1,240,2|2,0:0|0:0,0:0:0
256,184,30526,1,0,0:0:0
376,196,30850,2,0,B|369:254|309:289,1,120,2|0,0:0|0:0,0:0:0
224,376,31499,1,2,0:0:0
128,304,31823,1,0,0:0:0
136,184,32148,6,0,B|76:184,2,60,2|0|0,0:0|0:0|0:0,0:0:0
256,184,32796,1,2,0:0:0
376,184,33121,1,0,0:0:0
376,304,33445,2,0,B|376:364,2,60,2|0|0,0:0|0:0|0:0,0:0:0
376,184,34094,1,2,0:0:0
376,64,34418,1,0,0:0:0
256,48,34742,6,0,B|192:8|168:44|140:84|80:48,2,180,2|0|2,0:0|0:0|0:0,0:0:0
180,144,36040,1,2,0:0:0
24,232,36526,1,0,0:0:0
184,312,37012,1,2,0:0:0
300,344,37337,6,0,B|364:304|388:340|416:380|476:344,2,180,2|0|2,0:0|0:0|0:0,0:0:0
348,236,38634,2,0,B|316:120,1,120,2|0,0:0|0:0,0:0:0
196,120,39283,2,0,B|164:236,1,120,2|0,0:0|0:0,0:0:0
92,140,39931,6,0,B|120:40|208:12,2,180,2|0|2,0:0|0:0|0:0,0:0:0
212,152,41229,2,0,B|300:124|328:24,2,180,2|0|2,0:0|0:0|0:0,0:0:0
112,220,42526,6,0,B|120:284|172:320,1,120,0|0,0:0|0:0,0:0:0
304,324,43175,2,0,B|296:260|244:224,1,120,0|0,0:0|0:0,0:0:0
180,124,43823,5,2,0:0:0
256,28,44148,1,0,0:0:0
328,124,44472,2,0,B|388:124,3,60,2|0|0|0,0:0|0:0|0:0|0:0,0:0:0
316,300,46418,6,0,B|404:260|432:164,2,180,2|0|2,0:0|0:0|0:0,0:0:0
196,300,47715,2,0,B|108:260|80:164,1,180,2|0,0:0|0:0,0:0:0
256,196,48688,1,2,0:0:0
284,76,49012,6,0,B|380:88|432:168,2,180,2|0|2,0:0|0:0|0:0,0:0:0
256,196,50310,2,0,B|160:183|108:103,1,180,2|0,0:0|0:0,0:0:0
284,76,51283,1,2,0:0:0
352,176,51607,6,0,B|437:221|459:314,1,180,2|0,0:0|0:0,0:0:0
280,296,52580,1,2,0:0:0
188,372,52904,2,0,B|102:326|80:233,1,180,2|0,0:0|0:0,0:0:0
240,152,53877,1,2,0:0:0
360,152,54202,6,0,B|388:68|504:64,2,180,2|0|2,0:0|0:0|0:0,0:0:0
240,152,55499,2,0,B|180:152,3,60,2|0|0|2,0:0|0:0|0:0|0:0,0:0:0
236,324,56472,1,2,0:0:0
356,324,56796,6,0,B|440:276|456:176,1,180,2|0,0:0|0:0,0:0:0
276,168,57769,1,2,0:0:0
156,168,58094,2,0,B|52:168|28:272,2,180
152,288,59391,6,0,B|268:320|388:272,1,240,0|0,0:0|0:0,0:0:0
464,44,60688,2,0,B|348:12|228:60,1,240,0|0,0:0|0:0,0:0:0
312,284,61985,5,2,0:0:0
192,284,62310,1,0,0:0:0
88,340,62634,2,0,B|64:280|88:224,1,120,2|0,0:0|0:0,0:0:0
56,108,63283,1,2,0:0:0
172,136,63607,1,0,0:0:0
264,60,63931,2,0,B|298:114|284:174,1,120,2|0,0:0|0:0,0:0:0
180,240,64580,5,2,0:0:0
288,292,64904,1,0,0:0:0
388,356,65229,2,0,B|422:301|408:241,1,120,2|0,0:0|0:0,0:0:0
320,160,65877,1,2,0:0:0
436,128,66202,1,0,0:0:0
404,12,66526,1,2,0:0:0
288,44,66850,1,0,0:0:0
168,44,67175,6,0,B|108:44|64:96,1,120,4|0,0:0|0:0,0:0:0
168,156,67823,2,0,B|111:176|88:240,1,120,4|0,0:0|0:0,0:0:0
204,272,68472,1,4,0:0:0
344,192,69769,6,0,B|376:168|408:160|408:160|480:80,2,180,2|0|0,0:0|0:0|0:0,0:0:0
224,192,71067,1,2,0:0:0
140,104,71391,2,0,B|80:156|88:216,2,120
224,192,72364,6,0,B|264:240|208:332|148:312,2,180,2|0|0,0:0|0:0|0:0,0:0:0
104,196,73661,2,0,B|112:132|160:88,2,120,2|0|0,0:0|0:0|0:0,0:0:0
224,192,74634,1,0,0:0:0
344,196,74958,6,0,B|440:156|448:56,2,180,2|0|0,0:0|0:0|0:0,0:0:0
316,80,76256,2,0,B|256:44|200:80,1,120,2|0,0:0|0:0,0:0:0
240,192,76904,2,0,B|180:228|124:192,1,120
56,96,77553,6,0,B|-4:176|40:268,2,180,2|0|0,0:0|0:0|0:0,0:0:0
136,184,78850,1,2,0:0:0
232,112,79175,1,0,0:0:0
308,204,79499,2,0,B|380:232,2,60
404,132,80148,6,0,B|380:32|276:24,2,180,2|0|0,0:0|0:0|0:0,0:0:0
284,132,81445,2,0,B|296:196|352:228,1,120,2|0,0:0|0:0,0:0:0
240,276,82094,2,0,B|273:332|336:342,1,120
448,304,82742,6,0,B|488:240|452:216|412:188|448:128,2,180,2|0|0,0:0|0:0|0:0,0:0:0
360,224,84040,2,0,B|328:164|360:108,1,120,2|0,0:0|0:0,0:0:0
248,64,84688,1,0,0:0:0
188,168,85012,1,0,0:0:0
260,264,85337,6,0,B|180:312|88:260,2,180,2|0|0,0:0|0:0|0:0,0:0:0
188,168,86634,1,2,0:0:0
112,76,86958,2,0,B|168:44|228:60,1,120
344,92,87607,1,0,0:0:0
404,196,87931,6,0,B|468:300,1,120,2|0,0:0|0:0,0:0:0
348,312,88580,2,0,B|284:208,1,120
164,192,89229,1,2,0:0:0
84,100,89553,1,0,0:0:0
204,80,89877,2,0,B|256:52,3,60
352,204,90850,5,4,0:0:0
460,260,91175,2,0,B|428:316|364:324,1,120,2|0,0:0|0:0,0:0:0
256,272,91823,1,2,0:0:0
148,220,92148,2,0,B|124:284|160:336,2,120,0|2|0,0:0|0:0|0:0,0:0:0
256,272,93121,6,0,B|292:220|268:156,1,120,2|0,0:0|0:0,0:0:0
216,52,93769,2,0,B|280:28|332:64,1,120,2|0,0:0|0:0,0:0:0
360,180,94418,1,2,0:0:0
452,104,94742,1,0,0:0:0
484,220,95067,2,0,B|472:287|415:314,1,120
452,104,96040,5,4,0:0:0
340,60,96364,1,2,0:0:0
228,104,96688,1,0,0:0:0
276,212,97012,2,0,B|336:248|388:212,2,120,2|0|2,0:0|0:0|0:0,0:0:0
156,228,97985,1,0,0:0:0
80,324,98310,6,0,B|16:192|120:104,1,240,2|0,0:0|0:0,0:0:0
352,56,99607,2,0,B|416:188|312:276,1,240,2|2,0:0|0:0,0:0:0
76,248,100904,6,0,B|17:220|17:152,1,120,2|0,0:0|0:0,0:0:0
136,136,101553,2,0,B|164:76|232:76,1,120,2|0,0:0|0:0,0:0:0
340,24,102202,2,0,B|378:78|344:137,1,120,2|0,0:0|0:0,0:0:0
404,240,102850,2,0,B|346:274|292:237,1,120,2|0,0:0|0:0,0:0:0
188,296,103499,5,2,0:0:0
76,248,103823,1,0,0:0:0
16,144,104148,2,0,B|74:112|130:144,1,120,2|0,0:0|0:0,0:0:0
244,184,104796,1,2,0:0:0
356,228,105121,1,0,0:0:0
476,232,105445,2,0,B|472:296|404:328,1,120,2|0,0:0|0:0,0:0:0
292,348,106094,6,0,B|112:348,1,180,2|0,0:0|0:0,0:0:0
64,176,107067,2,2,B|77:103|120:65|178:45|244:71,1,240,2|0,0:0|0:0,0:0:0
192,180,108040,1,0,0:0:0
300,232,108364,2,0,B|372:236,1,60
408,236,108688,6,0,B|484:164|452:72,1,180,2|0,0:0|0:0,0:0:0
276,100,109661,2,2,B|164:16|52:100,1,240,2|0,0:0|0:0,0:0:0
100,208,110634,1,0,0:0:0
220,208,110958,1,0,0:0:0
160,312,111283,6,0,B|220:332|280:312,1,120
320,200,111931,2,0,B|382:187|424:140,1,120
324,72,112580,2,0,B|276:32|212:36,1,120
212,156,113229,2,0,B|176:208,2,60,0|0|4,0:0|0:0|0:0,0:0:0
