osu file format v7

[General]
AudioFilename: Tatsh - Fuushikaden.mp3
AudioLeadIn: 0
PreviewTime: -1
Countdown: 1
SampleSet: Normal
StackLeniency: 0.7
Mode: 0
LetterboxInBreaks: 1

[Editor]
DistanceSpacing: 0.800000011920929
BeatDivisor: 4
GridSize: 8

[Metadata]
Title:Fuushikaden
Artist:Tatsh
Creator:touko
Version:Standard
Source:FAR EAST OF EAST II
Tags:

[Difficulty]
HPDrainRate:3
CircleSize:4
OverallDifficulty:5
SliderMultiplier:1.4
SliderTickRate:1

[Events]
//Background and Video events
0,0,"bg.jpg"
//Break Periods
//Storyboard Layer 0 (Background)
//Storyboard Layer 1 (Fail)
//Storyboard Layer 2 (Pass)
//Storyboard Layer 3 (Foreground)
//Storyboard Sound Samples
//Background Colour Transformations
3,100,163,162,255

[TimingPoints]
207,600,4,1,0,61,1,0

[Colours]
Combo1 : 239,231,75
Combo2 : 253,130,179
Combo3 : 3,104,241
Combo4 : 240,5,5

[HitObjects]
40,288,1407,2,0,L|232:288,1,140,8|0
216,288,2307,1,0
248,288,2607,1,8
360,288,3207,1,0
360,192,3807,1,8
256,192,4257,1,0
144,192,4707,1,0
96,192,5007,1,8
128,96,5757,2,0,L|176:96,3,35,0|0|0|8
240,96,6957,2,0,L|288:96,3,35,0|0|0|8
56,192,8157,5,0
112,192,8307,2,0,L|176:192,1,35
192,192,8607,1,8
288,192,8907,1,0
392,192,9207,1,0
392,296,9507,1,0
288,296,9807,1,8
192,296,10407,1,0
96,296,11007,1,8
256,192,11157,12,8,12807
152,96,13407,6,0,L|248:96,1,70,8|0
288,96,14007,2,0,L|384:96,1,70
360,176,14607,1,0
288,176,14907,1,0
216,176,15207,2,0,L|136:176,1,70
144,256,15807,1,8
216,256,16107,2,0,L|304:256,1,70
360,256,16707,1,0
360,328,17007,2,0,L|280:328,1,70
216,328,17607,2,0,L|136:328,1,70
152,248,18207,5,8
224,248,18507,2,0,L|328:248,1,70
294,248,19107,1,0
368,248,19407,1,0
368,176,19707,1,0
368,104,20007,2,0,L|304:104,2,35
256,104,20607,1,8
176,104,20907,1,0
96,104,21207,2,0,L|96:208,1,70
96,248,21807,1,0
176,248,22107,1,0
256,248,22407,2,0,L|256:208,2,35
336,248,23007,2,0,L|336:296,4,35,8|0|0|0|0
64,192,24507,6,0,L|120:192,1,35
176,192,24807,1,0
256,192,24957,2,0,L|312:192,1,35
368,192,25407,2,0,L|408:192,4,35,8|0|0|0|0
360,104,26907,5,0
280,104,27057,2,0,L|216:104,1,35
176,104,27357,2,0,L|112:104,1,35
176,192,27807,2,0,L|224:192,4,35,8|0|0|0|0
104,192,29307,5,0
208,192,29607,1,0
312,192,29907,1,0
416,192,30207,2,0,L|192:192,1,210,8|0
112,192,31407,1,0
256,192,32007,1,0
256,192,32307,1,0
256,192,32607,5,8
312,144,32907,2,0,L|376:80,1,70
416,48,33507,1,0
416,136,33807,1,0
416,224,34107,1,0
416,304,34407,1,0
256,312,35007,5,8
256,232,35307,2,0,L|256:144,1,70
256,88,35907,1,0
168,88,36207,1,0
168,176,36507,1,0
168,256,36807,1,0
256,336,37407,5,8
256,248,37707,2,0,L|256:160,1,70
328,176,38307,2,0,L|400:176,1,70
400,96,38907,2,0,L|320:96,1,70
256,192,39807,12,0,41607
96,96,42207,6,0,L|328:96,1,210,8|0
376,96,43407,1,0
376,176,43707,1,0
376,248,44007,1,0
304,248,44307,1,0
304,248,44607,2,0,L|88:248,1,210,8|0
96,168,45807,1,0
184,168,46107,2,0,L|256:168,1,70
328,168,46707,1,0
256,192,47007,12,0,48207
368,80,48507,5,0
368,168,48807,1,0
368,248,49107,1,0
368,328,49407,2,0,L|272:328,1,70,8|0
216,328,50007,1,0
136,328,50307,2,0,L|136:232,1,70
136,176,50907,1,0
136,96,51207,1,0
256,192,51507,12,0,53607
256,192,54207,12,0,56007
128,192,56607,6,0,B|248:72,1,140,8|0
384,192,57807,2,0,B|264:312,1,140
256,192,59007,12,0,60807
136,80,61407,5,8
216,80,61707,1,0
296,80,62007,1,0
376,80,62307,1,0
376,160,62607,2,0,L|376:264,1,70
376,304,63207,1,0
296,304,63507,1,0
216,304,63807,5,8
136,304,64107,1,0
136,224,64407,2,0,L|136:128,1,70
216,160,65007,1,0
296,160,65307,1,0
376,160,65607,1,0
368,240,66207,6,0,L|280:240,1,70
216,240,66807,2,0,L|120:240,1,70
144,152,67407,1,0
224,152,67707,2,0,L|312:152,1,70
368,152,68307,1,0
424,224,68607,6,0,L|352:296,1,70,8|0
296,272,69207,2,0,L|200:272,1,70
152,272,69807,1,2
152,200,70107,1,2
152,128,70407,1,2
152,56,70707,1,0
152,56,71007,2,0,L|432:56|432:352|136:352,1,840,8|0
320,56,75807,2,0,L|40:56|40:344|320:344,1,840,8|0
192,88,80607,6,0,L|352:88,1,140,8|0
336,320,81807,2,0,L|168:320,1,140
96,192,83007,1,8
176,192,83307,1,0
256,192,83607,1,0
336,192,83907,1,0
416,192,84207,1,0
256,192,84807,12,0,87807
