osu file format v9

[General]
AudioFilename: Fuushi Kaden.mp3
AudioLeadIn: 1004
PreviewTime: 13374
Countdown: 0
SampleSet: Normal
StackLeniency: 0.7
Mode: 1
LetterboxInBreaks: 1

[Editor]
Bookmarks: 13374
DistanceSpacing: 1
BeatDivisor: 4
GridSize: 16

[Metadata]
Title:Fuushi Kaden
Artist:Tatsh
Creator:happy30
Version:Taiko
Source:
Tags:Asian Mixtured TMC Original Music FAR EAST OF EAST II Al-Azif

[Difficulty]
HPDrainRate:5
CircleSize:5
OverallDifficulty:5
ApproachRate:5
SliderMultiplier:1.4
SliderTickRate:1

[Events]
//Background and Video events
0,0,"Taiko BG.jpg"
//Break Periods
//Storyboard Layer 0 (Background)
//Storyboard Layer 1 (Fail)
//Storyboard Layer 2 (Pass)
//Storyboard Layer 3 (Foreground)
//Storyboard Sound Samples
//Background Colour Transformations
3,100,163,162,255

[TimingPoints]
1460,300,4,1,0,100,1,0
1460,-200,4,1,0,100,0,0
13460,-100,4,1,0,100,0,0
42410,-200,4,1,0,100,0,0
51860,-100,4,1,0,100,0,1
61460,-100,4,1,0,100,0,0
90260,-100,4,1,0,100,0,1
99860,-100,4,1,0,100,0,0
176660,-100,4,1,0,100,0,1
186260,-100,4,1,0,100,0,0

[Colours]
Combo1 : 157,45,45
Combo2 : 103,62,159
Combo3 : 190,124,124

[HitObjects]
464,112,1460,1,0
464,112,2360,1,2
464,112,2660,1,0
464,112,3260,1,0
464,112,3860,1,2
464,112,4310,1,2
464,112,4760,1,2
464,112,5060,1,0
464,112,5810,1,0
464,112,5960,1,0
464,112,6110,1,0
464,112,6260,1,2
464,112,7010,1,0
464,112,7160,1,2
464,112,7310,1,2
464,112,7460,1,2
464,112,8210,1,0
464,112,8360,1,2
464,112,8510,1,2
464,112,8660,1,2
464,112,8960,1,2
464,112,9260,1,2
464,112,9560,1,2
464,112,9860,1,2
464,112,10460,1,2
464,112,11060,1,0
464,112,13460,1,0
464,112,13610,1,0
464,112,13685,1,0
464,112,13760,1,2
464,112,13910,1,2
464,112,14060,1,0
464,112,14210,1,0
464,112,14360,1,2
464,112,14510,1,2
464,112,14660,1,0
464,112,14810,1,0
464,112,14960,1,2
464,112,15110,1,0
464,112,15185,1,0
464,112,15260,1,0
464,112,15410,1,2
464,112,15560,1,0
464,112,15710,1,2
464,112,15860,1,0
464,112,16010,1,0
464,112,16160,1,2
464,112,16310,1,2
464,112,16460,1,2
464,112,16610,1,0
464,112,16760,1,2
464,112,16910,1,0
464,112,17060,1,2
464,112,17210,1,0
464,112,17360,1,2
464,112,17510,1,0
464,112,17585,1,0
464,112,17660,1,2
464,112,17810,1,2
464,112,17960,1,0
464,112,18110,1,0
464,112,18260,1,2
464,112,18410,1,0
464,112,18560,1,2
464,112,18710,1,2
464,112,18860,1,2
464,112,19010,1,0
464,112,19160,1,2
464,112,19310,1,2
464,112,19460,1,2
464,112,19610,1,0
464,112,19760,1,2
464,112,19910,1,2
464,112,19985,1,2
464,112,20060,1,2
464,112,20210,1,0
464,112,20360,1,2
464,112,20510,1,0
464,112,20660,1,2
464,112,20810,1,0
464,112,20960,1,2
464,112,21110,1,0
464,112,21260,1,2
464,112,21410,1,2
464,112,21560,1,0
464,112,21710,1,2
464,112,21860,1,0
464,112,21935,1,0
464,112,22010,1,0
464,112,22160,1,2
464,112,22235,1,2
464,112,22310,1,2
464,112,22460,1,0
464,112,22610,1,0
464,112,22685,1,0
464,112,22760,1,2
464,112,22910,1,2
464,112,23060,1,6
464,112,23210,1,0
464,112,23360,1,0
464,112,23510,1,0
464,112,23660,1,0
464,112,24560,1,0
464,112,24710,1,2
464,112,24860,1,2
464,112,25010,1,2
464,112,25160,1,2
464,112,25460,1,2
464,112,25610,1,0
464,112,25760,1,0
464,112,25910,1,0
464,112,26060,1,0
464,112,26960,1,2
464,112,27110,1,0
464,112,27260,1,2
464,112,27410,1,2
464,112,27560,1,2
464,112,27860,1,2
464,112,28010,1,0
464,112,28160,1,0
464,112,28310,1,2
464,112,28460,1,2
464,112,29360,1,2
464,112,29660,1,2
464,112,29960,1,2
272,208,30110,1,0
464,112,30260,1,2
464,112,31010,1,2
464,112,31310,1,0
464,112,31460,1,0
256,144,31610,1,0
336,144,31760,1,2
336,144,31910,1,0
464,112,32060,1,2
464,112,32360,1,2
464,112,32660,1,0
464,112,32810,1,0
464,112,32960,1,2
464,112,33110,1,0
464,112,33260,1,0
464,112,33410,1,2
464,112,33560,1,0
464,112,33710,1,0
464,112,33860,1,2
464,112,34010,1,0
464,112,34160,1,0
464,112,34310,1,2
464,112,34460,1,0
464,112,34610,1,0
464,112,34685,1,2
464,112,34760,1,2
464,112,34910,1,2
464,112,35060,1,0
464,112,35210,1,0
464,112,35360,1,2
464,112,35510,1,0
464,112,35660,1,0
464,112,35810,1,2
464,112,35960,1,0
464,112,36110,1,0
464,112,36260,1,2
464,112,36410,1,0
464,112,36560,1,0
464,112,36710,1,2
464,112,36860,1,0
464,112,37010,1,2
464,112,37085,1,2
464,112,37160,1,0
464,112,37310,1,2
464,112,37460,1,0
464,112,37610,1,0
464,112,37760,1,2
464,112,37910,1,0
464,112,38060,1,0
464,112,38210,1,2
464,112,38360,1,0
464,112,38510,1,0
464,112,38660,1,2
464,112,38810,1,0
464,112,38960,1,0
464,112,39110,1,0
464,112,39260,1,2
464,112,39410,1,0
464,112,39485,1,0
464,112,39560,1,2
464,112,39710,1,2
464,112,39860,1,0
464,112,40010,1,2
464,112,40160,1,0
464,112,40310,1,0
464,112,40460,1,2
464,112,40610,1,2
464,112,40760,1,0
464,112,40910,1,0
464,112,40985,1,2
464,112,41060,1,2
464,112,41210,1,2
464,112,41360,1,0
464,112,41510,1,0
464,112,41660,1,2
464,112,41810,1,2
464,112,41885,1,2
464,112,41960,1,2
464,112,42035,1,2
464,112,42110,1,2
464,112,42185,1,2
464,112,42260,1,0
464,112,42560,1,2
464,112,43010,1,0
464,112,43160,1,2
464,112,43460,1,0
464,112,43760,1,2
304,224,43910,1,0
464,112,44060,1,2
464,112,44360,1,2
464,112,44660,1,2
224,160,44810,1,0
224,160,44960,1,0
464,112,45110,1,2
272,128,45410,1,0
464,112,45560,1,2
464,112,45860,1,2
464,112,46160,1,2
464,112,46460,1,0
464,112,46610,1,2
464,112,46760,1,2
464,112,47060,1,0
464,112,47360,1,2
464,112,47810,1,0
464,112,47960,1,2
464,112,48260,1,0
320,208,48560,1,2
464,112,48860,1,2
288,128,49010,1,0
464,112,49160,1,2
464,112,49460,1,2
256,224,49760,1,0
464,112,49910,1,2
320,176,50210,1,0
464,112,50360,1,2
464,112,50660,1,4
464,112,50960,1,2
464,112,51110,1,0
464,112,51260,1,2
464,112,51410,1,0
464,112,51560,1,2
464,112,51860,1,4
464,112,52010,1,0
464,112,52085,1,0
464,112,52160,1,2
464,112,52310,1,2
464,112,52460,1,0
464,112,52610,1,0
464,112,52760,1,2
464,112,52910,1,0
464,112,53210,1,2
464,112,53510,1,0
464,112,53660,1,2
464,112,53810,1,0
464,112,53960,1,2
464,112,54260,1,4
464,112,54410,1,2
464,112,54485,1,2
464,112,54560,1,0
464,112,54710,1,0
464,112,54860,1,2
464,112,55010,1,2
464,112,55160,1,0
464,112,55310,1,2
464,112,55610,1,2
464,112,55910,1,2
464,112,56060,1,0
464,112,56210,1,2
464,112,56360,1,0
464,112,56660,1,4
464,112,56810,1,0
464,112,56885,1,0
464,112,56960,1,2
464,112,57110,1,2
464,112,57260,1,0
464,112,57410,1,0
464,112,57560,1,2
464,112,57710,1,0
464,112,58010,1,2
464,112,58310,1,2
464,112,58460,1,0
464,112,58610,1,2
464,112,58760,1,2
464,112,59060,1,4
464,112,59210,1,2
464,112,59285,1,2
464,112,59360,1,0
464,112,59510,1,0
464,112,59660,1,2
464,112,59810,1,2
464,112,59960,1,0
464,112,60110,1,2
336,224,60260,1,4
464,112,60410,1,2
320,192,60560,1,4
464,112,60710,1,0
288,160,60785,1,0
464,112,60860,1,2
464,112,61010,1,0
464,112,61160,1,2
256,192,61460,12,0,63260
464,112,63860,5,0
464,112,64160,1,2
464,112,64460,1,0
464,112,64760,1,2
464,112,65060,1,0
464,112,65360,1,2
464,112,65660,1,0
464,112,65810,1,2
464,112,65960,1,2
256,192,66260,12,0,68360
464,112,68660,5,0
464,112,68960,1,2
464,112,69260,1,0
464,112,69410,1,0
464,112,69560,1,2
464,112,69860,1,0
464,112,70010,1,0
464,112,70160,1,2
464,112,70310,1,2
464,112,70460,1,0
464,112,70610,1,2
464,112,70760,1,2
464,112,71060,1,0
464,112,71360,1,2
464,112,71660,1,0
464,112,71810,1,0
464,112,71885,1,0
464,112,71960,1,2
464,112,72110,1,2
464,112,72260,1,0
464,112,72560,1,2
464,112,72860,1,0
464,112,73010,1,0
464,112,73085,1,0
464,112,73160,1,2
464,112,73310,1,2
464,112,73460,2,0,B|224:112,2,210
464,112,74660,1,0
464,112,74810,1,0
464,112,74885,1,0
464,112,74960,1,2
464,112,75110,1,0
464,112,75260,1,0
464,112,75410,1,2
464,112,75560,1,2
464,112,75860,1,0
464,112,76010,1,0
464,112,76085,1,0
464,112,76160,1,2
464,112,76310,1,2
464,112,76460,1,0
464,112,76610,1,0
464,112,76685,1,0
464,112,76760,1,2
464,112,76910,1,2
464,112,77060,1,0
464,112,77210,1,0
464,112,77285,1,0
464,112,77360,1,0
464,112,77510,1,0
464,112,77660,1,2
464,112,77735,1,2
464,112,77810,1,2
464,112,77960,1,2
464,112,78110,1,2
464,112,78260,1,0
464,112,78410,1,0
464,112,78485,1,0
464,112,78560,1,2
464,112,78710,1,2
464,112,78860,1,0
464,112,79010,1,0
464,112,79160,1,2
464,112,79460,1,0
464,112,79610,1,0
464,112,79760,1,2
464,112,79910,1,0
464,112,79985,1,0
464,112,80060,1,0
464,112,80210,1,2
464,112,80360,1,2
464,112,80660,1,0
464,112,80960,1,2
464,112,81260,1,0
464,112,81410,1,0
464,112,81485,1,0
464,112,81560,1,2
464,112,81710,1,2
464,112,81860,1,0
464,112,82160,1,2
464,112,82460,1,0
464,112,82610,1,0
464,112,82685,1,0
464,112,82760,1,2
464,112,82910,1,2
464,112,83060,2,0,B|224:112,2,210
464,112,84260,1,0
464,112,84410,1,0
464,112,84485,1,0
464,112,84560,1,2
464,112,84710,1,0
464,112,84860,1,0
464,112,85010,1,2
464,112,85160,1,2
464,112,85310,1,2
464,112,85460,1,0
464,112,85610,1,2
464,112,85685,1,2
464,112,85760,1,0
464,112,85910,1,0
464,112,86060,1,2
464,112,86360,1,2
464,112,86660,1,0
464,112,86810,1,2
464,112,86885,1,2
464,112,86960,1,0
464,112,87110,1,0
464,112,87260,1,0
464,112,87560,1,2
464,112,87860,1,0
464,112,88010,1,2
464,112,88160,1,2
464,112,88310,1,0
464,112,88460,1,2
464,112,88610,1,2
464,112,88760,1,0
464,112,88910,1,2
464,112,89060,1,0
464,112,89360,1,2
464,112,89660,1,0
464,112,89810,1,2
464,112,89960,1,2
464,112,90260,1,0
464,112,90410,1,2
464,112,90485,1,2
464,112,90560,1,0
464,112,90710,1,0
464,112,91010,1,0
464,112,91160,1,2
464,112,91460,1,2
464,112,91760,1,0
464,112,91910,1,2
464,112,92060,1,0
464,112,92135,1,0
464,112,92210,1,0
464,112,92360,1,2
464,112,92660,1,0
464,112,92810,1,2
464,112,92885,1,2
464,112,92960,1,0
464,112,93110,1,0
464,112,93410,1,0
464,112,93560,1,2
464,112,93860,1,2
464,112,94160,1,0
464,112,94310,1,2
464,112,94460,1,0
464,112,94535,1,0
464,112,94610,1,0
464,112,94760,1,2
464,112,94835,1,0
464,112,94985,1,0
464,112,95060,1,2
464,112,95210,1,2
464,112,95285,1,2
464,112,95360,1,0
464,112,95510,1,0
464,112,95810,1,0
464,112,95960,1,2
464,112,96260,1,2
464,112,96560,1,0
464,112,96710,1,2
464,112,96860,1,0
464,112,96935,1,0
464,112,97010,1,0
464,112,97160,1,2
464,112,97460,1,0
464,112,97610,1,2
464,112,97685,1,2
464,112,97760,1,0
464,112,97910,1,0
464,112,98060,1,2
464,112,98210,1,2
464,112,98285,1,2
464,112,98360,1,0
464,112,98510,1,0
464,112,98660,1,0
464,112,98735,1,0
464,112,98810,1,0
464,112,98885,1,0
464,112,98960,1,2
464,112,99035,1,2
464,112,99110,1,2
464,112,99185,1,2
464,112,99260,1,0
464,112,99410,1,2
464,112,99560,1,2
464,112,99860,1,4
464,112,100010,1,0
464,112,100160,1,2
464,112,100310,1,0
464,112,100460,1,0
464,112,100760,1,2
464,112,101360,1,2
464,112,101510,1,0
464,112,101660,1,2
464,112,101810,1,2
464,112,101960,1,2
464,112,102260,1,0
464,112,102410,1,0
464,112,102560,1,2
464,112,102710,1,0
464,112,102860,1,0
464,112,103160,1,2
464,112,103760,1,2
464,112,103910,1,0
464,112,104060,1,2
464,112,104210,1,2
464,112,104360,1,2
464,112,104660,1,0
464,112,104810,1,0
464,112,104960,1,2
464,112,105110,1,0
464,112,105260,1,0
464,112,105560,1,2
464,112,106160,1,2
464,112,106460,1,0
464,112,106760,1,2
272,192,106910,1,0
464,112,107060,1,2
464,112,107360,1,2
464,112,107810,1,2
208,144,107960,1,0
464,112,108110,1,2
464,112,108260,1,0
464,112,108860,1,0
464,112,109160,1,2
464,112,109460,1,4
464,112,109610,1,0
464,112,109760,1,2
464,112,109910,1,0
464,112,110060,1,0
464,112,110360,1,2
464,112,110510,1,0
464,112,110660,1,0
464,112,110960,1,2
464,112,111110,1,0
464,112,111260,1,2
464,112,111410,1,2
464,112,111560,1,2
464,112,111860,1,0
464,112,112010,1,0
464,112,112160,1,2
464,112,112310,1,0
464,112,112460,1,0
464,112,112760,1,2
464,112,112910,1,0
464,112,113060,1,0
464,112,113360,1,2
464,112,113510,1,0
464,112,113660,1,2
464,112,113810,1,2
464,112,113960,1,2
464,112,114260,1,0
464,112,114410,1,0
464,112,114560,1,2
464,112,114710,1,0
464,112,114860,1,0
464,112,115160,1,2
464,112,115460,1,0
464,112,115760,1,2
464,112,116060,1,0
464,112,116360,1,2
256,160,116510,1,0
464,112,116660,1,2
464,112,116960,1,2
464,112,117260,1,2
464,112,117410,1,0
240,128,117560,1,2
464,112,117710,1,0
464,112,117860,1,2
464,112,118160,1,2
464,112,118460,1,0
464,112,118760,1,2
464,112,119060,1,4
464,112,119360,1,2
464,112,119510,1,0
464,112,119810,1,0
464,112,119960,1,2
464,112,120260,1,0
464,112,120410,1,0
464,112,120560,1,2
464,112,120710,1,0
464,112,121010,1,0
464,112,121160,1,2
464,112,121460,1,0
464,112,121760,1,2
464,112,121910,1,0
464,112,122210,1,0
464,112,122360,1,2
464,112,122660,1,0
464,112,122810,1,0
464,112,122960,1,2
464,112,123110,1,0
464,112,123410,1,0
464,112,123560,1,2
464,112,123860,1,0
464,112,124160,1,2
464,112,124310,1,0
464,112,124610,1,0
464,112,124760,1,2
464,112,125060,1,0
464,112,125210,1,0
464,112,125360,1,2
464,112,125510,1,0
464,112,125810,1,0
464,112,125960,1,2
464,112,126260,1,0
464,112,126410,1,0
464,112,126560,1,2
464,112,126710,1,0
464,112,126860,1,0
464,112,127010,1,0
464,112,127160,1,2
464,112,127310,1,0
464,112,127460,1,0
464,112,127610,1,2
464,112,127760,1,0
464,112,127910,1,2
464,112,128060,1,0
464,112,128210,1,2
464,112,128360,1,2
464,112,128660,1,4
464,112,128810,1,2
464,112,128960,1,0
464,112,129110,1,0
464,112,129260,1,2
464,112,129410,1,0
464,112,129560,1,2
464,112,129710,1,2
464,112,129860,1,0
464,112,130010,1,0
464,112,130160,1,2
464,112,130310,1,2
464,112,130460,1,0
464,112,130610,1,2
464,112,130760,1,2
464,112,130910,1,0
464,112,131060,1,2
464,112,131210,1,2
464,112,131360,1,0
464,112,131510,1,0
464,112,131660,1,2
464,112,131960,1,2
464,112,132110,1,2
464,112,132260,1,0
464,112,132410,1,2
464,112,132560,1,0
464,112,132710,1,2
464,112,132860,1,0
464,112,133460,1,4
464,112,133610,1,2
464,112,133760,1,0
464,112,133910,1,0
464,112,134060,1,2
464,112,134210,1,0
464,112,134360,1,2
464,112,134510,1,2
464,112,134660,1,0
464,112,134810,1,0
464,112,134960,1,2
464,112,135110,1,2
464,112,135260,1,0
464,112,135410,1,2
464,112,135560,1,2
464,112,135710,1,0
464,112,135860,1,2
464,112,136010,1,2
464,112,136160,1,0
464,112,136310,1,0
464,112,136460,1,2
464,112,136760,1,0
464,112,136910,1,0
464,112,137060,1,6
464,112,137360,1,6
464,112,137510,1,0
464,112,137660,1,2
464,112,137735,1,2
464,112,137810,1,2
464,112,137885,1,2
464,112,137960,1,2
464,112,138035,1,2
464,112,138110,1,2
464,112,138185,1,2
464,112,138260,1,0
464,112,138410,1,0
464,112,138560,1,2
464,112,138710,1,0
464,112,138860,1,0
464,112,139010,1,2
464,112,139160,1,0
464,112,139310,1,0
464,112,139460,1,2
464,112,139610,1,0
464,112,139760,1,0
464,112,139910,1,2
464,112,140060,1,0
464,112,140210,1,0
464,112,140285,1,2
464,112,140360,1,2
464,112,140510,1,2
464,112,140660,1,0
464,112,140810,1,0
464,112,140960,1,2
464,112,141110,1,0
464,112,141260,1,0
464,112,141410,1,2
464,112,141560,1,0
464,112,141710,1,0
464,112,141860,1,2
464,112,142010,1,0
464,112,142160,1,0
464,112,142310,1,2
464,112,142460,1,0
464,112,142610,1,2
464,112,142685,1,2
464,112,142760,1,0
464,112,142910,1,2
464,112,143060,1,0
464,112,143210,1,0
464,112,143360,1,2
464,112,143510,1,0
464,112,143660,1,0
464,112,143810,1,2
464,112,143960,1,0
464,112,144110,1,0
464,112,144260,1,2
464,112,144410,1,0
464,112,144560,1,0
464,112,144710,1,0
464,112,144860,1,2
464,112,145010,1,0
464,112,145085,1,0
464,112,145160,1,2
464,112,145310,1,2
464,112,145460,1,0
464,112,145610,1,2
464,112,145760,1,0
464,112,145910,1,0
464,112,145985,1,2
464,112,146060,1,2
464,112,146210,1,2
464,112,146360,1,0
464,112,146510,1,0
464,112,146585,1,2
464,112,146660,1,2
464,112,146810,1,2
464,112,146960,1,0
464,112,147110,1,0
464,112,147185,1,0
464,112,147260,1,2
464,112,147410,1,2
464,112,147560,1,2
464,112,147635,1,2
464,112,147710,1,2
464,112,147860,2,0,B|160:112,2,280
464,112,149360,1,0
464,112,149660,1,2
464,112,149960,1,0
464,112,150260,1,0
464,112,150410,1,0
464,112,150485,1,0
464,112,150560,1,2
464,112,150710,1,2
464,112,150860,1,0
464,112,151010,1,0
464,112,151085,1,0
464,112,151160,1,2
464,112,151310,1,2
464,112,151460,1,0
464,112,151760,1,2
464,112,152060,1,0
464,112,152210,1,2
464,112,152360,1,2
464,112,152660,2,0,B|176:112,2,280
464,112,154160,1,0
464,112,154460,1,2
464,112,154760,1,2
464,112,155060,1,0
464,112,155210,1,0
464,112,155285,1,0
464,112,155360,1,2
464,112,155510,1,2
464,112,155660,1,0
464,112,155810,1,0
464,112,155885,1,0
464,112,155960,1,2
464,112,156110,1,2
464,112,156260,1,0
464,112,156560,1,2
464,112,156860,1,0
464,112,157010,1,2
464,112,157160,1,2
464,112,157460,1,4
464,112,157760,1,2
464,112,158060,1,2
464,112,158360,1,0
464,112,158510,1,0
464,112,158810,1,2
464,112,159110,1,2
464,112,159260,1,0
464,112,159410,1,0
464,112,159560,1,2
464,112,159860,1,4
464,112,160160,1,2
464,112,160460,1,2
464,112,160760,1,0
464,112,160910,1,0
464,112,161210,1,2
464,112,161510,1,2
464,112,161660,1,0
464,112,161810,1,0
464,112,161885,1,0
464,112,161960,1,2
464,112,162110,1,2
464,112,162260,1,4
464,112,162560,1,2
464,112,162860,1,2
464,112,163160,1,0
464,112,163310,1,0
464,112,163610,1,2
464,112,163910,1,2
464,112,164060,1,0
464,112,164210,1,0
464,112,164360,1,2
464,112,164660,1,4
464,112,164960,1,2
464,112,165260,1,2
464,112,165560,1,0
464,112,165710,1,0
464,112,166010,1,2
464,112,166310,1,2
464,112,166460,1,0
464,112,166610,1,0
464,112,166685,1,0
464,112,166760,1,2
464,112,166910,1,2
464,112,167060,1,0
464,112,167210,1,2
464,112,167360,1,0
464,112,167510,1,2
464,112,167660,1,0
464,112,167810,1,2
464,112,167960,1,0
464,112,168110,1,2
464,112,168260,1,0
464,112,168410,1,2
464,112,168560,1,0
464,112,168710,1,2
464,112,168860,1,2
464,112,169010,1,0
464,112,169160,1,0
464,112,169310,1,2
464,112,169460,1,0
464,112,169610,1,2
464,112,169760,1,0
464,112,169910,1,2
464,112,170060,1,2
464,112,170210,1,2
464,112,170360,1,0
464,112,170510,1,2
464,112,170660,1,0
464,112,170810,1,2
464,112,170960,1,0
464,112,171110,1,2
464,112,171260,1,2
464,112,171410,1,0
464,112,171560,1,0
464,112,171710,1,2
464,112,171860,1,0
464,112,172460,1,2
464,112,173060,1,0
464,112,173360,1,0
464,112,173660,1,2
464,112,174260,1,0
464,112,174410,1,0
464,112,174560,1,2
464,112,174860,1,0
464,112,175010,1,0
464,112,175160,1,2
464,112,175460,1,0
464,112,175610,1,2
464,112,175760,1,0
464,112,175910,1,2
464,112,176060,1,4
464,112,176210,1,4
464,112,176360,1,4
464,112,176510,1,4
464,112,176660,1,0
464,112,176810,1,0
464,112,176885,1,0
464,112,176960,1,2
464,112,177110,1,2
464,112,177260,1,0
464,112,177410,1,2
464,112,177560,1,0
464,112,177710,1,2
464,112,177860,1,0
464,112,178010,1,0
464,112,178085,1,0
464,112,178160,1,2
464,112,178310,1,2
464,112,178460,1,0
464,112,178610,1,2
464,112,178760,1,2
464,112,178910,1,0
464,112,178985,1,0
464,112,179060,1,2
464,112,179210,1,0
464,112,179360,1,2
464,112,179510,1,2
464,112,179660,1,0
464,112,179810,1,0
464,112,179960,1,2
464,112,180110,1,0
464,112,180260,1,2
464,112,180410,1,2
464,112,180485,1,2
464,112,180560,1,0
464,112,180710,1,0
464,112,180860,1,2
464,112,181010,1,0
464,112,181160,1,2
464,112,181460,1,0
464,112,181610,1,0
464,112,181685,1,0
464,112,181760,1,2
464,112,181910,1,2
464,112,182060,1,0
464,112,182210,1,2
464,112,182360,1,0
464,112,182510,1,2
464,112,182660,1,0
464,112,182810,1,0
464,112,182885,1,0
464,112,182960,1,2
464,112,183110,1,2
464,112,183260,1,0
464,112,183410,1,2
464,112,183560,1,2
464,112,183710,1,0
464,112,183785,1,0
464,112,183860,1,2
464,112,184010,1,0
464,112,184160,1,2
464,112,184310,1,2
464,112,184460,1,0
464,112,184610,1,0
464,112,184760,1,2
464,112,184910,1,0
464,112,185060,1,2
464,112,185210,1,2
464,112,185285,1,2
464,112,185360,1,0
464,112,185510,1,0
464,112,185660,1,2
464,112,185810,1,0
464,112,185960,1,2
464,112,186260,1,4
464,112,186410,1,2
464,112,186560,1,2
464,112,186710,1,2
464,112,186860,1,2
464,112,187760,1,4
464,112,187910,1,2
464,112,188060,1,2
464,112,188210,1,2
464,112,188360,1,2
464,112,188660,1,4
464,112,188810,1,2
464,112,188960,1,2
464,112,189110,1,2
464,112,189260,1,2
464,112,190160,1,4
464,112,190310,1,2
464,112,190460,1,2
464,112,190610,1,2
464,112,190760,1,2
464,112,191060,1,4
464,112,191210,1,2
464,112,191360,1,0
464,112,191510,1,2
464,112,191660,1,2
464,112,192560,1,6
464,112,192860,1,6
464,112,193160,1,6
464,112,193310,1,0
464,112,193460,1,0
464,112,193760,1,0
464,112,193910,1,0
464,112,194210,1,2
464,112,194510,1,0
464,112,194660,1,2
464,112,194810,1,0
464,112,194960,1,2
464,112,195110,1,0
464,112,195260,1,2
464,112,195560,1,2
464,112,195860,1,4
464,112,196010,1,2
464,112,196160,1,2
464,112,196310,1,2
464,112,196460,1,2
464,112,196760,1,2
464,112,197060,1,0
464,112,197360,1,4
464,112,197510,1,2
464,112,197660,1,2
464,112,197810,1,2
464,112,197960,1,2
464,112,198260,1,4
464,112,198410,1,2
464,112,198560,1,2
464,112,198710,1,2
464,112,198860,1,2
464,112,199160,1,0
464,112,199460,1,2
464,112,199760,1,4
464,112,199910,1,2
464,112,200060,1,2
464,112,200210,1,2
464,112,200360,1,2
464,112,200660,1,4
464,112,200810,1,2
464,112,200960,1,0
464,112,201110,1,2
464,112,201260,1,2
464,112,201560,1,2
464,112,201710,1,2
464,112,201785,1,2
464,112,201860,1,0
464,112,202010,1,0
464,112,202160,1,6
464,112,202460,1,6
464,112,202760,1,6
464,112,202910,1,0
464,112,203060,1,0
464,112,203360,1,0
464,112,203510,1,0
464,112,203810,1,2
272,160,203960,1,0
464,112,204110,1,2
464,112,204260,1,2
464,112,204410,1,0
464,112,204560,1,2
464,112,204710,1,0
464,112,204785,1,0
464,112,204860,1,2
464,112,205010,1,0
464,112,205160,1,2
