osu file format v9

[General]
AudioFilename: Floating Darkness.mp3
AudioLeadIn: 0
PreviewTime: 89102
Countdown: 1
SampleSet: Normal
StackLeniency: 0.7
Mode: 0
LetterboxInBreaks: 1

[Editor]
Bookmarks: 46904,52179
DistanceSpacing: 1.4
BeatDivisor: 4
GridSize: 8

[Metadata]
Title:Floating Darkness
Artist:Tatsh
Creator:macponpon
Version:Lunatic
Source:Touhou
Tags:Touhou Tatsh nue

[Difficulty]
HPDrainRate:8
CircleSize:4
OverallDifficulty:6
ApproachRate:9
SliderMultiplier:1.4
SliderTickRate:1

[Events]
//Background and Video events
0,0,"bgimage.jpg"
//Break Periods
2,46445,51579
//Storyboard Layer 0 (Background)
//Storyboard Layer 1 (Fail)
//Storyboard Layer 2 (Pass)
//Storyboard Layer 3 (Foreground)
//Storyboard Sound Samples
//Background Colour Transformations
3,100,163,162,255

[TimingPoints]
25805.978021978,329.67032967033,4,1,0,100,1,0
26465,-100,4,1,0,100,0,0
27124,-100,4,1,0,100,0,0
27454,-100,4,1,0,100,0,0
28443,-100,4,1,0,100,0,0
30421,-100,4,1,0,100,0,0
30751,-100,4,1,0,100,0,0
33718,-100,4,1,0,100,0,0
35366,-100,4,1,0,100,0,0
35696,-100,4,1,0,100,0,0
36355,-100,4,1,0,100,0,0
36685,-100,4,1,0,100,0,0
37674,-100,4,1,0,100,0,0
38992,-100,4,1,0,100,0,0
40337,-100,4,1,0,100,0,0
41630,-100,4,1,0,100,0,0
64047,-100,4,1,0,100,0,0
65366,-100,4,1,0,100,0,0
66025,-100,4,1,0,100,0,0
68003,-100,4,1,0,100,0,0
70131,-100,4,1,0,100,0,0
70641,-100,4,1,0,100,0,0
71959,-100,4,1,0,100,0,0
74597,-100,4,1,0,100,0,0
76804,-100,4,1,0,100,0,0
78553,-133.333333333333,4,1,0,100,0,0
78882,-133.333333333333,4,1,0,100,0,0
86465,-200,4,1,0,100,0,0
87784,-100,4,1,0,100,0,0
87784,-100,4,1,0,100,0,0
89432,-100,4,1,0,100,0,1
99981,-100,4,1,0,100,0,1
101135,-100,4,1,0,100,0,1
110201,-100,4,1,0,100,0,0

[Colours]
Combo1 : 128,255,255
Combo2 : 255,255,255
Combo3 : 5,5,240
Combo4 : 240,5,5

[HitObjects]
256,136,25805,2,0,B|200:136|200:200,1,70
256,256,26135,2,0,B|312:256|312:192,1,70
256,136,26465,2,0,B|312:136|312:200,1,70
256,256,26794,2,0,B|200:256|200:200,1,70
256,88,27124,5,0
120,192,27454,1,0
256,296,27783,1,0
392,192,28113,1,0
440,320,28443,6,0,B|368:320,3,70
312,256,29102,1,0
256,192,29267,1,0
208,120,29432,2,0,B|128:120,1,70
64,160,29762,1,0
64,160,30091,1,0
40,272,30421,5,0
40,272,30503,1,0
40,272,30586,1,0
112,312,30751,1,0
112,312,30833,1,0
112,312,30915,1,0
176,256,31080,6,0,B|232:184,1,70
296,232,31410,2,0,B|352:160,1,70
416,216,31740,2,0,B|456:192|472:168|472:88,1,140
392,112,32234,1,0
360,32,32399,2,0,B|320:48|304:72|304:176,1,140
304,232,32893,1,0
224,216,33058,2,0,B|176:272,1,70
160,184,33388,2,0,B|208:128,1,70
256,64,33718,5,0
256,88,34047,1,0
256,120,34377,1,0
256,152,34707,1,0
208,224,35036,2,0,B|128:224,1,70
304,224,35366,2,0,B|376:224,1,70
288,336,35696,1,0
272,336,35778,1,0
256,336,35860,1,0
240,336,35943,1,0
224,336,36025,1,0
72,216,36355,6,0,B|72:288,1,70
152,264,36685,1,0
216,208,36849,1,0
160,144,37014,2,0,B|112:88,1,70
168,24,37344,1,0
232,80,37509,1,0
288,16,37674,2,0,B|368:40,1,70
384,112,38003,2,0,B|456:136,1,70
448,216,38333,2,0,B|360:232,1,70
408,304,38663,2,0,B|320:320,1,70
256,328,38992,5,0
112,192,39322,1,0
256,56,39652,1,0
400,192,39981,1,0
312,128,40311,2,0,B|216:136,1,70
256,192,40641,2,0,B|184:200,2,70
256,192,41053,1,0
256,192,41135,1,0
256,192,41218,1,0
256,192,41300,1,0
56,288,41630,5,0
104,216,41794,1,0
168,264,41959,2,0,B|248:264,1,70
320,264,42289,1,0
352,184,42454,1,0
424,224,42619,1,0
456,144,42783,1,0
424,64,42948,2,0,B|368:104,1,70
288,64,43278,2,0,B|224:112,1,70
168,48,43608,2,0,B|112:72|88:104|88:176,1,140
208,272,44267,6,0,B|248:224|264:304|336:288|344:224,1,140
408,208,44762,1,0
352,144,44926,1,0
416,88,45091,1,0
416,88,45256,1,0
256,24,45586,5,0
256,192,45915,1,0
256,360,46245,1,0
112,128,52179,5,0
200,128,52344,1,0
256,192,52509,1,0
256,192,52591,1,0
256,192,52674,1,0
312,256,52838,1,0
400,256,53003,1,0
376,160,53168,2,0,B|432:96,1,70
320,120,53498,2,0,B|376:56,2,70
256,192,53992,5,0
208,280,54157,2,0,B|176:320,2,35
136,224,54487,2,0,B|112:248,2,35
104,128,54816,5,0
144,40,54981,1,0
232,80,55146,1,0
192,168,55311,1,0
280,216,55476,2,0,B|352:216,1,70
408,136,55805,1,0
464,216,55970,2,0,B|464:288,4,70
368,240,56794,2,0,B|368:176,6,35
368,240,57454,5,0
296,360,57783,1,0
216,240,58113,1,0
144,360,58443,1,0
64,296,58773,2,0,B|16:232|72:160,3,140
144,48,60091,1,0
200,176,60421,1,0
264,48,60751,1,0
328,176,61080,1,0
464,144,61410,6,0,B|512:216|456:288,2,140
392,192,62234,1,0
328,248,62399,1,0
256,296,62564,1,0
200,232,62729,2,0,B|120:232,1,70
80,160,63058,2,0,B|168:160,1,70
152,72,63388,1,0
232,48,63553,1,0
232,48,63718,1,0
232,48,63882,1,0
312,72,64047,6,0,B|400:120,1,70
248,152,64377,2,0,B|312:216,1,70
160,208,64707,2,0,B|200:272,1,70
64,248,65036,2,0,B|88:336,1,70
160,344,65366,1,0
248,344,65531,1,0
216,264,65696,2,0,B|296:264,1,70
344,184,66025,2,0,B|248:184,2,70
392,136,66520,5,0
360,56,66685,2,0,B|304:112,1,70
240,64,67014,2,0,B|176:128,1,70
152,184,67344,1,0
160,200,67426,1,0
168,216,67509,1,0
88,248,67674,1,0
96,264,67756,1,0
104,280,67838,1,0
208,320,68003,6,0,B|232:256|232:256|320:240,1,140
376,240,68498,1,0
440,208,68663,2,0,B|464:136|464:136|408:80,1,140
368,48,69157,1,0
304,72,69322,2,0,B|240:136,1,70
200,80,69652,2,0,B|128:144,1,70
104,184,69981,1,0
104,272,70146,1,0
104,184,70311,1,0
200,352,70641,6,0,B|280:352,1,70
336,280,70970,2,0,B|256:280,1,70
200,200,71300,2,0,B|288:200,1,70
344,128,71630,2,0,B|264:128,1,70
256,48,71959,1,0
256,328,72289,1,0
256,48,72619,1,0
256,64,72701,1,0
256,80,72783,1,0
256,96,72866,1,0
256,112,72948,1,0
208,248,73278,6,0,B|192:280|192:280|144:296,1,70
296,248,73608,2,0,B|312:280|312:280|360:296,1,70
144,96,73937,2,0,B|144:136|144:136|96:160,1,70
368,96,74267,2,0,B|368:136|368:136|400:160,1,70
256,56,74597,1,0
256,96,74926,1,0
256,136,75256,1,0
256,176,75586,1,0
88,80,75915,6,0,B|152:72|168:120|152:160|176:168,2,140
88,208,76904,1,0
176,304,77234,1,0
184,288,77316,1,0
192,272,77399,1,0
200,256,77481,1,0
208,240,77564,1,0
216,224,77646,1,0
224,208,77729,1,0
240,192,77811,1,0
256,184,77893,1,0
272,192,77976,1,0
288,208,78058,1,0
296,224,78141,1,0
304,240,78223,1,0
312,256,78305,1,0
320,272,78388,1,0
328,288,78470,1,0
336,304,78553,1,0
408,256,78882,6,0,B|440:224|440:192|408:160,1,104.999996870756
360,96,79542,1,0
296,40,79871,2,0,B|280:80|232:80|216:40,1,104.999996870756
144,88,80531,1,0
144,88,80860,1,0
80,144,81190,1,0
144,200,81520,1,0
80,256,81849,1,0
144,312,82179,1,0
208,256,82509,6,0,B|208:216|224:192|280:184,2,104.999996870756
256,320,83498,1,0
336,320,83827,2,0,B|456:320,1,104.999996870756
408,240,84487,1,0
328,240,84816,1,0
248,272,85146,2,0,B|232:232|184:232|168:272,1,104.999996870756
104,328,85805,1,0
104,328,86135,1,0
56,256,86465,2,0,B|104:240|120:200|88:176|24:144|40:112|72:80,1,210
136,32,87784,5,0
152,56,87866,1,0
168,80,87948,1,0
176,104,88031,1,0
184,128,88113,1,0
200,152,88196,1,0
216,168,88278,1,0
232,184,88360,1,0
256,200,88443,1,0
280,184,88525,1,0
296,168,88608,1,0
312,152,88690,1,0
320,128,88773,1,0
336,104,88855,1,0
344,80,88937,1,0
352,56,89020,1,0
368,40,89102,1,0
464,40,89432,6,0,B|496:104,1,70
408,152,89762,2,0,B|448:232,1,70
344,248,90091,2,0,B|384:328,1,70
48,40,90421,2,0,B|8:112,1,70
104,152,90751,2,0,B|64:240,1,70
168,248,91080,2,0,B|128:320,1,70
256,128,91410,6,0,B|256:40,1,70
256,248,91740,2,0,B|256:344,1,70
184,192,92069,2,0,B|96:192,1,70
328,192,92399,2,0,B|416:192,1,70
424,96,92729,1,0
424,96,92893,1,0
336,56,93058,1,0
336,56,93223,1,0
248,88,93388,2,0,B|184:144,1,70
96,136,93718,5,0
40,216,93882,1,0
128,248,94047,1,0
96,336,94212,1,0
192,304,94377,1,0
208,304,94459,1,0
224,304,94542,1,0
240,304,94624,1,0
256,304,94707,1,0
448,264,95036,5,0
376,200,95201,2,0,B|456:176,1,70
440,80,95531,2,0,B|344:112,1,70
288,144,95860,1,0
232,224,96025,1,0
136,224,96190,1,0
88,136,96355,2,0,B|24:88,1,70
120,56,96685,2,0,B|176:96,2,70
216,32,97179,5,0
304,80,97344,1,0
304,80,97509,1,0
400,88,97674,2,0,B|400:160,1,70
424,256,98003,1,0
424,256,98168,1,0
344,320,98333,1,0
328,320,98415,1,0
312,320,98498,1,0
296,320,98580,1,0
280,320,98663,1,0
264,312,98745,1,0
248,304,98827,1,0
232,296,98910,1,0
216,288,98992,1,0
208,280,99075,1,0
200,264,99157,1,0
192,248,99240,1,0
184,232,99322,1,0
176,216,99404,1,0
168,200,99487,1,0
160,184,99569,1,0
152,168,99652,1,0
24,104,99981,6,0,B|96:104,1,70
184,56,100311,1,0
256,120,100476,1,0
336,56,100641,1,0
416,112,100805,2,0,B|496:112,1,70
448,192,101135,1,0
448,192,101300,1,0
400,264,101465,1,0
352,336,101630,2,0,B|280:336,1,70
232,264,101959,2,0,B|320:264,1,70
320,184,102289,5,0
320,184,102371,1,0
320,184,102454,1,0
280,112,102619,1,0
280,112,102784,1,0
200,136,102948,1,0
200,136,103031,1,0
200,136,103113,1,0
136,80,103278,1,0
64,128,103443,6,0,B|80:224,1,70
144,240,103773,1,0
224,232,103937,2,0,B|200:312,1,70
144,240,104267,1,0
80,296,104432,1,0
40,224,104597,2,0,B|104:176,1,70
136,104,104926,1,0
152,104,105009,1,0
168,104,105091,1,0
248,72,105256,5,0
336,72,105421,1,0
400,128,105586,1,0
336,184,105751,2,0,B|288:272,1,70
232,200,106080,1,0
160,240,106245,1,0
160,240,106327,1,0
160,240,106410,1,0
224,296,106575,6,0,B|312:296,1,70
336,224,106904,2,0,B|256:224,1,70
208,160,107234,2,0,B|304:160,1,70
256,64,107564,5,0
208,152,107729,1,0
304,152,107893,1,0
304,248,108058,1,0
208,248,108223,1,0
256,160,108388,5,0
256,256,108553,1,0
256,192,108718,12,0,110201
