osu file format v9

[General]
AudioFilename: Floating Darkness.mp3
AudioLeadIn: 0
PreviewTime: 89102
Countdown: 1
SampleSet: Normal
StackLeniency: 0.7
Mode: 0
LetterboxInBreaks: 1

[Editor]
Bookmarks: 46904,52179,82509
DistanceSpacing: 0.8
BeatDivisor: 4
GridSize: 8

[Metadata]
Title:Floating Darkness
Artist:Tatsh
Creator:macponpon
Version:Easy
Source:Touhou
Tags:Touhou Tatsh nue

[Difficulty]
HPDrainRate:3
CircleSize:3
OverallDifficulty:3
ApproachRate:3
SliderMultiplier:1.4
SliderTickRate:2

[Events]
//Background and Video events
0,0,"bgimage.jpg"
//Break Periods
2,78093,81069
//Storyboard Layer 0 (Background)
//Storyboard Layer 1 (Fail)
//Storyboard Layer 2 (Pass)
//Storyboard Layer 3 (Foreground)
//Storyboard Sound Samples
//Background Colour Transformations
3,100,163,162,255

[TimingPoints]
25805.978021978,329.67032967033,4,1,0,100,1,0
31080,-133.333333333333,4,1,0,100,0,0
78553,-133.333333333333,4,1,0,100,0,0
86465,-200,4,1,0,100,0,0
87784,-100,4,1,0,100,0,0
89102,-100,4,1,0,100,0,0
89432,-100,4,1,0,100,0,1
89762,-133.333333333333,4,1,0,100,0,1
110201,-133.333333333333,4,1,0,100,0,0

[Colours]
Combo1 : 128,255,255
Combo2 : 255,255,255
Combo3 : 5,5,240
Combo4 : 240,5,5

[HitObjects]
256,64,25805,1,0
120,192,27124,1,0
256,312,28443,1,0
392,192,29762,1,0
128,88,31080,6,0,B|104:136|96:216|104:256|128:312,1,209.999993741512
280,328,32399,2,0,B|304:288|312:224|304:168|280:120,1,209.999993741512
448,104,33718,2,0,B|392:200,1,104.999996870756
328,144,34377,2,0,B|272:232,1,104.999996870756
352,256,35036,2,0,B|320:328|216:352|128:328|88:240,1,314.999990612269
80,168,36355,6,0,B|80:104|136:48|200:104|200:184,1,209.999993741512
312,288,37674,2,0,B|312:352|256:408|200:352|200:288,1,209.999993741512
136,120,38992,2,0,B|136:200|160:248|272:312|368:248|400:200|400:112,1,419.999987483025
456,56,40641,1,0
480,136,40970,1,0
368,264,41630,6,0,B|312:240|256:264,1,104.999996870756
184,256,42289,1,0
208,88,42948,2,0,B|256:56|320:88,1,104.999996870756
392,96,43608,1,0
256,192,44267,12,0,46245
144,152,46904,6,0,B|168:120|216:144|248:200|288:208|336:152,1,209.999993741512
448,280,48223,1,0
448,192,48553,1,0
448,112,48882,1,0
336,256,49542,6,0,B|312:288|264:264|232:208|192:200|144:256,1,209.999993741512,0|0
64,104,50860,1,0
64,192,51190,1,0
64,280,51520,1,0
152,136,52179,2,0,B|168:208|216:232,1,104.999996870756
288,224,52838,1,0
376,224,53168,1,0
464,224,53498,2,0,B|464:280|416:312,2,104.999996870756
408,160,54487,5,0
336,112,54816,1,0
264,160,55146,1,0
232,240,55476,2,0,B|176:224|176:152,1,104.999996870756
256,192,56135,12,0,57454
256,96,58773,5,0
256,176,59102,1,0
256,264,59432,1,0
120,272,60091,6,0,B|168:328|232:360|280:360|336:336|392:272,1,314.999990612269
389,274,61410,1,0
389,274,61740,1,0
389,274,62069,1,0
416,88,62729,6,0,B|184:88,1,209.999993741512
120,232,64047,2,0,B|344:232,1,209.999993741512
384,248,65366,5,0
344,320,65696,1,0
296,248,66025,1,0
248,320,66355,1,0
200,248,66685,2,0,B|136:280|88:240,2,104.999996870756
80,136,68003,5,0
136,72,68333,1,0
200,128,68663,2,0,B|216:80|248:80|272:136,1,104.999996870756
352,104,69322,2,0,B|352:320,1,209.999993741512
256,176,70641,5,0
192,232,70970,1,0
128,288,71300,1,0
72,224,71630,2,0,B|72:104,2,104.999996870756
72,224,72619,1,0
184,104,73278,6,0,B|408:104,1,209.999993741512
304,248,74597,2,0,B|96:248,1,209.999993741512
168,96,75915,1,0
336,96,76575,1,0
256,240,77234,1,0
256,240,77564,1,0
256,240,77893,1,0
120,232,82509,5,0
256,328,83168,1,0
392,232,83827,1,0
464,80,84487,2,0,B|424:152|328:152|280:72,1,209.999993741512
120,104,85805,1,0
120,248,86465,2,0,B|120:280|128:336|168:352|208:352,1,140
256,192,87784,12,0,89102
336,64,89762,6,0,B|336:184,2,104.999996870756
184,128,91080,2,0,B|184:256,2,104.999996870756
328,216,92399,2,0,B|328:336,2,104.999996870756
264,168,93388,1,0
184,136,93718,1,0
104,160,94047,1,0
104,248,94377,2,0,B|104:304,2,52.4999984353781
192,248,95036,5,0
256,304,95366,2,0,B|376:304,2,104.999996870756
288,224,96355,1,0
240,152,96685,2,0,B|128:152,2,104.999996870756
328,152,97674,2,0,B|432:152,1,104.999996870756
432,240,98333,5,0
264,240,98992,1,0
384,128,99652,6,0,B|416:152|456:224|448:304|432:328,2,209.999993741512
304,160,101300,1,0
240,104,101630,2,0,B|136:104,1,104.999996870756
80,168,102289,2,0,B|16:232|16:288|80:352,1,209.999993741512
216,256,103608,5,0
320,128,104267,1,0
376,192,104597,2,0,B|408:232|408:256|376:288,1,104.999996870756
312,336,105256,1,0
184,120,106245,2,0,B|152:144|152:176|184:216,1,104.999996870756
216,288,106904,1,0
360,200,107564,2,0,B|384:232|384:264|360:296,1,104.999996870756
288,248,108223,1,0
288,248,108553,1,0
256,192,108882,12,0,110201
