osu file format v13

[General]
AudioFilename: Tatsh - ELECTROGIC.mp3
AudioLeadIn: 0
PreviewTime: -1
Countdown: 1
SampleSet: Soft
StackLeniency: 0.7
Mode: 3
LetterboxInBreaks: 1
SpecialStyle: 0
WidescreenStoryboard: 0

[Editor]
Bookmarks: 126275
DistanceSpacing: 1.2
BeatDivisor: 8
GridSize: 16
TimelineZoom: 2.599999

[Metadata]
Title:ELECTROGIC
TitleUnicode:ELECTROGIC
Artist:Tatsh
ArtistUnicode:Tatsh
Creator:Zillah
Version:Normal
Source:
Tags:
BeatmapID:497970
BeatmapSetID:211792

[Difficulty]
HPDrainRate:8.5
CircleSize:7
OverallDifficulty:5
ApproachRate:5
SliderMultiplier:1.4
SliderTickRate:1

[Events]
//Background and Video events
0,0,"maxresdefault.jpg",0,0
//Break Periods
//Storyboard Layer 0 (Background)
//Storyboard Layer 1 (Fail)
//Storyboard Layer 2 (Pass)
//Storyboard Layer 3 (Foreground)
//Storyboard Sound Samples
//Background Colour Transformations
3,100,163,162,255

[TimingPoints]
2204,428.571428571429,4,2,0,15,1,0

[HitObjects]
329,192,2204,128,0,3918:0:0:0:0:
109,192,2204,128,0,3918:0:0:0:0:
182,192,3918,128,0,5632:0:0:0:0:
402,192,3918,128,0,5632:0:0:0:0:
36,192,5632,128,0,7346:0:0:0:0:
256,192,5632,128,0,7346:0:0:0:0:
109,192,7346,128,0,8954:0:0:0:0:
329,192,7346,128,0,8364:0:0:0:0:
402,192,8364,128,0,8954:0:0:0:0:
329,192,9114,128,0,10025:0:0:0:0:
109,192,9114,128,0,10775:0:0:0:0:
256,192,10025,128,0,10775:0:0:0:0:
182,192,10775,128,0,12436:0:0:0:0:
475,192,10775,128,0,11418:0:0:0:0:
329,192,11418,128,0,12436:0:0:0:0:
256,192,12543,128,0,14204:0:0:0:0:
36,192,12543,128,0,14204:0:0:0:0:
109,192,14257,128,0,15918:0:0:0:0:
329,192,14257,128,0,15007:0:0:0:0:
475,192,15007,128,0,15918:0:0:0:0:
256,192,15918,1,0,0:0:0:0:
329,192,15918,1,0,0:0:0:0:
36,192,15918,1,0,0:0:0:0:
256,192,16132,1,0,0:0:0:0:
329,192,16132,1,0,0:0:0:0:
36,192,16132,1,0,0:0:0:0:
256,192,16346,1,0,0:0:0:0:
329,192,16346,1,0,0:0:0:0:
36,192,16346,1,0,0:0:0:0:
36,192,16454,1,0,0:0:0:0:
256,192,16454,1,0,0:0:0:0:
329,192,16454,1,0,0:0:0:0:
109,192,16668,1,0,0:0:0:0:
329,192,16668,1,0,0:0:0:0:
402,192,16668,1,0,0:0:0:0:
109,192,16882,1,0,0:0:0:0:
329,192,16882,1,0,0:0:0:0:
402,192,16882,1,0,0:0:0:0:
109,192,16989,1,0,0:0:0:0:
329,192,16989,1,0,0:0:0:0:
402,192,16989,1,0,0:0:0:0:
182,192,17096,1,0,0:0:0:0:
329,192,17096,1,0,0:0:0:0:
182,192,17204,1,0,0:0:0:0:
329,192,17204,1,0,0:0:0:0:
109,192,17311,1,0,0:0:0:0:
402,192,17311,1,0,0:0:0:0:
109,192,17418,1,0,0:0:0:0:
402,192,17418,1,0,0:0:0:0:
36,192,17525,1,0,0:0:0:0:
475,192,17525,1,0,0:0:0:0:
36,192,17632,1,0,0:0:0:0:
475,192,17632,1,0,0:0:0:0:
402,192,17632,1,0,0:0:0:0:
182,192,17846,1,0,0:0:0:0:
36,192,18061,1,0,0:0:0:0:
329,192,18061,1,0,0:0:0:0:
475,192,18061,1,0,0:0:0:0:
402,192,18275,1,0,0:0:0:0:
256,192,18382,1,0,0:0:0:0:
109,192,18489,1,0,0:0:0:0:
36,192,18489,1,0,0:0:0:0:
475,192,18596,1,0,0:0:0:0:
329,192,18811,1,0,0:0:0:0:
182,192,18918,1,0,0:0:0:0:
109,192,18918,1,0,0:0:0:0:
402,192,19132,1,0,0:0:0:0:
256,192,19239,1,0,0:0:0:0:
182,192,19346,1,0,0:0:0:0:
36,192,19346,1,0,0:0:0:0:
475,192,19346,1,0,0:0:0:0:
182,192,19560,1,0,0:0:0:0:
329,192,19775,1,0,0:0:0:0:
475,192,19775,1,0,0:0:0:0:
36,192,19775,1,0,0:0:0:0:
402,192,19989,1,0,0:0:0:0:
256,192,20096,1,0,0:0:0:0:
109,192,20203,1,0,0:0:0:0:
36,192,20203,1,0,0:0:0:0:
475,192,20311,1,0,0:0:0:0:
329,192,20525,1,0,0:0:0:0:
182,192,20632,1,0,0:0:0:0:
109,192,20632,1,0,0:0:0:0:
402,192,20846,1,0,0:0:0:0:
256,192,20954,1,0,0:0:0:0:
182,192,21060,1,0,0:0:0:0:
402,192,21061,1,0,0:0:0:0:
475,192,21061,1,0,0:0:0:0:
36,192,21061,1,0,0:0:0:0:
182,192,21275,1,0,0:0:0:0:
329,192,21489,1,0,0:0:0:0:
36,192,21490,1,0,0:0:0:0:
475,192,21490,1,0,0:0:0:0:
402,192,21704,1,0,0:0:0:0:
256,192,21811,1,0,0:0:0:0:
36,192,21918,1,0,0:0:0:0:
109,192,21918,1,0,0:0:0:0:
475,192,22025,1,0,0:0:0:0:
329,192,22239,1,0,0:0:0:0:
109,192,22347,1,0,0:0:0:0:
182,192,22347,1,0,0:0:0:0:
475,192,22561,1,0,0:0:0:0:
329,192,22668,1,0,0:0:0:0:
36,192,22775,1,0,0:0:0:0:
182,192,22989,1,0,0:0:0:0:
329,192,23204,1,0,0:0:0:0:
475,192,23418,1,0,0:0:0:0:
36,192,23632,1,0,0:0:0:0:
182,192,23739,1,0,0:0:0:0:
109,192,23846,1,0,0:0:0:0:
256,192,23954,1,0,0:0:0:0:
182,192,24061,1,0,0:0:0:0:
329,192,24168,1,0,0:0:0:0:
256,192,24275,1,0,0:0:0:0:
329,192,24382,1,0,0:0:0:0:
256,192,24489,1,0,0:0:0:0:
182,192,24489,1,0,0:0:0:0:
402,192,24489,1,0,0:0:0:0:
36,192,24489,1,0,0:0:0:0:
475,192,24489,128,0,24596:0:0:0:0:
329,192,24704,1,0,0:0:0:0:
475,192,24704,128,0,24918:0:0:0:0:
36,192,24918,1,0,0:0:0:0:
402,192,24918,128,0,25346:0:0:0:0:
109,192,24918,1,0,0:0:0:0:
329,192,25132,1,0,0:0:0:0:
182,192,25239,1,0,0:0:0:0:
109,192,25346,1,0,0:0:0:0:
36,192,25346,1,0,0:0:0:0:
475,192,25346,128,0,25561:0:0:0:0:
329,192,25561,128,0,25668:0:0:0:0:
182,192,25561,1,0,0:0:0:0:
109,192,25668,1,0,0:0:0:0:
36,192,25775,1,0,0:0:0:0:
182,192,25775,1,0,0:0:0:0:
329,192,25775,128,0,25989:0:0:0:0:
402,192,25989,128,0,26204:0:0:0:0:
109,192,25989,1,0,0:0:0:0:
256,192,26203,1,0,0:0:0:0:
36,192,26204,1,0,0:0:0:0:
475,192,26204,128,0,26418:0:0:0:0:
182,192,26418,1,0,0:0:0:0:
402,192,26418,128,0,26632:0:0:0:0:
256,192,26525,1,0,0:0:0:0:
329,192,26632,128,0,26846:0:0:0:0:
109,192,26632,1,0,0:0:0:0:
36,192,26633,1,0,0:0:0:0:
402,192,26846,128,0,27061:0:0:0:0:
256,192,26847,1,0,0:0:0:0:
36,192,27061,1,0,0:0:0:0:
182,192,27061,1,0,0:0:0:0:
329,192,27061,128,0,27275:0:0:0:0:
256,192,27275,1,0,0:0:0:0:
475,192,27275,128,0,27489:0:0:0:0:
182,192,27382,1,0,0:0:0:0:
402,192,27489,128,0,27704:0:0:0:0:
109,192,27489,1,0,0:0:0:0:
36,192,27489,1,0,0:0:0:0:
329,192,27704,128,0,27918:0:0:0:0:
182,192,27704,1,0,0:0:0:0:
36,192,27918,1,0,0:0:0:0:
475,192,27918,1,0,0:0:0:0:
256,192,27918,1,0,0:0:0:0:
402,192,27918,1,0,0:0:0:0:
182,192,27918,128,0,28025:0:0:0:0:
329,192,28132,1,0,0:0:0:0:
182,192,28132,128,0,28346:0:0:0:0:
109,192,28239,1,0,0:0:0:0:
256,192,28346,128,0,28561:0:0:0:0:
402,192,28347,1,0,0:0:0:0:
36,192,28347,1,0,0:0:0:0:
475,192,28347,1,0,0:0:0:0:
329,192,28561,128,0,28775:0:0:0:0:
402,192,28668,1,0,0:0:0:0:
109,192,28775,1,0,0:0:0:0:
36,192,28775,1,0,0:0:0:0:
182,192,28775,128,0,28989:0:0:0:0:
475,192,28882,1,0,0:0:0:0:
256,192,28989,128,0,29096:0:0:0:0:
402,192,28989,1,0,0:0:0:0:
329,192,29096,1,0,0:0:0:0:
109,192,29204,1,0,0:0:0:0:
256,192,29204,128,0,29418:0:0:0:0:
36,192,29204,1,0,0:0:0:0:
329,192,29418,128,0,29632:0:0:0:0:
182,192,29418,1,0,0:0:0:0:
109,192,29525,1,0,0:0:0:0:
475,192,29632,1,0,0:0:0:0:
256,192,29632,1,0,0:0:0:0:
182,192,29632,128,0,29846:0:0:0:0:
36,192,29633,1,0,0:0:0:0:
402,192,29633,1,0,0:0:0:0:
329,192,29846,1,0,0:0:0:0:
256,192,29846,128,0,29954:0:0:0:0:
402,192,30061,1,0,0:0:0:0:
36,192,30061,1,0,0:0:0:0:
475,192,30061,1,0,0:0:0:0:
256,192,30061,128,0,30275:0:0:0:0:
182,192,30275,128,0,30382:0:0:0:0:
329,192,30275,1,0,0:0:0:0:
109,192,30489,1,0,0:0:0:0:
36,192,30489,1,0,0:0:0:0:
182,192,30489,128,0,30704:0:0:0:0:
402,192,30596,1,0,0:0:0:0:
256,192,30704,128,0,30918:0:0:0:0:
475,192,30704,1,0,0:0:0:0:
36,192,30811,1,0,0:0:0:0:
109,192,30918,1,0,0:0:0:0:
182,192,30918,1,0,0:0:0:0:
329,192,30918,128,0,31132:0:0:0:0:
402,192,31132,1,0,0:0:0:0:
182,192,31132,128,0,31346:0:0:0:0:
475,192,31239,1,0,0:0:0:0:
402,192,31346,1,0,0:0:0:0:
256,192,31346,1,0,0:0:0:0:
36,192,31346,128,0,31454:0:0:0:0:
182,192,31560,1,0,0:0:0:0:
36,192,31561,128,0,31775:0:0:0:0:
475,192,31775,1,0,0:0:0:0:
402,192,31775,1,0,0:0:0:0:
109,192,31775,128,0,31989:0:0:0:0:
256,192,31989,1,0,0:0:0:0:
182,192,31989,128,0,32204:0:0:0:0:
329,192,32096,1,0,0:0:0:0:
36,192,32204,128,0,32418:0:0:0:0:
475,192,32204,1,0,0:0:0:0:
402,192,32310,1,0,0:0:0:0:
109,192,32418,128,0,32525:0:0:0:0:
329,192,32418,1,0,0:0:0:0:
256,192,32525,1,0,0:0:0:0:
182,192,32632,1,0,0:0:0:0:
109,192,32632,128,0,32846:0:0:0:0:
402,192,32846,1,0,0:0:0:0:
182,192,32846,128,0,33061:0:0:0:0:
329,192,32953,1,0,0:0:0:0:
256,192,33061,1,0,0:0:0:0:
402,192,33061,1,0,0:0:0:0:
475,192,33061,1,0,0:0:0:0:
36,192,33061,128,0,33275:0:0:0:0:
182,192,33275,1,0,0:0:0:0:
109,192,33275,128,0,33489:0:0:0:0:
182,192,33489,128,0,33704:0:0:0:0:
402,192,33490,1,0,0:0:0:0:
475,192,33490,1,0,0:0:0:0:
475,192,33704,1,0,0:0:0:0:
109,192,33704,128,0,33918:0:0:0:0:
402,192,33811,1,0,0:0:0:0:
256,192,33918,1,0,0:0:0:0:
182,192,33918,128,0,34132:0:0:0:0:
475,192,33918,1,0,0:0:0:0:
329,192,34025,1,0,0:0:0:0:
109,192,34132,128,0,34346:0:0:0:0:
475,192,34239,1,0,0:0:0:0:
256,192,34346,1,0,0:0:0:0:
402,192,34346,1,0,0:0:0:0:
36,192,34346,128,0,34561:0:0:0:0:
182,192,34561,128,0,34775:0:0:0:0:
329,192,34561,1,0,0:0:0:0:
402,192,34668,1,0,0:0:0:0:
256,192,34775,1,0,0:0:0:0:
36,192,34775,128,0,34989:0:0:0:0:
475,192,34775,128,0,34989:0:0:0:0:
329,192,34775,1,0,0:0:0:0:
109,192,34989,128,0,35204:0:0:0:0:
402,192,34989,128,0,35204:0:0:0:0:
182,192,34989,1,0,0:0:0:0:
36,192,35204,128,0,35418:0:0:0:0:
475,192,35204,128,0,35418:0:0:0:0:
256,192,35204,1,0,0:0:0:0:
182,192,35418,128,0,35632:0:0:0:0:
329,192,35418,128,0,35632:0:0:0:0:
36,192,35632,128,0,35846:0:0:0:0:
475,192,35632,128,0,35846:0:0:0:0:
402,192,35632,1,0,0:0:0:0:
109,192,35846,128,0,35954:0:0:0:0:
329,192,35846,128,0,35954:0:0:0:0:
256,192,36061,1,0,0:0:0:0:
109,192,36061,128,0,36275:0:0:0:0:
402,192,36061,128,0,36275:0:0:0:0:
182,192,36275,128,0,36489:0:0:0:0:
329,192,36275,128,0,36489:0:0:0:0:
475,192,36382,1,0,0:0:0:0:
36,192,36382,1,0,0:0:0:0:
402,192,36489,1,0,0:0:0:0:
109,192,36489,1,0,0:0:0:0:
109,192,36704,1,0,0:0:0:0:
182,192,36704,1,0,0:0:0:0:
329,192,36704,1,0,0:0:0:0:
402,192,36704,1,0,0:0:0:0:
182,192,36918,1,0,0:0:0:0:
329,192,36918,1,0,0:0:0:0:
402,192,36918,1,0,0:0:0:0:
109,192,36918,1,0,0:0:0:0:
182,192,37132,1,0,0:0:0:0:
109,192,37132,1,0,0:0:0:0:
402,192,37132,1,0,0:0:0:0:
329,192,37132,1,0,0:0:0:0:
36,192,37561,1,0,0:0:0:0:
182,192,37561,1,0,0:0:0:0:
109,192,37668,1,0,0:0:0:0:
256,192,37668,1,0,0:0:0:0:
182,192,37775,1,0,0:0:0:0:
329,192,37775,1,0,0:0:0:0:
256,192,37882,1,0,0:0:0:0:
402,192,37882,1,0,0:0:0:0:
475,192,37989,1,0,0:0:0:0:
329,192,37989,1,0,0:0:0:0:
182,192,37989,1,0,0:0:0:0:
36,192,37989,1,0,0:0:0:0:
109,192,38096,1,0,0:0:0:0:
256,192,38096,1,0,0:0:0:0:
402,192,38096,1,0,0:0:0:0:
182,192,38204,1,0,0:0:0:0:
329,192,38204,1,0,0:0:0:0:
475,192,38204,1,0,0:0:0:0:
36,192,38204,128,0,38418:0:0:0:0:
182,192,38418,128,0,38632:0:0:0:0:
36,192,38632,128,0,38739:0:0:0:0:
182,192,38739,1,0,0:0:0:0:
182,192,38846,128,0,38954:0:0:0:0:
109,192,38954,128,0,39061:0:0:0:0:
36,192,39061,128,0,39168:0:0:0:0:
256,192,39168,128,0,39275:0:0:0:0:
109,192,39275,128,0,39382:0:0:0:0:
402,192,39382,1,0,0:0:0:0:
109,192,39489,1,0,0:0:0:0:
402,192,39489,1,0,0:0:0:0:
109,192,39596,1,0,0:0:0:0:
402,192,39596,1,0,0:0:0:0:
36,192,39704,1,0,0:0:0:0:
182,192,39704,1,0,0:0:0:0:
329,192,39704,1,0,0:0:0:0:
475,192,39704,1,0,0:0:0:0:
475,192,39811,1,0,0:0:0:0:
329,192,39811,1,0,0:0:0:0:
182,192,39811,1,0,0:0:0:0:
36,192,39811,1,0,0:0:0:0:
475,192,39918,128,0,40132:0:0:0:0:
36,192,39918,1,0,0:0:0:0:
329,192,40132,128,0,40346:0:0:0:0:
402,192,40346,128,0,40561:0:0:0:0:
475,192,40561,128,0,40775:0:0:0:0:
256,192,40775,128,0,40989:0:0:0:0:
402,192,40989,128,0,41096:0:0:0:0:
109,192,41096,1,0,0:0:0:0:
402,192,41203,1,0,0:0:0:0:
109,192,41203,1,0,0:0:0:0:
402,192,41310,1,0,0:0:0:0:
109,192,41310,1,0,0:0:0:0:
329,192,41418,1,0,0:0:0:0:
182,192,41418,1,0,0:0:0:0:
475,192,41418,1,0,0:0:0:0:
36,192,41418,1,0,0:0:0:0:
475,192,41525,1,0,0:0:0:0:
329,192,41525,1,0,0:0:0:0:
36,192,41525,1,0,0:0:0:0:
182,192,41525,1,0,0:0:0:0:
36,192,41632,128,0,41846:0:0:0:0:
475,192,41632,1,0,0:0:0:0:
182,192,41846,128,0,41953:0:0:0:0:
182,192,42061,128,0,42275:0:0:0:0:
109,192,42275,128,0,42489:0:0:0:0:
36,192,42489,128,0,42596:0:0:0:0:
256,192,42596,128,0,42703:0:0:0:0:
109,192,42703,128,0,42810:0:0:0:0:
402,192,42810,1,0,0:0:0:0:
402,192,42917,1,0,0:0:0:0:
109,192,42917,1,0,0:0:0:0:
402,192,43024,1,0,0:0:0:0:
109,192,43024,1,0,0:0:0:0:
36,192,43132,1,0,0:0:0:0:
475,192,43132,1,0,0:0:0:0:
182,192,43132,1,0,0:0:0:0:
329,192,43132,1,0,0:0:0:0:
475,192,43239,1,0,0:0:0:0:
329,192,43239,1,0,0:0:0:0:
36,192,43239,1,0,0:0:0:0:
182,192,43239,1,0,0:0:0:0:
109,192,43346,128,0,43561:0:0:0:0:
402,192,43346,1,0,0:0:0:0:
402,192,43561,128,0,43775:0:0:0:0:
182,192,43775,128,0,43989:0:0:0:0:
329,192,43989,128,0,44204:0:0:0:0:
256,192,44204,128,0,44418:0:0:0:0:
109,192,44418,1,0,0:0:0:0:
402,192,44418,1,0,0:0:0:0:
109,192,44525,1,0,0:0:0:0:
402,192,44525,1,0,0:0:0:0:
329,192,44632,1,0,0:0:0:0:
182,192,44632,1,0,0:0:0:0:
36,192,44632,1,0,0:0:0:0:
475,192,44632,1,0,0:0:0:0:
36,192,44739,1,0,0:0:0:0:
182,192,44739,1,0,0:0:0:0:
475,192,44739,1,0,0:0:0:0:
329,192,44739,1,0,0:0:0:0:
36,192,44846,1,0,0:0:0:0:
182,192,44846,1,0,0:0:0:0:
329,192,44846,1,0,0:0:0:0:
475,192,44846,1,0,0:0:0:0:
36,192,44954,1,0,0:0:0:0:
182,192,44954,1,0,0:0:0:0:
329,192,44954,1,0,0:0:0:0:
475,192,44954,1,0,0:0:0:0:
109,192,45061,128,0,45275:0:0:0:0:
402,192,45061,1,0,0:0:0:0:
182,192,45275,1,0,0:0:0:0:
36,192,45382,1,0,0:0:0:0:
109,192,45489,1,0,0:0:0:0:
182,192,45596,128,0,45704:0:0:0:0:
109,192,45704,128,0,45811:0:0:0:0:
36,192,45811,128,0,45918:0:0:0:0:
182,192,45918,128,0,46025:0:0:0:0:
109,192,46025,128,0,46132:0:0:0:0:
256,192,46132,1,0,0:0:0:0:
402,192,46132,1,0,0:0:0:0:
256,192,46239,1,0,0:0:0:0:
402,192,46239,1,0,0:0:0:0:
36,192,46346,1,0,0:0:0:0:
182,192,46346,1,0,0:0:0:0:
329,192,46346,1,0,0:0:0:0:
475,192,46346,1,0,0:0:0:0:
36,192,46454,1,0,0:0:0:0:
182,192,46454,1,0,0:0:0:0:
329,192,46454,1,0,0:0:0:0:
475,192,46454,1,0,0:0:0:0:
256,192,46561,1,0,0:0:0:0:
109,192,46561,1,0,0:0:0:0:
402,192,46561,1,0,0:0:0:0:
402,192,46668,1,0,0:0:0:0:
256,192,46668,1,0,0:0:0:0:
109,192,46668,1,0,0:0:0:0:
36,192,46775,128,0,46989:0:0:0:0:
475,192,46775,1,0,0:0:0:0:
475,192,46989,128,0,47204:0:0:0:0:
329,192,47204,128,0,47418:0:0:0:0:
182,192,47418,128,0,47632:0:0:0:0:
256,192,47632,128,0,47846:0:0:0:0:
109,192,47846,1,0,0:0:0:0:
109,192,47954,1,0,0:0:0:0:
36,192,48061,1,0,0:0:0:0:
182,192,48061,1,0,0:0:0:0:
329,192,48061,1,0,0:0:0:0:
475,192,48061,1,0,0:0:0:0:
36,192,48168,1,0,0:0:0:0:
182,192,48168,1,0,0:0:0:0:
329,192,48168,1,0,0:0:0:0:
475,192,48168,1,0,0:0:0:0:
475,192,48275,1,0,0:0:0:0:
329,192,48275,1,0,0:0:0:0:
182,192,48275,1,0,0:0:0:0:
36,192,48275,1,0,0:0:0:0:
475,192,48382,1,0,0:0:0:0:
329,192,48382,1,0,0:0:0:0:
182,192,48382,1,0,0:0:0:0:
36,192,48382,1,0,0:0:0:0:
36,192,48489,128,0,48704:0:0:0:0:
475,192,48489,1,0,0:0:0:0:
182,192,48704,1,0,0:0:0:0:
109,192,48811,1,0,0:0:0:0:
36,192,48918,1,0,0:0:0:0:
182,192,49025,128,0,49132:0:0:0:0:
109,192,49132,128,0,49239:0:0:0:0:
36,192,49239,128,0,49346:0:0:0:0:
256,192,49346,128,0,49561:0:0:0:0:
402,192,49561,1,0,0:0:0:0:
402,192,49668,1,0,0:0:0:0:
36,192,49775,1,0,0:0:0:0:
182,192,49775,1,0,0:0:0:0:
329,192,49775,1,0,0:0:0:0:
475,192,49775,1,0,0:0:0:0:
36,192,49882,1,0,0:0:0:0:
182,192,49882,1,0,0:0:0:0:
329,192,49882,1,0,0:0:0:0:
475,192,49882,1,0,0:0:0:0:
36,192,49989,1,0,0:0:0:0:
182,192,49989,1,0,0:0:0:0:
329,192,49989,1,0,0:0:0:0:
475,192,49989,1,0,0:0:0:0:
475,192,50096,1,0,0:0:0:0:
329,192,50096,1,0,0:0:0:0:
182,192,50096,1,0,0:0:0:0:
36,192,50096,1,0,0:0:0:0:
475,192,50204,128,0,50418:0:0:0:0:
36,192,50204,1,0,0:0:0:0:
329,192,50418,128,0,50632:0:0:0:0:
182,192,50632,128,0,50846:0:0:0:0:
36,192,50846,128,0,51061:0:0:0:0:
256,192,51061,128,0,51275:0:0:0:0:
109,192,51275,1,0,0:0:0:0:
402,192,51275,1,0,0:0:0:0:
402,192,51382,1,0,0:0:0:0:
109,192,51382,1,0,0:0:0:0:
36,192,51489,1,0,0:0:0:0:
182,192,51489,1,0,0:0:0:0:
182,192,51596,1,0,0:0:0:0:
36,192,51596,1,0,0:0:0:0:
182,192,51704,1,0,0:0:0:0:
329,192,51811,1,0,0:0:0:0:
329,192,51918,1,0,0:0:0:0:
475,192,51918,1,0,0:0:0:0:
329,192,52025,1,0,0:0:0:0:
475,192,52025,1,0,0:0:0:0:
256,192,52132,1,0,0:0:0:0:
182,192,52239,1,0,0:0:0:0:
36,192,52239,1,0,0:0:0:0:
182,192,52346,1,0,0:0:0:0:
36,192,52346,1,0,0:0:0:0:
182,192,52454,1,0,0:0:0:0:
36,192,52454,1,0,0:0:0:0:
256,192,52561,1,0,0:0:0:0:
329,192,52668,1,0,0:0:0:0:
475,192,52668,1,0,0:0:0:0:
182,192,52775,1,0,0:0:0:0:
329,192,52829,1,0,0:0:0:0:
182,192,52882,1,0,0:0:0:0:
329,192,52936,1,0,0:0:0:0:
182,192,52989,1,0,0:0:0:0:
329,192,53043,1,0,0:0:0:0:
182,192,53096,1,0,0:0:0:0:
329,192,53150,1,0,0:0:0:0:
109,192,53204,1,0,0:0:0:0:
402,192,53257,1,0,0:0:0:0:
109,192,53311,1,0,0:0:0:0:
402,192,53364,1,0,0:0:0:0:
109,192,53418,1,0,0:0:0:0:
402,192,53471,1,0,0:0:0:0:
109,192,53525,1,0,0:0:0:0:
402,192,53579,1,0,0:0:0:0:
182,192,53632,1,0,0:0:0:0:
329,192,53632,1,0,0:0:0:0:
475,192,53632,1,0,0:0:0:0:
36,192,53846,1,0,0:0:0:0:
256,192,53846,1,0,0:0:0:0:
182,192,54061,128,0,54275:0:0:0:0:
402,192,54061,1,0,0:0:0:0:
329,192,54061,1,0,0:0:0:0:
109,192,54275,1,0,0:0:0:0:
475,192,54275,1,0,0:0:0:0:
36,192,54382,128,0,54596:0:0:0:0:
256,192,54489,1,0,0:0:0:0:
402,192,54489,1,0,0:0:0:0:
182,192,54704,128,0,54918:0:0:0:0:
475,192,54704,1,0,0:0:0:0:
109,192,54918,128,0,55132:0:0:0:0:
402,192,54918,1,0,0:0:0:0:
329,192,54918,1,0,0:0:0:0:
182,192,55132,128,0,55346:0:0:0:0:
402,192,55132,1,0,0:0:0:0:
256,192,55239,1,0,0:0:0:0:
329,192,55346,1,0,0:0:0:0:
475,192,55346,1,0,0:0:0:0:
36,192,55561,128,0,55775:0:0:0:0:
256,192,55561,1,0,0:0:0:0:
182,192,55775,128,0,55989:0:0:0:0:
402,192,55775,1,0,0:0:0:0:
329,192,55775,1,0,0:0:0:0:
109,192,55989,1,0,0:0:0:0:
475,192,55989,1,0,0:0:0:0:
36,192,56096,128,0,56418:0:0:0:0:
256,192,56204,1,0,0:0:0:0:
402,192,56204,1,0,0:0:0:0:
182,192,56418,128,0,56632:0:0:0:0:
475,192,56418,1,0,0:0:0:0:
36,192,56632,1,0,0:0:0:0:
402,192,56632,1,0,0:0:0:0:
329,192,56632,1,0,0:0:0:0:
36,192,56846,128,0,57061:0:0:0:0:
329,192,56846,1,0,0:0:0:0:
475,192,56954,1,0,0:0:0:0:
402,192,57061,1,0,0:0:0:0:
256,192,57061,1,0,0:0:0:0:
36,192,57275,128,0,57489:0:0:0:0:
329,192,57275,1,0,0:0:0:0:
182,192,57489,128,0,57703:0:0:0:0:
475,192,57489,1,0,0:0:0:0:
402,192,57489,1,0,0:0:0:0:
109,192,57703,1,0,0:0:0:0:
329,192,57704,1,0,0:0:0:0:
36,192,57810,128,0,58132:0:0:0:0:
256,192,57918,1,0,0:0:0:0:
475,192,57918,1,0,0:0:0:0:
182,192,58132,128,0,58346:0:0:0:0:
402,192,58132,1,0,0:0:0:0:
329,192,58239,1,0,0:0:0:0:
36,192,58346,1,0,0:0:0:0:
256,192,58346,1,0,0:0:0:0:
475,192,58346,1,0,0:0:0:0:
36,192,58560,128,0,58775:0:0:0:0:
402,192,58561,1,0,0:0:0:0:
329,192,58668,1,0,0:0:0:0:
256,192,58775,1,0,0:0:0:0:
475,192,58775,1,0,0:0:0:0:
182,192,58775,1,0,0:0:0:0:
36,192,58989,128,0,59203:0:0:0:0:
402,192,58989,1,0,0:0:0:0:
182,192,59203,128,0,59417:0:0:0:0:
329,192,59204,1,0,0:0:0:0:
475,192,59204,1,0,0:0:0:0:
109,192,59417,1,0,0:0:0:0:
256,192,59418,1,0,0:0:0:0:
36,192,59525,128,0,59739:0:0:0:0:
402,192,59632,1,0,0:0:0:0:
475,192,59632,1,0,0:0:0:0:
182,192,59739,128,0,59954:0:0:0:0:
329,192,59846,1,0,0:0:0:0:
329,192,60061,128,0,60489:0:0:0:0:
182,192,60061,1,0,0:0:0:0:
36,192,60061,1,0,0:0:0:0:
475,192,60275,128,0,60489:0:0:0:0:
109,192,60275,1,0,0:0:0:0:
182,192,60382,1,0,0:0:0:0:
36,192,60489,1,0,0:0:0:0:
36,192,60704,1,0,0:0:0:0:
329,192,60704,1,0,0:0:0:0:
475,192,60918,1,0,0:0:0:0:
256,192,60918,1,0,0:0:0:0:
109,192,61132,1,0,0:0:0:0:
256,192,61346,1,0,0:0:0:0:
402,192,61561,1,0,0:0:0:0:
182,192,61775,1,0,0:0:0:0:
329,192,61989,1,0,0:0:0:0:
475,192,62204,1,0,0:0:0:0:
256,192,62204,128,0,62418:0:0:0:0:
182,192,62311,128,0,62525:0:0:0:0:
402,192,62418,1,0,0:0:0:0:
109,192,62418,128,0,62632:0:0:0:0:
36,192,62525,128,0,62739:0:0:0:0:
256,192,62632,128,0,62846:0:0:0:0:
475,192,62632,128,0,62846:0:0:0:0:
329,192,62846,128,0,63061:0:0:0:0:
256,192,62954,128,0,63168:0:0:0:0:
475,192,63061,1,0,0:0:0:0:
36,192,63061,1,0,0:0:0:0:
182,192,63061,128,0,63275:0:0:0:0:
109,192,63168,128,0,63382:0:0:0:0:
402,192,63275,128,0,63489:0:0:0:0:
329,192,63382,128,0,63596:0:0:0:0:
475,192,63489,1,0,0:0:0:0:
36,192,63489,128,0,63704:0:0:0:0:
256,192,63489,1,0,0:0:0:0:
182,192,63596,128,0,63811:0:0:0:0:
329,192,63704,128,0,63918:0:0:0:0:
475,192,63811,128,0,64025:0:0:0:0:
256,192,63918,1,0,0:0:0:0:
402,192,63918,1,0,0:0:0:0:
109,192,63918,128,0,64132:0:0:0:0:
182,192,64025,128,0,64239:0:0:0:0:
475,192,64132,128,0,64346:0:0:0:0:
402,192,64239,128,0,64454:0:0:0:0:
36,192,64346,1,0,0:0:0:0:
182,192,64346,128,0,64561:0:0:0:0:
256,192,64454,128,0,64668:0:0:0:0:
475,192,64561,1,0,0:0:0:0:
329,192,64561,128,0,64775:0:0:0:0:
402,192,64668,128,0,64882:0:0:0:0:
182,192,64775,1,0,0:0:0:0:
36,192,64775,1,0,0:0:0:0:
256,192,64882,128,0,65096:0:0:0:0:
182,192,64989,128,0,65204:0:0:0:0:
109,192,65096,128,0,65311:0:0:0:0:
36,192,65204,1,0,0:0:0:0:
329,192,65204,128,0,65418:0:0:0:0:
402,192,65311,128,0,65525:0:0:0:0:
256,192,65418,128,0,65632:0:0:0:0:
109,192,65525,128,0,65739:0:0:0:0:
475,192,65632,1,0,0:0:0:0:
36,192,65632,128,0,65846:0:0:0:0:
329,192,65739,128,0,65954:0:0:0:0:
109,192,65846,1,0,0:0:0:0:
475,192,65846,128,0,66061:0:0:0:0:
182,192,65954,128,0,66168:0:0:0:0:
36,192,66061,128,0,66275:0:0:0:0:
402,192,66061,1,0,0:0:0:0:
329,192,66168,128,0,66382:0:0:0:0:
475,192,66275,128,0,66489:0:0:0:0:
109,192,66275,1,0,0:0:0:0:
182,192,66382,128,0,66596:0:0:0:0:
36,192,66489,128,0,66704:0:0:0:0:
402,192,66489,1,0,0:0:0:0:
329,192,66596,128,0,66811:0:0:0:0:
109,192,66704,1,0,0:0:0:0:
475,192,66704,128,0,66918:0:0:0:0:
182,192,66811,128,0,66918:0:0:0:0:
36,192,66918,1,0,0:0:0:0:
329,192,66918,1,0,0:0:0:0:
109,192,66945,1,0,0:0:0:0:
182,192,66971,1,0,0:0:0:0:
402,192,66998,1,0,0:0:0:0:
329,192,67025,1,0,0:0:0:0:
256,192,67052,1,0,0:0:0:0:
109,192,67079,1,0,0:0:0:0:
182,192,67105,1,0,0:0:0:0:
256,192,67132,1,0,0:0:0:0:
475,192,67159,1,0,0:0:0:0:
402,192,67186,1,0,0:0:0:0:
329,192,67212,1,0,0:0:0:0:
182,192,67239,1,0,0:0:0:0:
256,192,67266,1,0,0:0:0:0:
329,192,67293,1,0,0:0:0:0:
182,192,67320,1,0,0:0:0:0:
36,192,67346,1,0,0:0:0:0:
475,192,67346,128,0,68739:0:0:0:0:
182,192,68418,1,0,0:0:0:0:
109,192,68471,1,0,0:0:0:0:
36,192,68525,1,0,0:0:0:0:
182,192,68579,1,0,0:0:0:0:
256,192,68632,1,0,0:0:0:0:
329,192,68686,1,0,0:0:0:0:
402,192,68793,1,0,0:0:0:0:
329,192,68846,1,0,0:0:0:0:
256,192,68900,1,0,0:0:0:0:
182,192,68954,1,0,0:0:0:0:
109,192,69007,1,0,0:0:0:0:
36,192,69061,128,0,70454:0:0:0:0:
109,192,70507,1,0,0:0:0:0:
182,192,70561,1,0,0:0:0:0:
256,192,70614,1,0,0:0:0:0:
329,192,70668,1,0,0:0:0:0:
402,192,70721,1,0,0:0:0:0:
475,192,70775,128,0,72489:0:0:0:0:
36,192,72489,128,0,72704:0:0:0:0:
329,192,72489,1,0,0:0:0:0:
182,192,72704,128,0,72918:0:0:0:0:
475,192,72704,1,0,0:0:0:0:
329,192,72811,1,0,0:0:0:0:
402,192,72918,128,0,73025:0:0:0:0:
36,192,72918,1,0,0:0:0:0:
329,192,73025,128,0,73132:0:0:0:0:
475,192,73132,128,0,73239:0:0:0:0:
109,192,73132,1,0,0:0:0:0:
402,192,73239,128,0,73346:0:0:0:0:
182,192,73346,1,0,0:0:0:0:
109,192,73454,1,0,0:0:0:0:
256,192,73561,1,0,0:0:0:0:
182,192,73668,1,0,0:0:0:0:
329,192,73775,1,0,0:0:0:0:
256,192,73882,1,0,0:0:0:0:
402,192,73989,1,0,0:0:0:0:
109,192,73989,1,0,0:0:0:0:
329,192,74096,1,0,0:0:0:0:
182,192,74096,1,0,0:0:0:0:
36,192,74204,1,0,0:0:0:0:
475,192,74204,128,0,75489:0:0:0:0:
402,192,75543,1,0,0:0:0:0:
329,192,75596,1,0,0:0:0:0:
256,192,75650,1,0,0:0:0:0:
182,192,75704,1,0,0:0:0:0:
256,192,75757,1,0,0:0:0:0:
182,192,75811,1,0,0:0:0:0:
109,192,75864,1,0,0:0:0:0:
36,192,75918,128,0,77204:0:0:0:0:
256,192,77257,1,0,0:0:0:0:
329,192,77311,1,0,0:0:0:0:
402,192,77364,1,0,0:0:0:0:
475,192,77418,1,0,0:0:0:0:
182,192,77471,1,0,0:0:0:0:
256,192,77525,1,0,0:0:0:0:
329,192,77579,1,0,0:0:0:0:
402,192,77632,1,0,0:0:0:0:
475,192,77686,1,0,0:0:0:0:
109,192,77739,1,0,0:0:0:0:
182,192,77793,1,0,0:0:0:0:
256,192,77846,1,0,0:0:0:0:
329,192,77900,1,0,0:0:0:0:
402,192,77954,1,0,0:0:0:0:
475,192,78007,1,0,0:0:0:0:
36,192,78061,1,0,0:0:0:0:
109,192,78114,1,0,0:0:0:0:
182,192,78168,1,0,0:0:0:0:
256,192,78221,1,0,0:0:0:0:
329,192,78275,1,0,0:0:0:0:
402,192,78329,1,0,0:0:0:0:
329,192,78382,1,0,0:0:0:0:
402,192,78436,1,0,0:0:0:0:
475,192,78489,128,0,80204:0:0:0:0:
36,192,80204,128,0,81275:0:0:0:0:
182,192,81061,1,0,0:0:0:0:
329,192,81061,1,0,0:0:0:0:
182,192,81275,1,0,0:0:0:0:
329,192,81275,1,0,0:0:0:0:
182,192,81382,1,0,0:0:0:0:
329,192,81382,1,0,0:0:0:0:
109,192,81489,1,0,0:0:0:0:
402,192,81489,1,0,0:0:0:0:
36,192,81596,1,0,0:0:0:0:
475,192,81596,1,0,0:0:0:0:
109,192,81704,1,0,0:0:0:0:
402,192,81704,1,0,0:0:0:0:
36,192,81811,1,0,0:0:0:0:
475,192,81811,1,0,0:0:0:0:
182,192,81918,1,0,0:0:0:0:
329,192,81918,1,0,0:0:0:0:
109,192,82025,1,0,0:0:0:0:
402,192,82025,1,0,0:0:0:0:
182,192,82186,1,0,0:0:0:0:
329,192,82186,1,0,0:0:0:0:
109,192,82239,1,0,0:0:0:0:
402,192,82239,1,0,0:0:0:0:
182,192,82293,1,0,0:0:0:0:
329,192,82293,1,0,0:0:0:0:
36,192,82346,1,0,0:0:0:0:
475,192,82346,1,0,0:0:0:0:
182,192,82560,1,0,0:0:0:0:
36,192,82775,1,0,0:0:0:0:
329,192,82775,1,0,0:0:0:0:
475,192,82775,1,0,0:0:0:0:
402,192,82989,1,0,0:0:0:0:
109,192,83096,1,0,0:0:0:0:
182,192,83204,1,0,0:0:0:0:
329,192,83204,1,0,0:0:0:0:
402,192,83311,1,0,0:0:0:0:
109,192,83418,1,0,0:0:0:0:
182,192,83525,1,0,0:0:0:0:
402,192,83632,1,0,0:0:0:0:
109,192,83632,1,0,0:0:0:0:
329,192,83739,1,0,0:0:0:0:
109,192,83846,1,0,0:0:0:0:
182,192,83954,1,0,0:0:0:0:
109,192,84061,1,0,0:0:0:0:
402,192,84061,1,0,0:0:0:0:
329,192,84168,1,0,0:0:0:0:
182,192,84275,1,0,0:0:0:0:
36,192,84489,1,0,0:0:0:0:
256,192,84489,1,0,0:0:0:0:
475,192,84489,1,0,0:0:0:0:
402,192,84704,1,0,0:0:0:0:
475,192,84811,1,0,0:0:0:0:
329,192,84918,1,0,0:0:0:0:
109,192,84918,1,0,0:0:0:0:
36,192,85025,1,0,0:0:0:0:
182,192,85132,1,0,0:0:0:0:
329,192,85239,1,0,0:0:0:0:
475,192,85346,1,0,0:0:0:0:
182,192,85346,1,0,0:0:0:0:
402,192,85561,1,0,0:0:0:0:
256,192,85668,1,0,0:0:0:0:
109,192,85775,1,0,0:0:0:0:
402,192,85775,1,0,0:0:0:0:
329,192,85989,1,0,0:0:0:0:
36,192,86204,1,0,0:0:0:0:
475,192,86204,1,0,0:0:0:0:
182,192,86204,1,0,0:0:0:0:
475,192,86418,1,0,0:0:0:0:
329,192,86525,1,0,0:0:0:0:
182,192,86632,1,0,0:0:0:0:
475,192,86632,1,0,0:0:0:0:
36,192,86739,1,0,0:0:0:0:
182,192,86846,1,0,0:0:0:0:
36,192,86954,1,0,0:0:0:0:
182,192,87061,1,0,0:0:0:0:
329,192,87061,1,0,0:0:0:0:
475,192,87275,1,0,0:0:0:0:
329,192,87382,1,0,0:0:0:0:
475,192,87489,1,0,0:0:0:0:
36,192,87489,1,0,0:0:0:0:
182,192,87596,1,0,0:0:0:0:
36,192,87704,1,0,0:0:0:0:
256,192,87811,1,0,0:0:0:0:
402,192,87918,1,0,0:0:0:0:
182,192,87918,128,0,88132:0:0:0:0:
475,192,88132,1,0,0:0:0:0:
402,192,88239,1,0,0:0:0:0:
36,192,88239,128,0,88346:0:0:0:0:
475,192,88346,1,0,0:0:0:0:
109,192,88454,128,0,88668:0:0:0:0:
329,192,88454,1,0,0:0:0:0:
402,192,88668,1,0,0:0:0:0:
182,192,88775,128,0,88989:0:0:0:0:
475,192,88775,1,0,0:0:0:0:
329,192,88882,1,0,0:0:0:0:
109,192,88989,128,0,89204:0:0:0:0:
402,192,88989,1,0,0:0:0:0:
475,192,89204,1,0,0:0:0:0:
402,192,89418,1,0,0:0:0:0:
329,192,89632,1,0,0:0:0:0:
36,192,89632,128,0,90168:0:0:0:0:
182,192,89846,128,0,90168:0:0:0:0:
256,192,89954,128,0,90168:0:0:0:0:
402,192,90168,128,0,90489:0:0:0:0:
256,192,90382,128,0,90704:0:0:0:0:
36,192,90596,128,0,90918:0:0:0:0:
182,192,90704,128,0,90918:0:0:0:0:
402,192,90918,128,0,91132:0:0:0:0:
329,192,91025,128,0,91239:0:0:0:0:
256,192,91132,128,0,91346:0:0:0:0:
182,192,91239,128,0,91454:0:0:0:0:
475,192,91346,128,0,91561:0:0:0:0:
329,192,91561,128,0,91775:0:0:0:0:
402,192,91668,128,0,91882:0:0:0:0:
256,192,91775,128,0,91989:0:0:0:0:
329,192,91882,128,0,92096:0:0:0:0:
402,192,91989,128,0,92204:0:0:0:0:
256,192,92096,128,0,92311:0:0:0:0:
329,192,92204,128,0,92418:0:0:0:0:
182,192,92311,128,0,92525:0:0:0:0:
36,192,92418,128,0,92632:0:0:0:0:
109,192,92525,128,0,92739:0:0:0:0:
256,192,92632,128,0,92846:0:0:0:0:
402,192,92739,128,0,93061:0:0:0:0:
109,192,92954,128,0,93061:0:0:0:0:
182,192,93061,128,0,93275:0:0:0:0:
36,192,93168,128,0,93382:0:0:0:0:
329,192,93275,128,0,93489:0:0:0:0:
475,192,93382,128,0,93596:0:0:0:0:
109,192,93596,128,0,93811:0:0:0:0:
182,192,93704,128,0,93918:0:0:0:0:
256,192,93811,128,0,94025:0:0:0:0:
475,192,93918,128,0,94132:0:0:0:0:
109,192,94025,128,0,94239:0:0:0:0:
402,192,94132,128,0,94346:0:0:0:0:
36,192,94239,128,0,94454:0:0:0:0:
329,192,94346,128,0,94561:0:0:0:0:
182,192,94454,128,0,94775:0:0:0:0:
36,192,94561,128,0,94775:0:0:0:0:
329,192,94668,128,0,94775:0:0:0:0:
402,192,94775,128,0,94989:0:0:0:0:
109,192,94882,128,0,95096:0:0:0:0:
475,192,94989,128,0,95204:0:0:0:0:
36,192,95096,128,0,95311:0:0:0:0:
402,192,95204,128,0,95418:0:0:0:0:
109,192,95311,128,0,95525:0:0:0:0:
475,192,95418,128,0,95632:0:0:0:0:
182,192,95525,128,0,95739:0:0:0:0:
402,192,95632,128,0,95846:0:0:0:0:
36,192,95739,128,0,95954:0:0:0:0:
182,192,95846,128,0,96061:0:0:0:0:
329,192,95954,128,0,96168:0:0:0:0:
475,192,96087,128,0,96275:0:0:0:0:
109,192,96168,128,0,96275:0:0:0:0:
36,192,96275,128,0,96489:0:0:0:0:
402,192,96382,128,0,96489:0:0:0:0:
109,192,96489,128,0,96704:0:0:0:0:
475,192,96489,128,0,96704:0:0:0:0:
36,192,96596,128,0,96811:0:0:0:0:
182,192,96704,128,0,96918:0:0:0:0:
329,192,96704,128,0,96811:0:0:0:0:
109,192,96811,128,0,97025:0:0:0:0:
402,192,96811,128,0,96918:0:0:0:0:
475,192,96918,128,0,97025:0:0:0:0:
36,192,97025,128,0,97239:0:0:0:0:
256,192,97132,128,0,97346:0:0:0:0:
402,192,97132,128,0,97346:0:0:0:0:
475,192,97239,128,0,97454:0:0:0:0:
109,192,97346,128,0,97454:0:0:0:0:
36,192,97454,128,0,97668:0:0:0:0:
182,192,97454,128,0,97668:0:0:0:0:
402,192,97561,128,0,97668:0:0:0:0:
256,192,97775,128,0,97989:0:0:0:0:
475,192,97775,128,0,97989:0:0:0:0:
109,192,97882,128,0,98123:0:0:0:0:
182,192,97989,128,0,98204:0:0:0:0:
402,192,97989,128,0,98204:0:0:0:0:
256,192,98204,128,0,98418:0:0:0:0:
475,192,98204,128,0,98418:0:0:0:0:
109,192,98311,128,0,98552:0:0:0:0:
182,192,98418,128,0,98633:0:0:0:0:
256,192,98525,128,0,98739:0:0:0:0:
329,192,98632,128,0,98846:0:0:0:0:
475,192,98632,128,0,98846:0:0:0:0:
182,192,98739,128,0,98954:0:0:0:0:
402,192,98846,128,0,99061:0:0:0:0:
36,192,98846,128,0,99061:0:0:0:0:
109,192,98954,128,0,99061:0:0:0:0:
256,192,99061,128,0,99275:0:0:0:0:
36,192,99275,128,0,99596:0:0:0:0:
475,192,99275,128,0,99596:0:0:0:0:
182,192,99382,128,0,99596:0:0:0:0:
329,192,99489,128,0,99596:0:0:0:0:
109,192,99489,128,0,99704:0:0:0:0:
475,192,99704,128,0,99918:0:0:0:0:
36,192,99704,128,0,99918:0:0:0:0:
182,192,99811,128,0,99918:0:0:0:0:
256,192,99918,128,0,100132:0:0:0:0:
402,192,100132,128,0,100346:0:0:0:0:
36,192,100132,128,0,100346:0:0:0:0:
475,192,100239,128,0,100480:0:0:0:0:
182,192,100239,128,0,100346:0:0:0:0:
329,192,100346,128,0,100561:0:0:0:0:
402,192,100454,128,0,100668:0:0:0:0:
475,192,100561,128,0,100775:0:0:0:0:
182,192,100668,128,0,100882:0:0:0:0:
109,192,100775,128,0,100989:0:0:0:0:
402,192,100775,128,0,100989:0:0:0:0:
256,192,100882,128,0,101096:0:0:0:0:
182,192,100989,128,0,101204:0:0:0:0:
475,192,100989,128,0,101204:0:0:0:0:
329,192,101096,128,0,101311:0:0:0:0:
109,192,101204,128,0,101311:0:0:0:0:
256,192,101311,128,0,101525:0:0:0:0:
182,192,101418,128,0,101632:0:0:0:0:
329,192,101525,128,0,101632:0:0:0:0:
36,192,101632,128,0,101846:0:0:0:0:
475,192,101632,128,0,101846:0:0:0:0:
182,192,101739,128,0,101846:0:0:0:0:
402,192,101739,128,0,101954:0:0:0:0:
109,192,101846,128,0,102061:0:0:0:0:
329,192,101846,128,0,102061:0:0:0:0:
182,192,101954,128,0,102168:0:0:0:0:
475,192,101954,128,0,102168:0:0:0:0:
36,192,102061,128,0,102275:0:0:0:0:
256,192,102061,128,0,102275:0:0:0:0:
109,192,102168,128,0,102382:0:0:0:0:
402,192,102168,128,0,102382:0:0:0:0:
475,192,102275,128,0,102382:0:0:0:0:
182,192,102382,128,0,102596:0:0:0:0:
329,192,102489,128,0,102596:0:0:0:0:
36,192,102489,128,0,102704:0:0:0:0:
402,192,102596,128,0,102811:0:0:0:0:
475,192,102704,128,0,102918:0:0:0:0:
182,192,102704,128,0,102918:0:0:0:0:
329,192,102811,128,0,102918:0:0:0:0:
109,192,102918,128,0,103132:0:0:0:0:
402,192,103132,128,0,103346:0:0:0:0:
36,192,103346,128,0,103560:0:0:0:0:
475,192,103346,128,0,103561:0:0:0:0:
182,192,103453,128,0,103560:0:0:0:0:
109,192,103560,128,0,103775:0:0:0:0:
329,192,103561,128,0,103882:0:0:0:0:
182,192,103668,128,0,103882:0:0:0:0:
475,192,103668,128,0,103882:0:0:0:0:
36,192,103775,128,0,103989:0:0:0:0:
109,192,103882,128,0,104096:0:0:0:0:
402,192,103882,128,0,104096:0:0:0:0:
182,192,104096,128,0,104310:0:0:0:0:
36,192,104096,128,0,104311:0:0:0:0:
329,192,104203,128,0,104310:0:0:0:0:
402,192,104310,128,0,104525:0:0:0:0:
109,192,104311,128,0,104632:0:0:0:0:
475,192,104418,128,0,104632:0:0:0:0:
256,192,104418,128,0,104632:0:0:0:0:
329,192,104525,128,0,104632:0:0:0:0:
402,192,104632,128,0,104846:0:0:0:0:
329,192,104739,128,0,104954:0:0:0:0:
475,192,104846,128,0,105061:0:0:0:0:
402,192,104954,128,0,105061:0:0:0:0:
36,192,105061,128,0,105275:0:0:0:0:
329,192,105061,128,0,105275:0:0:0:0:
182,192,105168,128,0,105275:0:0:0:0:
109,192,105275,128,0,105490:0:0:0:0:
475,192,105275,128,0,105489:0:0:0:0:
329,192,105382,128,0,105489:0:0:0:0:
182,192,105383,128,0,105597:0:0:0:0:
402,192,105489,128,0,105704:0:0:0:0:
36,192,105490,128,0,105704:0:0:0:0:
475,192,105596,128,0,105704:0:0:0:0:
109,192,105597,128,0,105811:0:0:0:0:
329,192,105704,128,0,105918:0:0:0:0:
182,192,105811,128,0,106025:0:0:0:0:
475,192,105811,128,0,105918:0:0:0:0:
256,192,105918,128,0,106132:0:0:0:0:
402,192,106025,128,0,106240:0:0:0:0:
109,192,106025,128,0,106132:0:0:0:0:
182,192,106132,128,0,106346:0:0:0:0:
475,192,106133,128,0,106347:0:0:0:0:
36,192,106239,128,0,106346:0:0:0:0:
329,192,106240,128,0,106347:0:0:0:0:
256,192,106346,128,0,106561:0:0:0:0:
109,192,106454,128,0,106561:0:0:0:0:
475,192,106561,128,0,106775:0:0:0:0:
329,192,106668,128,0,106775:0:0:0:0:
36,192,106775,128,0,106989:0:0:0:0:
256,192,106775,128,0,106989:0:0:0:0:
182,192,106882,128,0,106989:0:0:0:0:
402,192,106882,128,0,106989:0:0:0:0:
109,192,106989,128,0,107204:0:0:0:0:
329,192,106989,128,0,107204:0:0:0:0:
475,192,107096,128,0,107204:0:0:0:0:
182,192,107097,128,0,107311:0:0:0:0:
36,192,107204,128,0,107418:0:0:0:0:
109,192,107311,128,0,107525:0:0:0:0:
475,192,107311,128,0,107418:0:0:0:0:
402,192,107418,128,0,107525:0:0:0:0:
182,192,107525,128,0,107739:0:0:0:0:
329,192,107525,128,0,107632:0:0:0:0:
256,192,107632,128,0,107739:0:0:0:0:
402,192,107739,128,0,107954:0:0:0:0:
36,192,107846,128,0,108061:0:0:0:0:
475,192,107847,128,0,108061:0:0:0:0:
329,192,107954,128,0,108061:0:0:0:0:
256,192,108061,128,0,108275:0:0:0:0:
109,192,108168,128,0,108275:0:0:0:0:
402,192,108275,128,0,108489:0:0:0:0:
256,192,108382,128,0,108489:0:0:0:0:
36,192,108489,128,0,108703:0:0:0:0:
329,192,108489,128,0,108704:0:0:0:0:
182,192,108596,128,0,108703:0:0:0:0:
475,192,108596,128,0,108811:0:0:0:0:
109,192,108703,128,0,108918:0:0:0:0:
402,192,108704,128,0,108918:0:0:0:0:
182,192,108811,128,0,109025:0:0:0:0:
36,192,108918,128,0,109132:0:0:0:0:
256,192,108918,128,0,109132:0:0:0:0:
109,192,109025,128,0,109239:0:0:0:0:
402,192,109025,128,0,109239:0:0:0:0:
329,192,109132,128,0,109346:0:0:0:0:
182,192,109239,128,0,109453:0:0:0:0:
475,192,109239,128,0,109454:0:0:0:0:
402,192,109346,128,0,109561:0:0:0:0:
109,192,109346,128,0,109561:0:0:0:0:
329,192,109454,128,0,109668:0:0:0:0:
36,192,109454,128,0,109668:0:0:0:0:
256,192,109561,128,0,109775:0:0:0:0:
475,192,109561,128,0,109775:0:0:0:0:
109,192,109668,128,0,109775:0:0:0:0:
109,192,109989,1,0,0:0:0:0:
402,192,110096,1,0,0:0:0:0:
109,192,110204,1,0,0:0:0:0:
402,192,110311,1,0,0:0:0:0:
36,192,110418,1,0,0:0:0:0:
475,192,110418,1,0,0:0:0:0:
182,192,110418,1,0,0:0:0:0:
329,192,110418,1,0,0:0:0:0:
36,192,110525,1,0,0:0:0:0:
475,192,110525,1,0,0:0:0:0:
182,192,110525,1,0,0:0:0:0:
329,192,110525,1,0,0:0:0:0:
329,192,110632,1,0,0:0:0:0:
36,192,110632,128,0,110846:0:0:0:0:
182,192,110846,128,0,111061:0:0:0:0:
475,192,110846,1,0,0:0:0:0:
329,192,111061,1,0,0:0:0:0:
36,192,111061,1,0,0:0:0:0:
36,192,111168,128,0,111489:0:0:0:0:
329,192,111168,1,0,0:0:0:0:
182,192,111275,128,0,111489:0:0:0:0:
475,192,111275,1,0,0:0:0:0:
329,192,111382,128,0,111489:0:0:0:0:
475,192,111489,1,0,0:0:0:0:
36,192,111704,1,0,0:0:0:0:
475,192,111811,1,0,0:0:0:0:
36,192,111918,1,0,0:0:0:0:
475,192,112025,1,0,0:0:0:0:
109,192,112132,1,0,0:0:0:0:
256,192,112132,1,0,0:0:0:0:
402,192,112132,1,0,0:0:0:0:
402,192,112239,1,0,0:0:0:0:
256,192,112239,1,0,0:0:0:0:
109,192,112239,1,0,0:0:0:0:
109,192,112346,1,0,0:0:0:0:
256,192,112346,1,0,0:0:0:0:
402,192,112346,128,0,112775:0:0:0:0:
329,192,112561,128,0,112775:0:0:0:0:
182,192,112561,1,0,0:0:0:0:
256,192,112775,128,0,113204:0:0:0:0:
109,192,112775,1,0,0:0:0:0:
182,192,112989,128,0,113204:0:0:0:0:
36,192,112989,1,0,0:0:0:0:
36,192,113204,1,0,0:0:0:0:
109,192,113418,1,0,0:0:0:0:
402,192,113525,1,0,0:0:0:0:
109,192,113632,1,0,0:0:0:0:
402,192,113739,1,0,0:0:0:0:
182,192,113846,1,0,0:0:0:0:
36,192,113846,1,0,0:0:0:0:
329,192,113846,1,0,0:0:0:0:
475,192,113846,1,0,0:0:0:0:
182,192,113954,1,0,0:0:0:0:
36,192,113954,1,0,0:0:0:0:
329,192,113954,1,0,0:0:0:0:
475,192,113954,1,0,0:0:0:0:
36,192,114061,128,0,114275:0:0:0:0:
402,192,114061,128,0,114275:0:0:0:0:
109,192,114275,128,0,114382:0:0:0:0:
475,192,114275,128,0,114382:0:0:0:0:
109,192,114489,128,0,114704:0:0:0:0:
475,192,114489,128,0,114704:0:0:0:0:
402,192,114704,128,0,114811:0:0:0:0:
36,192,114704,128,0,114811:0:0:0:0:
36,192,114918,1,0,0:0:0:0:
402,192,114918,1,0,0:0:0:0:
182,192,115132,1,0,0:0:0:0:
36,192,115132,1,0,0:0:0:0:
36,192,115239,1,0,0:0:0:0:
182,192,115239,1,0,0:0:0:0:
182,192,115346,1,0,0:0:0:0:
329,192,115346,1,0,0:0:0:0:
182,192,115454,1,0,0:0:0:0:
329,192,115454,1,0,0:0:0:0:
329,192,115561,1,0,0:0:0:0:
475,192,115561,1,0,0:0:0:0:
475,192,115668,1,0,0:0:0:0:
329,192,115668,1,0,0:0:0:0:
36,192,115775,128,0,116204:0:0:0:0:
256,192,115775,1,0,0:0:0:0:
109,192,115775,1,0,0:0:0:0:
182,192,115989,128,0,116204:0:0:0:0:
329,192,115989,1,0,0:0:0:0:
329,192,116204,128,0,116632:0:0:0:0:
475,192,116204,1,0,0:0:0:0:
475,192,116418,128,0,116632:0:0:0:0:
182,192,116418,1,0,0:0:0:0:
256,192,116632,128,0,116846:0:0:0:0:
36,192,116632,1,0,0:0:0:0:
109,192,116846,1,0,0:0:0:0:
36,192,116954,1,0,0:0:0:0:
182,192,117061,1,0,0:0:0:0:
475,192,117061,1,0,0:0:0:0:
329,192,117061,1,0,0:0:0:0:
109,192,117168,1,0,0:0:0:0:
402,192,117168,1,0,0:0:0:0:
256,192,117168,1,0,0:0:0:0:
475,192,117275,1,0,0:0:0:0:
182,192,117275,1,0,0:0:0:0:
36,192,117275,1,0,0:0:0:0:
402,192,117382,1,0,0:0:0:0:
109,192,117382,1,0,0:0:0:0:
256,192,117382,1,0,0:0:0:0:
475,192,117489,128,0,117918:0:0:0:0:
36,192,117489,1,0,0:0:0:0:
182,192,117489,1,0,0:0:0:0:
329,192,117704,128,0,117918:0:0:0:0:
36,192,117704,1,0,0:0:0:0:
182,192,117704,1,0,0:0:0:0:
109,192,117811,1,0,0:0:0:0:
256,192,117811,1,0,0:0:0:0:
182,192,117918,1,0,0:0:0:0:
36,192,117918,1,0,0:0:0:0:
329,192,118025,1,0,0:0:0:0:
109,192,118025,1,0,0:0:0:0:
182,192,118132,1,0,0:0:0:0:
402,192,118132,1,0,0:0:0:0:
329,192,118239,1,0,0:0:0:0:
109,192,118239,1,0,0:0:0:0:
182,192,118346,128,0,118561:0:0:0:0:
402,192,118561,1,0,0:0:0:0:
109,192,118668,1,0,0:0:0:0:
182,192,118775,1,0,0:0:0:0:
329,192,118775,1,0,0:0:0:0:
475,192,118775,1,0,0:0:0:0:
402,192,118882,1,0,0:0:0:0:
109,192,118882,1,0,0:0:0:0:
256,192,118882,1,0,0:0:0:0:
329,192,118989,1,0,0:0:0:0:
182,192,118989,1,0,0:0:0:0:
36,192,118989,1,0,0:0:0:0:
402,192,119096,1,0,0:0:0:0:
109,192,119096,1,0,0:0:0:0:
256,192,119096,1,0,0:0:0:0:
475,192,119204,128,0,119418:0:0:0:0:
182,192,119204,1,0,0:0:0:0:
36,192,119204,1,0,0:0:0:0:
329,192,119418,1,0,0:0:0:0:
109,192,119418,1,0,0:0:0:0:
402,192,119525,1,0,0:0:0:0:
182,192,119525,1,0,0:0:0:0:
256,192,119632,128,0,119846:0:0:0:0:
109,192,119632,1,0,0:0:0:0:
475,192,119846,128,0,120061:0:0:0:0:
329,192,119846,1,0,0:0:0:0:
329,192,120061,128,0,120275:0:0:0:0:
182,192,120275,1,0,0:0:0:0:
109,192,120382,1,0,0:0:0:0:
36,192,120489,1,0,0:0:0:0:
182,192,120489,1,0,0:0:0:0:
475,192,120489,1,0,0:0:0:0:
402,192,120596,1,0,0:0:0:0:
256,192,120596,1,0,0:0:0:0:
109,192,120596,1,0,0:0:0:0:
475,192,120704,1,0,0:0:0:0:
182,192,120704,1,0,0:0:0:0:
36,192,120704,1,0,0:0:0:0:
402,192,120811,1,0,0:0:0:0:
109,192,120811,1,0,0:0:0:0:
256,192,120811,1,0,0:0:0:0:
475,192,120918,128,0,121346:0:0:0:0:
182,192,120918,1,0,0:0:0:0:
402,192,121132,128,0,121239:0:0:0:0:
182,192,121132,1,0,0:0:0:0:
329,192,121239,128,0,121346:0:0:0:0:
36,192,121239,1,0,0:0:0:0:
402,192,121346,1,0,0:0:0:0:
109,192,121346,1,0,0:0:0:0:
329,192,121454,128,0,121668:0:0:0:0:
36,192,121454,1,0,0:0:0:0:
475,192,121668,1,0,0:0:0:0:
182,192,121668,1,0,0:0:0:0:
36,192,121775,1,0,0:0:0:0:
329,192,121775,1,0,0:0:0:0:
109,192,121989,1,0,0:0:0:0:
402,192,122096,1,0,0:0:0:0:
182,192,122204,1,0,0:0:0:0:
329,192,122204,1,0,0:0:0:0:
475,192,122204,1,0,0:0:0:0:
109,192,122311,1,0,0:0:0:0:
402,192,122311,1,0,0:0:0:0:
256,192,122311,1,0,0:0:0:0:
36,192,122418,1,0,0:0:0:0:
329,192,122418,1,0,0:0:0:0:
182,192,122418,1,0,0:0:0:0:
36,192,122525,1,0,0:0:0:0:
36,192,122632,128,0,122846:0:0:0:0:
329,192,122632,1,0,0:0:0:0:
182,192,122846,1,0,0:0:0:0:
402,192,122846,1,0,0:0:0:0:
109,192,122954,1,0,0:0:0:0:
329,192,122954,1,0,0:0:0:0:
256,192,123061,128,0,123275:0:0:0:0:
475,192,123061,1,0,0:0:0:0:
36,192,123275,128,0,123489:0:0:0:0:
329,192,123275,1,0,0:0:0:0:
182,192,123489,128,0,123704:0:0:0:0:
475,192,123489,1,0,0:0:0:0:
329,192,123704,1,0,0:0:0:0:
475,192,123704,1,0,0:0:0:0:
109,192,123811,1,0,0:0:0:0:
256,192,123811,1,0,0:0:0:0:
402,192,123918,1,0,0:0:0:0:
36,192,123918,1,0,0:0:0:0:
182,192,124025,1,0,0:0:0:0:
329,192,124025,1,0,0:0:0:0:
475,192,124132,1,0,0:0:0:0:
109,192,124132,1,0,0:0:0:0:
256,192,124239,1,0,0:0:0:0:
402,192,124239,1,0,0:0:0:0:
182,192,124346,1,0,0:0:0:0:
36,192,124346,1,0,0:0:0:0:
109,192,124454,1,0,0:0:0:0:
329,192,124454,1,0,0:0:0:0:
36,192,124561,1,0,0:0:0:0:
402,192,124561,1,0,0:0:0:0:
475,192,124668,1,0,0:0:0:0:
256,192,124668,1,0,0:0:0:0:
402,192,124775,1,0,0:0:0:0:
182,192,124775,1,0,0:0:0:0:
109,192,124882,1,0,0:0:0:0:
329,192,124882,1,0,0:0:0:0:
475,192,124989,1,0,0:0:0:0:
256,192,124989,1,0,0:0:0:0:
329,192,125096,1,0,0:0:0:0:
109,192,125096,1,0,0:0:0:0:
36,192,125204,1,0,0:0:0:0:
475,192,125204,1,0,0:0:0:0:
109,192,125257,1,0,0:0:0:0:
402,192,125257,1,0,0:0:0:0:
182,192,125311,1,0,0:0:0:0:
329,192,125311,1,0,0:0:0:0:
256,192,125364,1,0,0:0:0:0:
182,192,125418,1,0,0:0:0:0:
402,192,125418,1,0,0:0:0:0:
256,192,125471,1,0,0:0:0:0:
475,192,125471,1,0,0:0:0:0:
182,192,125525,1,0,0:0:0:0:
402,192,125525,1,0,0:0:0:0:
109,192,125579,1,0,0:0:0:0:
329,192,125579,1,0,0:0:0:0:
182,192,125632,1,0,0:0:0:0:
329,192,125632,1,0,0:0:0:0:
109,192,125686,1,0,0:0:0:0:
402,192,125686,1,0,0:0:0:0:
36,192,125739,1,0,0:0:0:0:
475,192,125739,1,0,0:0:0:0:
182,192,125793,1,0,0:0:0:0:
329,192,125793,1,0,0:0:0:0:
109,192,125846,1,0,0:0:0:0:
402,192,125846,1,0,0:0:0:0:
36,192,125900,1,0,0:0:0:0:
475,192,125900,1,0,0:0:0:0:
256,192,125954,1,0,0:0:0:0:
402,192,125954,1,0,0:0:0:0:
182,192,126007,1,0,0:0:0:0:
329,192,126007,1,0,0:0:0:0:
109,192,126061,1,0,0:0:0:0:
256,192,126061,1,0,0:0:0:0:
36,192,126114,1,0,0:0:0:0:
182,192,126114,1,0,0:0:0:0:
475,192,126168,1,0,0:0:0:0:
109,192,126168,1,0,0:0:0:0:
402,192,126221,1,0,0:0:0:0:
36,192,126221,1,0,0:0:0:0:
329,192,126275,1,0,0:0:0:0:
109,192,126275,1,0,0:0:0:0:
475,192,126275,128,0,126489:0:0:0:0:
182,192,126275,128,0,126596:0:0:0:0:
329,192,126489,128,0,126704:0:0:0:0:
36,192,126489,128,0,126811:0:0:0:0:
402,192,126704,128,0,126918:0:0:0:0:
109,192,126704,128,0,127025:0:0:0:0:
256,192,126918,128,0,127132:0:0:0:0:
36,192,126918,128,0,127239:0:0:0:0:
329,192,127132,128,0,127346:0:0:0:0:
475,192,127132,128,0,127454:0:0:0:0:
182,192,127346,128,0,127561:0:0:0:0:
402,192,127346,128,0,127668:0:0:0:0:
256,192,127561,128,0,127775:0:0:0:0:
329,192,127561,128,0,127882:0:0:0:0:
109,192,127775,128,0,127989:0:0:0:0:
475,192,127775,128,0,128096:0:0:0:0:
182,192,127989,128,0,128204:0:0:0:0:
329,192,127989,128,0,128311:0:0:0:0:
36,192,128204,128,0,128418:0:0:0:0:
256,192,128204,128,0,128525:0:0:0:0:
109,192,128418,128,0,128632:0:0:0:0:
402,192,128418,128,0,128739:0:0:0:0:
36,192,128632,128,0,128846:0:0:0:0:
475,192,128632,128,0,128954:0:0:0:0:
182,192,128846,128,0,129061:0:0:0:0:
329,192,128846,128,0,129168:0:0:0:0:
109,192,129061,128,0,129275:0:0:0:0:
402,192,129061,128,0,129382:0:0:0:0:
256,192,129275,128,0,129489:0:0:0:0:
475,192,129275,128,0,129596:0:0:0:0:
182,192,129489,128,0,129703:0:0:0:0:
36,192,129489,128,0,129811:0:0:0:0:
329,192,129703,128,0,129918:0:0:0:0:
109,192,129704,128,0,130025:0:0:0:0:
256,192,129918,128,0,130132:0:0:0:0:
182,192,129918,128,0,130239:0:0:0:0:
402,192,130132,128,0,130346:0:0:0:0:
36,192,130132,128,0,130454:0:0:0:0:
329,192,130346,128,0,130561:0:0:0:0:
109,192,130346,128,0,130668:0:0:0:0:
475,192,130561,128,0,130775:0:0:0:0:
36,192,130561,128,0,130882:0:0:0:0:
402,192,130775,128,0,130989:0:0:0:0:
256,192,130775,128,0,131096:0:0:0:0:
475,192,130989,128,0,131203:0:0:0:0:
109,192,130989,128,0,131311:0:0:0:0:
329,192,131203,128,0,131418:0:0:0:0:
182,192,131204,128,0,131525:0:0:0:0:
402,192,131418,128,0,131632:0:0:0:0:
36,192,131418,128,0,131739:0:0:0:0:
256,192,131632,128,0,131846:0:0:0:0:
109,192,131632,128,0,131954:0:0:0:0:
329,192,131846,128,0,132060:0:0:0:0:
475,192,131846,128,0,132168:0:0:0:0:
182,192,132060,128,0,132275:0:0:0:0:
402,192,132061,128,0,132382:0:0:0:0:
256,192,132275,128,0,132489:0:0:0:0:
329,192,132275,128,0,132596:0:0:0:0:
109,192,132489,128,0,132703:0:0:0:0:
475,192,132489,128,0,132811:0:0:0:0:
182,192,132703,128,0,132918:0:0:0:0:
329,192,132704,128,0,133025:0:0:0:0:
36,192,132918,128,0,133132:0:0:0:0:
402,192,132918,128,0,133239:0:0:0:0:
109,192,133132,128,0,133346:0:0:0:0:
475,192,133132,128,0,133454:0:0:0:0:
36,192,133346,128,0,133560:0:0:0:0:
256,192,133346,128,0,133668:0:0:0:0:
182,192,133560,128,0,133775:0:0:0:0:
402,192,133561,128,0,133882:0:0:0:0:
109,192,133775,128,0,133989:0:0:0:0:
329,192,133775,128,0,134096:0:0:0:0:
256,192,133989,128,0,134203:0:0:0:0:
475,192,133989,128,0,134311:0:0:0:0:
182,192,134203,128,0,134417:0:0:0:0:
36,192,134204,128,0,134525:0:0:0:0:
329,192,134417,128,0,134632:0:0:0:0:
109,192,134418,128,0,134739:0:0:0:0:
256,192,134632,128,0,134846:0:0:0:0:
182,192,134632,128,0,134954:0:0:0:0:
402,192,134846,128,0,135060:0:0:0:0:
36,192,134846,128,0,135168:0:0:0:0:
329,192,135060,128,0,135275:0:0:0:0:
109,192,135061,128,0,135382:0:0:0:0:
475,192,135275,128,0,135489:0:0:0:0:
256,192,135275,128,0,135596:0:0:0:0:
402,192,135489,128,0,135703:0:0:0:0:
182,192,135489,128,0,135811:0:0:0:0:
475,192,135704,128,0,135918:0:0:0:0:
36,192,135704,128,0,136025:0:0:0:0:
329,192,135918,128,0,136133:0:0:0:0:
109,192,135918,128,0,136239:0:0:0:0:
182,192,136132,128,0,136454:0:0:0:0:
402,192,136133,128,0,136347:0:0:0:0:
475,192,136346,128,0,136668:0:0:0:0:
256,192,136347,128,0,136561:0:0:0:0:
329,192,136561,128,0,136775:0:0:0:0:
36,192,136561,128,0,136882:0:0:0:0:
182,192,136775,128,0,136990:0:0:0:0:
402,192,136775,128,0,137096:0:0:0:0:
475,192,136989,128,0,137311:0:0:0:0:
256,192,136990,128,0,137204:0:0:0:0:
109,192,137204,128,0,137418:0:0:0:0:
36,192,137204,128,0,137525:0:0:0:0:
182,192,137418,128,0,137633:0:0:0:0:
329,192,137418,128,0,137739:0:0:0:0:
475,192,137632,128,0,137954:0:0:0:0:
36,192,137633,128,0,137847:0:0:0:0:
402,192,137846,128,0,138168:0:0:0:0:
109,192,137847,128,0,138061:0:0:0:0:
182,192,138061,128,0,138275:0:0:0:0:
36,192,138061,128,0,138382:0:0:0:0:
256,192,138275,128,0,138489:0:0:0:0:
475,192,138275,128,0,138596:0:0:0:0:
329,192,138489,128,0,138704:0:0:0:0:
109,192,138489,128,0,138811:0:0:0:0:
402,192,138704,128,0,138918:0:0:0:0:
36,192,138704,128,0,139025:0:0:0:0:
475,192,138918,128,0,139132:0:0:0:0:
182,192,138918,128,0,139239:0:0:0:0:
402,192,139132,128,0,139346:0:0:0:0:
109,192,139132,128,0,139346:0:0:0:0:
329,192,139346,128,0,139560:0:0:0:0:
256,192,139346,1,0,0:0:0:0:
475,192,139346,1,0,0:0:0:0:
182,192,139453,1,0,0:0:0:0:
36,192,139453,1,0,0:0:0:0:
256,192,139560,128,0,139774:0:0:0:0:
109,192,139560,1,0,0:0:0:0:
475,192,139560,1,0,0:0:0:0:
402,192,139667,1,0,0:0:0:0:
36,192,139667,1,0,0:0:0:0:
182,192,139774,128,0,139988:0:0:0:0:
475,192,139774,1,0,0:0:0:0:
329,192,139774,1,0,0:0:0:0:
402,192,139881,1,0,0:0:0:0:
109,192,139881,1,0,0:0:0:0:
475,192,139988,1,0,0:0:0:0:
36,192,139988,128,0,140846:0:0:0:0:
329,192,139988,1,0,0:0:0:0:
402,192,140203,1,0,0:0:0:0:
256,192,140203,1,0,0:0:0:0:
329,192,140417,1,0,0:0:0:0:
475,192,140417,1,0,0:0:0:0:
182,192,140417,1,0,0:0:0:0:
182,192,140631,1,0,0:0:0:0:
475,192,140631,1,0,0:0:0:0:
256,192,140738,1,0,0:0:0:0:
402,192,140738,1,0,0:0:0:0:
109,192,140846,128,0,141703:0:0:0:0:
329,192,140846,1,0,0:0:0:0:
475,192,140846,1,0,0:0:0:0:
182,192,140846,1,0,0:0:0:0:
402,192,141060,1,0,0:0:0:0:
256,192,141060,1,0,0:0:0:0:
256,192,141274,1,0,0:0:0:0:
475,192,141274,1,0,0:0:0:0:
36,192,141274,1,0,0:0:0:0:
402,192,141488,1,0,0:0:0:0:
256,192,141488,1,0,0:0:0:0:
182,192,141703,128,0,142560:0:0:0:0:
329,192,141703,1,0,0:0:0:0:
475,192,141703,1,0,0:0:0:0:
36,192,141703,1,0,0:0:0:0:
475,192,141917,1,0,0:0:0:0:
329,192,141917,1,0,0:0:0:0:
402,192,142024,1,0,0:0:0:0:
256,192,142024,1,0,0:0:0:0:
109,192,142131,1,0,0:0:0:0:
475,192,142131,1,0,0:0:0:0:
329,192,142131,1,0,0:0:0:0:
402,192,142346,1,0,0:0:0:0:
36,192,142346,1,0,0:0:0:0:
329,192,142453,1,0,0:0:0:0:
109,192,142453,1,0,0:0:0:0:
36,192,142560,128,0,143417:0:0:0:0:
256,192,142560,1,0,0:0:0:0:
475,192,142560,1,0,0:0:0:0:
402,192,142560,1,0,0:0:0:0:
402,192,142774,1,0,0:0:0:0:
256,192,142774,1,0,0:0:0:0:
475,192,142988,1,0,0:0:0:0:
182,192,142988,1,0,0:0:0:0:
329,192,142988,1,0,0:0:0:0:
402,192,143203,1,0,0:0:0:0:
256,192,143203,1,0,0:0:0:0:
329,192,143310,1,0,0:0:0:0:
182,192,143310,1,0,0:0:0:0:
109,192,143417,128,0,144274:0:0:0:0:
256,192,143417,1,0,0:0:0:0:
475,192,143417,1,0,0:0:0:0:
402,192,143417,1,0,0:0:0:0:
329,192,143631,1,0,0:0:0:0:
182,192,143631,1,0,0:0:0:0:
402,192,143738,1,0,0:0:0:0:
256,192,143738,1,0,0:0:0:0:
475,192,143846,1,0,0:0:0:0:
329,192,143846,1,0,0:0:0:0:
182,192,143846,1,0,0:0:0:0:
329,192,144060,1,0,0:0:0:0:
475,192,144060,1,0,0:0:0:0:
256,192,144167,1,0,0:0:0:0:
402,192,144167,1,0,0:0:0:0:
182,192,144274,128,0,145131:0:0:0:0:
475,192,144274,1,0,0:0:0:0:
329,192,144274,1,0,0:0:0:0:
36,192,144274,1,0,0:0:0:0:
329,192,144488,1,0,0:0:0:0:
475,192,144488,1,0,0:0:0:0:
475,192,144703,1,0,0:0:0:0:
256,192,144703,1,0,0:0:0:0:
36,192,144703,1,0,0:0:0:0:
402,192,144917,1,0,0:0:0:0:
256,192,144917,1,0,0:0:0:0:
256,192,145131,128,0,145988:0:0:0:0:
36,192,145131,1,0,0:0:0:0:
475,192,145131,1,0,0:0:0:0:
329,192,145131,1,0,0:0:0:0:
329,192,145346,1,0,0:0:0:0:
182,192,145346,1,0,0:0:0:0:
109,192,145560,1,0,0:0:0:0:
402,192,145560,1,0,0:0:0:0:
36,192,145560,1,0,0:0:0:0:
475,192,145774,1,0,0:0:0:0:
182,192,145774,1,0,0:0:0:0:
402,192,145881,1,0,0:0:0:0:
109,192,145881,1,0,0:0:0:0:
329,192,145988,128,0,146846:0:0:0:0:
182,192,145988,1,0,0:0:0:0:
36,192,145988,1,0,0:0:0:0:
109,192,146203,1,0,0:0:0:0:
256,192,146203,1,0,0:0:0:0:
475,192,146203,1,0,0:0:0:0:
182,192,146417,1,0,0:0:0:0:
475,192,146417,1,0,0:0:0:0:
36,192,146417,1,0,0:0:0:0:
402,192,146631,1,0,0:0:0:0:
182,192,146631,1,0,0:0:0:0:
182,192,146846,128,0,147703:0:0:0:0:
36,192,146846,1,0,0:0:0:0:
475,192,146846,1,0,0:0:0:0:
402,192,146846,1,0,0:0:0:0:
402,192,147060,1,0,0:0:0:0:
256,192,147060,1,0,0:0:0:0:
109,192,147274,1,0,0:0:0:0:
329,192,147274,1,0,0:0:0:0:
402,192,147488,1,0,0:0:0:0:
109,192,147488,1,0,0:0:0:0:
475,192,147596,1,0,0:0:0:0:
36,192,147596,1,0,0:0:0:0:
109,192,147703,128,0,148560:0:0:0:0:
402,192,147703,1,0,0:0:0:0:
256,192,147703,1,0,0:0:0:0:
329,192,147703,1,0,0:0:0:0:
329,192,147917,1,0,0:0:0:0:
475,192,147917,1,0,0:0:0:0:
256,192,148131,1,0,0:0:0:0:
402,192,148131,1,0,0:0:0:0:
36,192,148131,1,0,0:0:0:0:
402,192,148346,1,0,0:0:0:0:
256,192,148346,1,0,0:0:0:0:
329,192,148453,1,0,0:0:0:0:
475,192,148453,1,0,0:0:0:0:
36,192,148560,128,0,149417:0:0:0:0:
256,192,148560,1,0,0:0:0:0:
402,192,148560,1,0,0:0:0:0:
182,192,148560,1,0,0:0:0:0:
402,192,148774,1,0,0:0:0:0:
256,192,148774,1,0,0:0:0:0:
182,192,148988,1,0,0:0:0:0:
475,192,148988,1,0,0:0:0:0:
329,192,148988,1,0,0:0:0:0:
329,192,149203,1,0,0:0:0:0:
475,192,149203,1,0,0:0:0:0:
256,192,149310,1,0,0:0:0:0:
402,192,149310,1,0,0:0:0:0:
182,192,149417,128,0,150274:0:0:0:0:
329,192,149417,1,0,0:0:0:0:
475,192,149417,1,0,0:0:0:0:
109,192,149417,1,0,0:0:0:0:
402,192,149631,1,0,0:0:0:0:
109,192,149631,1,0,0:0:0:0:
329,192,149846,1,0,0:0:0:0:
36,192,149846,1,0,0:0:0:0:
475,192,149846,1,0,0:0:0:0:
475,192,150060,1,0,0:0:0:0:
256,192,150060,1,0,0:0:0:0:
402,192,150167,1,0,0:0:0:0:
109,192,150167,1,0,0:0:0:0:
329,192,150274,128,0,151131:0:0:0:0:
36,192,150274,1,0,0:0:0:0:
256,192,150274,1,0,0:0:0:0:
475,192,150274,1,0,0:0:0:0:
109,192,150488,1,0,0:0:0:0:
402,192,150488,1,0,0:0:0:0:
182,192,150703,1,0,0:0:0:0:
402,192,150703,1,0,0:0:0:0:
36,192,150703,1,0,0:0:0:0:
109,192,150917,1,0,0:0:0:0:
402,192,150917,1,0,0:0:0:0:
182,192,151024,1,0,0:0:0:0:
475,192,151024,1,0,0:0:0:0:
402,192,151131,128,0,151988:0:0:0:0:
36,192,151131,1,0,0:0:0:0:
256,192,151131,1,0,0:0:0:0:
109,192,151131,1,0,0:0:0:0:
109,192,151346,1,0,0:0:0:0:
329,192,151346,1,0,0:0:0:0:
475,192,151346,1,0,0:0:0:0:
256,192,151560,1,0,0:0:0:0:
36,192,151560,1,0,0:0:0:0:
329,192,151560,1,0,0:0:0:0:
182,192,151774,1,0,0:0:0:0:
109,192,151881,1,0,0:0:0:0:
475,192,151988,128,0,152524:0:0:0:0:
182,192,152203,1,0,0:0:0:0:
329,192,152203,1,0,0:0:0:0:
256,192,152310,1,0,0:0:0:0:
109,192,152310,1,0,0:0:0:0:
182,192,152417,1,0,0:0:0:0:
36,192,152417,1,0,0:0:0:0:
402,192,152417,1,0,0:0:0:0:
256,192,152524,128,0,152846:0:0:0:0:
36,192,152524,1,0,0:0:0:0:
182,192,152524,1,0,0:0:0:0:
402,192,152524,1,0,0:0:0:0:
402,192,152631,1,0,0:0:0:0:
182,192,152631,1,0,0:0:0:0:
36,192,152631,1,0,0:0:0:0:
36,192,152738,1,0,0:0:0:0:
182,192,152738,1,0,0:0:0:0:
402,192,152738,1,0,0:0:0:0:
329,192,152846,1,0,0:0:0:0:
36,192,152846,1,0,0:0:0:0:
475,192,152953,1,0,0:0:0:0:
182,192,152953,1,0,0:0:0:0:
329,192,153060,1,0,0:0:0:0:
182,192,153113,1,0,0:0:0:0:
329,192,153167,1,0,0:0:0:0:
182,192,153221,1,0,0:0:0:0:
109,192,153274,1,0,0:0:0:0:
402,192,153274,1,0,0:0:0:0:
109,192,153381,1,0,0:0:0:0:
402,192,153381,1,0,0:0:0:0:
182,192,153488,1,0,0:0:0:0:
329,192,153542,1,0,0:0:0:0:
182,192,153596,1,0,0:0:0:0:
329,192,153649,1,0,0:0:0:0:
36,192,153703,1,0,0:0:0:0:
475,192,153703,1,0,0:0:0:0:
36,192,153810,1,0,0:0:0:0:
475,192,153810,1,0,0:0:0:0:
109,192,153917,1,0,0:0:0:0:
402,192,153971,1,0,0:0:0:0:
109,192,154024,1,0,0:0:0:0:
402,192,154078,1,0,0:0:0:0:
36,192,154131,1,0,0:0:0:0:
475,192,154131,1,0,0:0:0:0:
36,192,154238,1,0,0:0:0:0:
475,192,154238,1,0,0:0:0:0:
182,192,154346,1,0,0:0:0:0:
329,192,154399,1,0,0:0:0:0:
182,192,154453,1,0,0:0:0:0:
329,192,154506,1,0,0:0:0:0:
182,192,154560,1,0,0:0:0:0:
36,192,154560,1,0,0:0:0:0:
329,192,154560,1,0,0:0:0:0:
475,192,154560,1,0,0:0:0:0:
36,192,154774,128,0,156703:0:0:0:0:
109,192,154988,128,0,156060:0:0:0:0:
182,192,155203,128,0,156488:0:0:0:0:
329,192,155417,128,0,155846:0:0:0:0:
475,192,155631,128,0,158631:0:0:0:0:
402,192,155846,128,0,157560:0:0:0:0:
329,192,156060,128,0,156917:0:0:0:0:
109,192,156274,128,0,157346:0:0:0:0:
256,192,156488,128,0,157131:0:0:0:0:
182,192,156703,128,0,157560:0:0:0:0:
36,192,156917,128,0,157131:0:0:0:0:
329,192,157131,128,0,157346:0:0:0:0:
256,192,157346,128,0,157988:0:0:0:0:
36,192,157346,128,0,159060:0:0:0:0:
329,192,157560,128,0,158631:0:0:0:0:
109,192,157560,128,0,157774:0:0:0:0:
402,192,157774,128,0,158846:0:0:0:0:
182,192,157774,128,0,158203:0:0:0:0:
109,192,157988,128,0,158417:0:0:0:0:
256,192,158203,128,0,159274:0:0:0:0:
182,192,158417,128,0,159060:0:0:0:0:
109,192,158631,128,0,160131:0:0:0:0:
329,192,158846,128,0,160131:0:0:0:0:
475,192,158846,128,0,159488:0:0:0:0:
402,192,159060,128,0,159703:0:0:0:0:
182,192,159274,128,0,160560:0:0:0:0:
36,192,159274,128,0,159917:0:0:0:0:
256,192,159488,128,0,159917:0:0:0:0:
475,192,159703,128,0,160774:0:0:0:0:
402,192,159917,128,0,160560:0:0:0:0:
256,192,160131,128,0,160346:0:0:0:0:
36,192,160131,128,0,160988:0:0:0:0:
329,192,160346,128,0,161203:0:0:0:0:
109,192,160346,128,0,160774:0:0:0:0:
256,192,160560,128,0,160988:0:0:0:0:
402,192,160774,128,0,161417:0:0:0:0:
182,192,160774,128,0,161417:0:0:0:0:
475,192,160988,128,0,161631:0:0:0:0:
109,192,160988,128,0,161203:0:0:0:0:
256,192,161203,128,0,161846:0:0:0:0:
36,192,161203,128,0,164203:0:0:0:0:
109,192,161417,128,0,162060:0:0:0:0:
329,192,161417,128,0,161631:0:0:0:0:
182,192,161631,128,0,162274:0:0:0:0:
402,192,161631,128,0,161846:0:0:0:0:
329,192,161846,128,0,162488:0:0:0:0:
475,192,161846,128,0,164631:0:0:0:0:
256,192,162060,128,0,163346:0:0:0:0:
402,192,162060,128,0,162703:0:0:0:0:
109,192,162274,128,0,163560:0:0:0:0:
182,192,162488,128,0,162917:0:0:0:0:
329,192,162703,128,0,163131:0:0:0:0:
402,192,162917,128,0,164417:0:0:0:0:
182,192,163131,128,0,163774:0:0:0:0:
329,192,163346,128,0,163774:0:0:0:0:
256,192,163560,128,0,163988:0:0:0:0:
109,192,163774,128,0,164631:0:0:0:0:
182,192,163988,128,0,164846:0:0:0:0:
329,192,163988,128,0,164203:0:0:0:0:
256,192,164203,128,0,164846:0:0:0:0:
329,192,164417,128,0,164846:0:0:0:0:
36,192,164417,128,0,164846:0:0:0:0:
402,192,164631,128,0,164846:0:0:0:0:
109,192,164846,1,0,0:0:0:0:
475,192,164846,1,0,0:0:0:0:
402,192,165060,1,0,0:0:0:0:
256,192,165060,1,0,0:0:0:0:
329,192,165274,1,0,0:0:0:0:
182,192,165274,1,0,0:0:0:0:
36,192,165274,1,0,0:0:0:0:
109,192,165488,1,0,0:0:0:0:
256,192,165488,1,0,0:0:0:0:
402,192,165488,1,0,0:0:0:0:
329,192,165703,1,0,0:0:0:0:
182,192,165703,1,0,0:0:0:0:
475,192,165703,1,0,0:0:0:0:
36,192,165810,1,0,0:0:0:0:
182,192,165917,1,0,0:0:0:0:
329,192,166024,1,0,0:0:0:0:
475,192,166131,1,0,0:0:0:0:
402,192,166238,1,0,0:0:0:0:
256,192,166346,1,0,0:0:0:0:
109,192,166453,1,0,0:0:0:0:
36,192,166561,1,0,0:0:0:0:
256,192,166562,1,0,0:0:0:0:
475,192,166562,1,0,0:0:0:0:
36,192,166614,1,0,0:0:0:0:
256,192,166615,1,0,0:0:0:0:
475,192,166615,1,0,0:0:0:0:
36,192,166668,1,0,0:0:0:0:
109,192,166668,1,0,0:0:0:0:
109,192,166722,1,0,0:0:0:0:
182,192,166776,1,0,0:0:0:0:
182,192,166829,1,0,0:0:0:0:
256,192,166882,1,0,0:0:0:0:
256,192,166936,1,0,0:0:0:0:
329,192,167044,1,0,0:0:0:0:
329,192,167097,1,0,0:0:0:0:
402,192,167151,1,0,0:0:0:0:
402,192,167205,1,0,0:0:0:0:
475,192,167258,1,0,0:0:0:0:
475,192,167312,1,0,0:0:0:0:
109,192,167364,1,0,0:0:0:0:
182,192,167364,1,0,0:0:0:0:
36,192,167364,1,0,0:0:0:0:
329,192,167365,1,0,0:0:0:0:
402,192,167365,1,0,0:0:0:0:
475,192,167365,1,0,0:0:0:0:
109,192,167418,1,0,0:0:0:0:
182,192,167418,1,0,0:0:0:0:
36,192,167418,1,0,0:0:0:0:
402,192,167419,1,0,0:0:0:0:
329,192,167419,1,0,0:0:0:0:
475,192,167419,1,0,0:0:0:0:
475,192,168488,1,0,0:0:0:0:
475,192,168596,1,0,0:0:0:0:
475,192,168703,1,0,0:0:0:0:
475,192,168810,1,0,0:0:0:0:
475,192,168917,128,0,169346:0:0:0:0:
