osu file format v12

[General]
AudioFilename: 07_-_CYBER_Sparks.mp3
AudioLeadIn: 1000
PreviewTime: -1
Countdown: 1
SampleSet: Soft
StackLeniency: 0.7
Mode: 1
LetterboxInBreaks: 1

[Editor]
DistanceSpacing: 1
BeatDivisor: 4
GridSize: 32

[Metadata]
Title:CYBER Sparks
TitleUnicode:CYBER Sparks
Artist:Tatsh
ArtistUnicode:Tatsh
Creator:Konpaku Sariel
Version:Lunatic Taiko
Source:Touhou
Tags:master spark,marisa,touhou
BeatmapID:245563
BeatmapSetID:88286

[Difficulty]
HPDrainRate:4
CircleSize:5
OverallDifficulty:5
ApproachRate:4
SliderMultiplier:1.4
SliderTickRate:2

[Events]
//Background and Video events
0,0,"%B8%AE~1.PNG",0,0
//Break Periods
//Storyboard Layer 0 (Background)
//Storyboard Layer 1 (Fail)
//Storyboard Layer 2 (Pass)
//Storyboard Layer 3 (Foreground)
//Storyboard Sound Samples
//Background Colour Transformations
3,100,163,162,255

[TimingPoints]
940,312.5,4,2,0,100,1,0
2187,312.5,3,2,0,100,1,0
3436,625,3,2,0,100,1,0
4062,312.5,4,2,0,100,1,0
39058,-133.333333333333,4,2,0,100,0,0
49057,-200,4,2,0,100,0,0
69055,-100,4,2,0,100,0,0
70305,-100,4,2,0,100,0,1
79054,-100,4,2,0,100,0,0
80304,-100,4,2,0,100,0,1
89053,-100,4,2,0,100,0,0
90303,-100,4,2,0,100,0,1
105301,-100,4,2,0,100,0,0
181543,-100,4,2,0,100,0,1
196541,-100,4,2,0,100,0,0
231538,-133.333333333333,4,2,0,100,0,0

[HitObjects]
32,64,940,2,0,B|480:64|480:64|448:320|448:320|64:288|64:288|224:224,1,1260
256,192,4061,5,0,0:0:0:0:
256,192,4218,1,0,0:0:0:0:
256,192,4296,1,0,0:0:0:0:
256,192,4374,1,8,0:0:0:0:
256,192,4530,1,8,0:0:0:0:
256,192,4687,1,0,0:0:0:0:
256,192,4765,1,0,0:0:0:0:
256,192,4843,1,0,0:0:0:0:
256,192,4999,1,0,0:0:0:0:
256,192,5077,1,0,0:0:0:0:
256,192,5155,1,0,0:0:0:0:
256,192,5311,5,0,0:0:0:0:
256,192,5467,1,0,0:0:0:0:
256,192,5545,1,0,0:0:0:0:
256,192,5623,1,8,0:0:0:0:
256,192,5779,1,8,0:0:0:0:
256,192,5935,1,0,0:0:0:0:
256,192,6014,1,0,0:0:0:0:
256,192,6092,1,0,0:0:0:0:
256,192,6248,1,0,0:0:0:0:
256,192,6326,1,0,0:0:0:0:
256,192,6404,1,0,0:0:0:0:
256,192,6561,5,0,0:0:0:0:
256,192,6717,1,0,0:0:0:0:
256,192,6795,1,0,0:0:0:0:
256,192,6873,1,8,0:0:0:0:
256,192,7029,1,8,0:0:0:0:
256,192,7185,1,0,0:0:0:0:
256,192,7264,1,0,0:0:0:0:
256,192,7342,1,0,0:0:0:0:
256,192,7498,1,0,0:0:0:0:
256,192,7576,1,0,0:0:0:0:
256,192,7654,1,0,0:0:0:0:
256,192,7812,5,0,0:0:0:0:
256,192,7968,1,0,0:0:0:0:
256,192,8045,1,0,0:0:0:0:
256,192,8123,1,8,0:0:0:0:
256,192,8279,1,8,0:0:0:0:
256,192,8435,1,0,0:0:0:0:
256,192,8514,1,0,0:0:0:0:
256,192,8592,1,0,0:0:0:0:
256,192,8748,1,0,0:0:0:0:
256,192,8826,1,0,0:0:0:0:
256,192,8904,1,0,0:0:0:0:
256,192,8983,1,0,0:0:0:0:
256,192,9061,5,0,0:0:0:0:
256,192,9217,1,8,0:0:0:0:
256,192,9295,1,8,0:0:0:0:
256,192,9373,1,0,0:0:0:0:
256,192,9530,1,8,0:0:0:0:
256,192,9686,1,0,0:0:0:0:
256,192,9842,1,8,0:0:0:0:
256,192,9920,1,8,0:0:0:0:
256,192,9998,1,0,0:0:0:0:
256,192,10155,1,8,0:0:0:0:
256,192,10311,5,0,0:0:0:0:
256,192,10467,1,8,0:0:0:0:
256,192,10545,1,8,0:0:0:0:
256,192,10623,1,0,0:0:0:0:
256,192,10780,1,8,0:0:0:0:
256,192,10936,1,0,0:0:0:0:
256,192,11092,1,8,0:0:0:0:
256,192,11170,1,8,0:0:0:0:
256,192,11248,1,0,0:0:0:0:
256,192,11404,1,8,0:0:0:0:
256,192,11561,5,0,0:0:0:0:
256,192,11717,1,8,0:0:0:0:
256,192,11795,1,8,0:0:0:0:
256,192,11873,1,0,0:0:0:0:
256,192,12029,1,8,0:0:0:0:
256,192,12186,1,0,0:0:0:0:
256,192,12342,1,8,0:0:0:0:
256,192,12420,1,8,0:0:0:0:
256,192,12498,1,0,0:0:0:0:
256,192,12654,1,8,0:0:0:0:
256,192,12811,5,0,0:0:0:0:
256,192,12967,1,8,0:0:0:0:
256,192,13045,1,8,0:0:0:0:
256,192,13123,1,0,0:0:0:0:
256,192,13279,1,8,0:0:0:0:
256,192,13436,1,0,0:0:0:0:
256,192,13592,1,8,0:0:0:0:
256,192,13670,1,8,0:0:0:0:
256,192,13748,1,0,0:0:0:0:
256,192,13904,1,8,0:0:0:0:
256,192,14062,5,0,0:0:0:0:
256,192,14139,1,0,0:0:0:0:
256,192,14217,1,0,0:0:0:0:
256,192,14373,1,12,0:0:0:0:
256,192,14529,1,0,0:0:0:0:
256,192,14685,1,0,0:0:0:0:
256,192,14764,1,0,0:0:0:0:
256,192,14842,1,0,0:0:0:0:
256,192,14998,1,12,0:0:0:0:
256,192,15154,1,0,0:0:0:0:
256,192,15310,5,0,0:0:0:0:
256,192,15389,1,0,0:0:0:0:
256,192,15467,1,0,0:0:0:0:
256,192,15623,1,12,0:0:0:0:
256,192,15779,1,0,0:0:0:0:
256,192,15935,1,0,0:0:0:0:
256,192,16014,1,0,0:0:0:0:
256,192,16092,1,0,0:0:0:0:
256,192,16248,1,12,0:0:0:0:
256,192,16404,1,0,0:0:0:0:
256,192,16560,5,0,0:0:0:0:
256,192,16639,1,0,0:0:0:0:
256,192,16717,1,0,0:0:0:0:
256,192,16873,1,12,0:0:0:0:
256,192,17029,1,0,0:0:0:0:
256,192,17185,1,0,0:0:0:0:
256,192,17264,1,0,0:0:0:0:
256,192,17342,1,0,0:0:0:0:
256,192,17498,1,12,0:0:0:0:
256,192,17654,1,0,0:0:0:0:
256,192,17810,5,0,0:0:0:0:
256,192,17889,1,0,0:0:0:0:
256,192,17967,1,0,0:0:0:0:
256,192,18123,1,12,0:0:0:0:
256,192,18279,1,0,0:0:0:0:
256,192,18435,1,0,0:0:0:0:
256,192,18514,1,0,0:0:0:0:
256,192,18592,1,0,0:0:0:0:
256,192,18748,1,12,0:0:0:0:
256,192,18904,1,0,0:0:0:0:
256,192,19060,5,0,0:0:0:0:
256,192,19216,1,8,0:0:0:0:
256,192,19294,1,8,0:0:0:0:
256,192,19372,1,0,0:0:0:0:
256,192,19529,1,8,0:0:0:0:
256,192,19685,1,0,0:0:0:0:
256,192,19763,1,0,0:0:0:0:
256,192,19841,1,8,0:0:0:0:
256,192,19997,1,0,0:0:0:0:
256,192,20075,1,0,0:0:0:0:
256,192,20154,1,8,0:0:0:0:
256,192,20310,5,0,0:0:0:0:
256,192,20466,1,8,0:0:0:0:
256,192,20544,1,8,0:0:0:0:
256,192,20622,1,0,0:0:0:0:
256,192,20779,1,8,0:0:0:0:
256,192,20935,1,0,0:0:0:0:
256,192,21013,1,8,0:0:0:0:
256,192,21091,1,8,0:0:0:0:
256,192,21247,1,0,0:0:0:0:
256,192,21325,1,0,0:0:0:0:
256,192,21403,1,8,0:0:0:0:
256,192,21560,5,0,0:0:0:0:
256,192,21716,1,8,0:0:0:0:
256,192,21794,1,8,0:0:0:0:
256,192,21872,1,0,0:0:0:0:
256,192,22028,1,8,0:0:0:0:
256,192,22185,1,0,0:0:0:0:
256,192,22263,1,0,0:0:0:0:
256,192,22341,1,8,0:0:0:0:
256,192,22497,1,0,0:0:0:0:
256,192,22575,1,0,0:0:0:0:
256,192,22653,1,8,0:0:0:0:
256,192,22810,5,0,0:0:0:0:
256,192,22966,1,8,0:0:0:0:
256,192,23044,1,8,0:0:0:0:
256,192,23122,1,0,0:0:0:0:
256,192,23278,1,8,0:0:0:0:
256,192,23434,1,0,0:0:0:0:
256,192,23513,1,0,0:0:0:0:
256,192,23591,1,0,0:0:0:0:
256,192,23747,1,8,0:0:0:0:
256,192,23825,1,8,0:0:0:0:
256,192,23903,1,0,0:0:0:0:
256,192,24059,5,0,0:0:0:0:
256,192,24216,1,8,0:0:0:0:
256,192,24294,1,8,0:0:0:0:
256,192,24372,1,0,0:0:0:0:
256,192,24528,1,0,0:0:0:0:
256,192,24684,1,8,0:0:0:0:
256,192,24762,1,8,0:0:0:0:
256,192,24841,1,0,0:0:0:0:
256,192,24997,1,8,0:0:0:0:
256,192,25075,1,0,0:0:0:0:
256,192,25153,1,0,0:0:0:0:
256,192,25309,5,0,0:0:0:0:
256,192,25466,1,8,0:0:0:0:
256,192,25544,1,8,0:0:0:0:
256,192,25622,1,0,0:0:0:0:
256,192,25778,1,8,0:0:0:0:
256,192,25934,1,0,0:0:0:0:
256,192,26012,1,8,0:0:0:0:
256,192,26090,1,8,0:0:0:0:
256,192,26247,1,0,0:0:0:0:
256,192,26325,1,0,0:0:0:0:
256,192,26403,1,8,0:0:0:0:
256,192,26559,5,0,0:0:0:0:
256,192,26715,1,8,0:0:0:0:
256,192,26794,1,8,0:0:0:0:
256,192,26872,1,0,0:0:0:0:
256,192,27028,1,8,0:0:0:0:
256,192,27184,1,0,0:0:0:0:
256,192,27262,1,0,0:0:0:0:
256,192,27340,1,0,0:0:0:0:
256,192,27418,1,0,0:0:0:0:
256,192,27497,1,8,0:0:0:0:
256,192,27575,1,8,0:0:0:0:
256,192,27653,1,0,0:0:0:0:
256,192,27731,1,0,0:0:0:0:
73,60,27809,2,0,B|394:63|394:63|398:247,1,490
256,192,29059,5,0,0:0:0:0:
256,192,29137,1,8,0:0:0:0:
256,192,29215,1,0,0:0:0:0:
256,192,29371,1,0,0:0:0:0:
256,192,29528,1,8,0:0:0:0:
256,192,29606,1,8,0:0:0:0:
256,192,29684,1,8,0:0:0:0:
256,192,29840,1,8,0:0:0:0:
256,192,29918,1,8,0:0:0:0:
256,192,29996,1,8,0:0:0:0:
256,192,30153,1,8,0:0:0:0:
256,192,30231,1,8,0:0:0:0:
256,192,30309,5,0,0:0:0:0:
256,192,30387,1,8,0:0:0:0:
256,192,30468,1,0,0:0:0:0:
256,192,30624,1,0,0:0:0:0:
256,192,30777,1,8,0:0:0:0:
256,192,30856,1,8,0:0:0:0:
256,192,30934,1,0,0:0:0:0:
256,192,31090,1,8,0:0:0:0:
256,192,31168,1,8,0:0:0:0:
256,192,31246,1,0,0:0:0:0:
256,192,31402,1,8,0:0:0:0:
256,192,31481,1,8,0:0:0:0:
256,192,31559,5,0,0:0:0:0:
256,192,31637,1,8,0:0:0:0:
256,192,31715,1,0,0:0:0:0:
256,192,31871,1,0,0:0:0:0:
256,192,32027,1,8,0:0:0:0:
256,192,32105,1,8,0:0:0:0:
256,192,32184,1,0,0:0:0:0:
256,192,32340,1,8,0:0:0:0:
256,192,32418,1,0,0:0:0:0:
256,192,32496,1,0,0:0:0:0:
256,192,32574,1,8,0:0:0:0:
256,192,32652,1,0,0:0:0:0:
256,192,32809,5,0,0:0:0:0:
256,192,32887,1,8,0:0:0:0:
256,192,32965,1,0,0:0:0:0:
256,192,33121,1,0,0:0:0:0:
256,192,33277,1,8,0:0:0:0:
256,192,33355,1,8,0:0:0:0:
256,192,33433,1,0,0:0:0:0:
256,192,33590,1,8,0:0:0:0:
256,192,33668,1,8,0:0:0:0:
256,192,33746,1,0,0:0:0:0:
256,192,33824,1,0,0:0:0:0:
256,192,33902,1,8,0:0:0:0:
256,192,33980,1,8,0:0:0:0:
256,192,34058,5,0,0:0:0:0:
256,192,34136,1,0,0:0:0:0:
256,192,34215,1,8,0:0:0:0:
256,192,34293,1,0,0:0:0:0:
256,192,34371,1,0,0:0:0:0:
256,192,34449,1,0,0:0:0:0:
256,192,34527,1,8,0:0:0:0:
256,192,34605,1,0,0:0:0:0:
256,192,34683,1,0,0:0:0:0:
256,192,34761,1,0,0:0:0:0:
256,192,34840,1,8,0:0:0:0:
256,192,34918,1,0,0:0:0:0:
256,192,34996,1,0,0:0:0:0:
256,192,35074,1,0,0:0:0:0:
256,192,35152,1,8,0:0:0:0:
256,192,35230,1,8,0:0:0:0:
256,192,35308,5,0,0:0:0:0:
256,192,35386,1,0,0:0:0:0:
256,192,35464,1,8,0:0:0:0:
256,192,35543,1,8,0:0:0:0:
256,192,35621,1,0,0:0:0:0:
256,192,35699,1,0,0:0:0:0:
256,192,35777,1,8,0:0:0:0:
256,192,35855,1,8,0:0:0:0:
256,192,35933,1,0,0:0:0:0:
256,192,36011,1,8,0:0:0:0:
256,192,36089,1,8,0:0:0:0:
256,192,36168,1,0,0:0:0:0:
256,192,36246,1,8,0:0:0:0:
256,192,36324,1,8,0:0:0:0:
256,192,36402,1,0,0:0:0:0:
256,192,36480,1,8,0:0:0:0:
256,192,36558,5,0,0:0:0:0:
256,192,36636,1,0,0:0:0:0:
256,192,36714,1,8,0:0:0:0:
256,192,36871,1,0,0:0:0:0:
256,192,36949,1,0,0:0:0:0:
256,192,37027,1,8,0:0:0:0:
256,192,37183,1,0,0:0:0:0:
256,192,37261,1,0,0:0:0:0:
256,192,37339,1,8,0:0:0:0:
256,192,37496,1,0,0:0:0:0:
256,192,37574,1,0,0:0:0:0:
256,192,37652,1,8,0:0:0:0:
256,192,37808,5,0,0:0:0:0:
256,192,37886,1,0,0:0:0:0:
256,192,37964,1,8,0:0:0:0:
256,192,38120,1,0,0:0:0:0:
256,192,38199,1,0,0:0:0:0:
256,192,38277,1,8,0:0:0:0:
256,192,38433,1,8,0:0:0:0:
256,192,38511,1,8,0:0:0:0:
256,192,38589,1,0,0:0:0:0:
256,192,38667,1,0,0:0:0:0:
256,192,38745,1,8,0:0:0:0:
256,192,38824,1,8,0:0:0:0:
256,192,38902,1,0,0:0:0:0:
256,192,38980,1,0,0:0:0:0:
256,192,39058,5,0,0:0:0:0:
256,192,39214,1,0,0:0:0:0:
256,192,39292,1,0,0:0:0:0:
256,192,39370,1,8,0:0:0:0:
256,192,39527,1,8,0:0:0:0:
256,192,39683,1,0,0:0:0:0:
256,192,39839,1,0,0:0:0:0:
256,192,39995,1,8,0:0:0:0:
256,192,40308,5,0,0:0:0:0:
256,192,40464,1,0,0:0:0:0:
256,192,40620,1,8,0:0:0:0:
256,192,40933,1,0,0:0:0:0:
256,192,41089,1,0,0:0:0:0:
256,192,41245,1,8,0:0:0:0:
256,192,41401,1,8,0:0:0:0:
256,192,41479,1,8,0:0:0:0:
256,192,41558,5,0,0:0:0:0:
256,192,41714,1,8,0:0:0:0:
256,192,41792,1,0,0:0:0:0:
256,192,41870,1,0,0:0:0:0:
256,192,42026,1,8,0:0:0:0:
256,192,42183,1,0,0:0:0:0:
256,192,42339,1,0,0:0:0:0:
256,192,42495,1,8,0:0:0:0:
256,192,42807,5,0,0:0:0:0:
256,192,42964,1,0,0:0:0:0:
256,192,43120,1,8,0:0:0:0:
256,192,43432,1,0,0:0:0:0:
256,192,43589,1,0,0:0:0:0:
256,192,43745,1,8,0:0:0:0:
256,192,43901,1,8,0:0:0:0:
256,192,43979,1,8,0:0:0:0:
256,192,44057,5,0,0:0:0:0:
256,192,44214,1,0,0:0:0:0:
256,192,44292,1,0,0:0:0:0:
256,192,44370,1,8,0:0:0:0:
256,192,44526,1,8,0:0:0:0:
256,192,44682,1,8,0:0:0:0:
256,192,44839,1,0,0:0:0:0:
256,192,44995,1,8,0:0:0:0:
256,192,45307,5,0,0:0:0:0:
256,192,45463,1,0,0:0:0:0:
256,192,45620,1,8,0:0:0:0:
256,192,45932,1,0,0:0:0:0:
256,192,46088,1,0,0:0:0:0:
256,192,46245,1,8,0:0:0:0:
256,192,46401,1,8,0:0:0:0:
256,192,46479,1,8,0:0:0:0:
256,192,46557,5,0,0:0:0:0:
256,192,46713,1,8,0:0:0:0:
256,192,46791,1,8,0:0:0:0:
256,192,46870,1,0,0:0:0:0:
256,192,47026,1,8,0:0:0:0:
256,192,47182,1,0,0:0:0:0:
256,192,47338,1,0,0:0:0:0:
256,192,47494,1,8,0:0:0:0:
256,192,47807,5,0,0:0:0:0:
256,192,47963,1,0,0:0:0:0:
256,192,48119,1,8,0:0:0:0:
256,192,48432,1,0,0:0:0:0:
256,192,48744,1,8,0:0:0:0:
256,192,49057,5,0,0:0:0:0:
256,192,49213,1,0,0:0:0:0:
256,192,49369,1,8,0:0:0:0:
256,192,49682,1,0,0:0:0:0:
256,192,49838,1,0,0:0:0:0:
256,192,49994,1,8,0:0:0:0:
256,192,50307,5,0,0:0:0:0:
256,192,50463,1,0,0:0:0:0:
256,192,50619,1,8,0:0:0:0:
256,192,50775,1,0,0:0:0:0:
256,192,50932,1,8,0:0:0:0:
256,192,51088,1,0,0:0:0:0:
256,192,51166,1,8,0:0:0:0:
256,192,51244,1,0,0:0:0:0:
256,192,51400,1,0,0:0:0:0:
256,192,51557,5,0,0:0:0:0:
256,192,51713,1,0,0:0:0:0:
256,192,51869,1,8,0:0:0:0:
256,192,52181,1,0,0:0:0:0:
256,192,52338,1,0,0:0:0:0:
256,192,52494,1,8,0:0:0:0:
256,192,52806,5,0,0:0:0:0:
256,192,52963,1,8,0:0:0:0:
256,192,53119,1,8,0:0:0:0:
256,192,53275,1,0,0:0:0:0:
256,192,53431,1,8,0:0:0:0:
256,192,53588,1,0,0:0:0:0:
256,192,53640,1,8,0:0:0:0:
256,192,53692,1,8,0:0:0:0:
256,192,53744,1,0,0:0:0:0:
256,192,53900,1,0,0:0:0:0:
256,192,54056,5,0,0:0:0:0:
256,192,54213,1,0,0:0:0:0:
256,192,54369,1,8,0:0:0:0:
256,192,54681,1,0,0:0:0:0:
256,192,54837,1,0,0:0:0:0:
256,192,54994,1,8,0:0:0:0:
256,192,55306,5,0,0:0:0:0:
256,192,55462,1,0,0:0:0:0:
256,192,55619,1,8,0:0:0:0:
256,192,55775,1,0,0:0:0:0:
256,192,55931,1,8,0:0:0:0:
256,192,56087,1,0,0:0:0:0:
256,192,56139,1,8,0:0:0:0:
256,192,56191,1,8,0:0:0:0:
256,192,56244,1,0,0:0:0:0:
256,192,56400,1,0,0:0:0:0:
256,192,56556,5,0,0:0:0:0:
256,192,56712,1,8,0:0:0:0:
256,192,56868,1,0,0:0:0:0:
256,192,57025,1,0,0:0:0:0:
256,192,57181,1,0,0:0:0:0:
256,192,57493,1,0,0:0:0:0:
256,192,57806,5,0,0:0:0:0:
256,192,58118,1,0,0:0:0:0:
256,192,58431,1,8,0:0:0:0:
256,192,58743,1,0,0:0:0:0:
256,192,58900,1,8,0:0:0:0:
256,192,59056,5,0,0:0:0:0:
256,192,59212,1,0,0:0:0:0:
256,192,59290,1,0,0:0:0:0:
256,192,59368,1,0,0:0:0:0:
256,192,59524,1,0,0:0:0:0:
256,192,59681,1,0,0:0:0:0:
256,192,59759,1,0,0:0:0:0:
256,192,59837,1,0,0:0:0:0:
256,192,59993,1,0,0:0:0:0:
256,192,60071,1,0,0:0:0:0:
256,192,60149,1,8,0:0:0:0:
256,192,60228,1,8,0:0:0:0:
256,192,60306,5,0,0:0:0:0:
256,192,60462,1,8,0:0:0:0:
256,192,60540,1,8,0:0:0:0:
256,192,60618,1,0,0:0:0:0:
256,192,60774,1,8,0:0:0:0:
256,192,60931,1,0,0:0:0:0:
256,192,61009,1,8,0:0:0:0:
256,192,61087,1,0,0:0:0:0:
256,192,61243,1,0,0:0:0:0:
256,192,61321,1,0,0:0:0:0:
256,192,61399,1,8,0:0:0:0:
256,192,61477,1,8,0:0:0:0:
256,192,61556,1,0,0:0:0:0:
256,192,61712,1,8,0:0:0:0:
256,192,61790,1,8,0:0:0:0:
256,192,61868,1,0,0:0:0:0:
256,192,62024,1,8,0:0:0:0:
256,192,62180,1,0,0:0:0:0:
256,192,62259,1,8,0:0:0:0:
256,192,62337,1,0,0:0:0:0:
256,192,62493,1,0,0:0:0:0:
256,192,62571,1,0,0:0:0:0:
256,192,62649,1,8,0:0:0:0:
256,192,62805,1,0,0:0:0:0:
256,192,62962,1,8,0:0:0:0:
256,192,63040,1,8,0:0:0:0:
256,192,63118,1,0,0:0:0:0:
256,192,63274,1,8,0:0:0:0:
256,192,63430,1,8,0:0:0:0:
256,192,63508,1,8,0:0:0:0:
256,192,63587,1,0,0:0:0:0:
256,192,63743,1,8,0:0:0:0:
256,192,63821,1,8,0:0:0:0:
256,192,63899,1,0,0:0:0:0:
256,192,63977,1,8,0:0:0:0:
256,192,64055,5,0,0:0:0:0:
256,192,64211,1,8,0:0:0:0:
256,192,64290,1,8,0:0:0:0:
256,192,64368,1,0,0:0:0:0:
256,192,64524,1,8,0:0:0:0:
256,192,64680,1,0,0:0:0:0:
256,192,64758,1,8,0:0:0:0:
256,192,64836,1,8,0:0:0:0:
256,192,64993,1,0,0:0:0:0:
256,192,65071,1,0,0:0:0:0:
256,192,65149,1,8,0:0:0:0:
256,192,65227,1,8,0:0:0:0:
256,192,65305,5,0,0:0:0:0:
256,192,65461,1,8,0:0:0:0:
256,192,65539,1,8,0:0:0:0:
256,192,65618,1,0,0:0:0:0:
256,192,65774,1,8,0:0:0:0:
256,192,65930,1,0,0:0:0:0:
256,192,66008,1,8,0:0:0:0:
256,192,66086,1,0,0:0:0:0:
256,192,66243,1,0,0:0:0:0:
256,192,66321,1,0,0:0:0:0:
256,192,66399,1,8,0:0:0:0:
256,192,66477,1,8,0:0:0:0:
256,192,66555,5,0,0:0:0:0:
256,192,66711,1,8,0:0:0:0:
256,192,66789,1,8,0:0:0:0:
256,192,66867,1,0,0:0:0:0:
256,192,67024,1,0,0:0:0:0:
256,192,67180,1,8,0:0:0:0:
256,192,67258,1,8,0:0:0:0:
256,192,67336,1,0,0:0:0:0:
256,192,67492,1,8,0:0:0:0:
256,192,67571,1,8,0:0:0:0:
256,192,67649,1,0,0:0:0:0:
256,192,67805,5,12,0:0:0:0:
256,192,69055,5,4,0:0:0:0:
256,192,69211,1,12,0:0:0:0:
256,192,69445,1,12,0:0:0:0:
256,192,69680,1,12,0:0:0:0:
256,192,69836,1,0,0:0:0:0:
256,192,69914,1,0,0:0:0:0:
256,192,69992,1,0,0:0:0:0:
256,192,70070,1,0,0:0:0:0:
256,192,70148,1,0,0:0:0:0:
256,192,70305,5,0,0:0:0:0:
256,192,70461,1,0,0:0:0:0:
256,192,70539,1,0,0:0:0:0:
256,192,70617,1,8,0:0:0:0:
256,192,70773,1,0,0:0:0:0:
256,192,70930,1,0,0:0:0:0:
256,192,71086,1,0,0:0:0:0:
256,192,71164,1,0,0:0:0:0:
256,192,71242,1,8,0:0:0:0:
256,192,71398,1,0,0:0:0:0:
256,192,71554,5,0,0:0:0:0:
256,192,71711,1,0,0:0:0:0:
256,192,71789,1,0,0:0:0:0:
256,192,71867,1,8,0:0:0:0:
256,192,72023,1,0,0:0:0:0:
256,192,72179,1,8,0:0:0:0:
256,192,72258,1,8,0:0:0:0:
256,192,72336,1,0,0:0:0:0:
256,192,72414,1,0,0:0:0:0:
256,192,72492,1,8,0:0:0:0:
256,192,72648,1,0,0:0:0:0:
256,192,72804,5,0,0:0:0:0:
256,192,72961,1,0,0:0:0:0:
256,192,73039,1,0,0:0:0:0:
256,192,73117,1,8,0:0:0:0:
256,192,73273,1,0,0:0:0:0:
256,192,73429,1,0,0:0:0:0:
256,192,73586,1,0,0:0:0:0:
256,192,73664,1,0,0:0:0:0:
256,192,73742,1,8,0:0:0:0:
256,192,73898,1,0,0:0:0:0:
256,192,74054,5,0,0:0:0:0:
256,192,74210,1,0,0:0:0:0:
256,192,74289,1,0,0:0:0:0:
256,192,74367,1,8,0:0:0:0:
256,192,74523,1,0,0:0:0:0:
256,192,74679,1,8,0:0:0:0:
256,192,74835,1,0,0:0:0:0:
256,192,74887,1,8,0:0:0:0:
256,192,74940,1,8,0:0:0:0:
256,192,74992,1,0,0:0:0:0:
256,192,75148,1,8,0:0:0:0:
256,192,75304,5,0,0:0:0:0:
256,192,75460,1,0,0:0:0:0:
256,192,75538,1,0,0:0:0:0:
256,192,75617,1,8,0:0:0:0:
256,192,75773,1,0,0:0:0:0:
256,192,75929,1,0,0:0:0:0:
256,192,76085,1,0,0:0:0:0:
256,192,76163,1,0,0:0:0:0:
256,192,76241,1,8,0:0:0:0:
256,192,76398,1,0,0:0:0:0:
256,192,76554,5,0,0:0:0:0:
256,192,76710,1,0,0:0:0:0:
256,192,76788,1,0,0:0:0:0:
256,192,76866,1,8,0:0:0:0:
256,192,77023,1,0,0:0:0:0:
256,192,77179,1,8,0:0:0:0:
256,192,77257,1,8,0:0:0:0:
256,192,77335,1,0,0:0:0:0:
256,192,77387,1,8,0:0:0:0:
256,192,77439,1,8,0:0:0:0:
256,192,77491,1,0,0:0:0:0:
256,192,77648,1,0,0:0:0:0:
256,192,77804,5,0,0:0:0:0:
256,192,77882,1,8,0:0:0:0:
256,192,77960,1,8,0:0:0:0:
256,192,78038,1,8,0:0:0:0:
256,192,78116,1,0,0:0:0:0:
256,192,78273,1,8,0:0:0:0:
256,192,78429,1,0,0:0:0:0:
256,192,78507,1,8,0:0:0:0:
256,192,78585,1,8,0:0:0:0:
256,192,78741,1,0,0:0:0:0:
256,192,78819,1,0,0:0:0:0:
256,192,78897,1,8,0:0:0:0:
256,192,79054,5,0,0:0:0:0:
256,192,79132,1,0,0:0:0:0:
256,192,79210,1,0,0:0:0:0:
256,192,79288,1,0,0:0:0:0:
256,192,79366,1,8,0:0:0:0:
256,192,79444,1,8,0:0:0:0:
256,192,79522,1,0,0:0:0:0:
256,192,79601,1,0,0:0:0:0:
256,192,79679,1,8,0:0:0:0:
256,192,79757,1,8,0:0:0:0:
256,192,79835,1,0,0:0:0:0:
256,192,79991,1,12,0:0:0:0:
256,192,80147,1,8,0:0:0:0:
256,192,80225,1,8,0:0:0:0:
256,192,80304,5,0,0:0:0:0:
256,192,80460,1,8,0:0:0:0:
256,192,80538,1,8,0:0:0:0:
256,192,80616,1,0,0:0:0:0:
256,192,80772,1,8,0:0:0:0:
256,192,80928,1,0,0:0:0:0:
256,192,81007,1,8,0:0:0:0:
256,192,81085,1,8,0:0:0:0:
256,192,81163,1,0,0:0:0:0:
256,192,81241,1,0,0:0:0:0:
256,192,81397,1,8,0:0:0:0:
256,192,81553,5,0,0:0:0:0:
256,192,81710,1,8,0:0:0:0:
256,192,81788,1,8,0:0:0:0:
256,192,81866,1,0,0:0:0:0:
256,192,82022,1,8,0:0:0:0:
256,192,82178,1,0,0:0:0:0:
256,192,82256,1,8,0:0:0:0:
256,192,82335,1,8,0:0:0:0:
256,192,82413,1,8,0:0:0:0:
256,192,82491,1,0,0:0:0:0:
256,192,82647,1,8,0:0:0:0:
256,192,82803,5,0,0:0:0:0:
256,192,82960,1,8,0:0:0:0:
256,192,83038,1,8,0:0:0:0:
256,192,83116,1,0,0:0:0:0:
256,192,83272,1,8,0:0:0:0:
256,192,83428,1,0,0:0:0:0:
256,192,83506,1,8,0:0:0:0:
256,192,83584,1,0,0:0:0:0:
256,192,83663,1,0,0:0:0:0:
256,192,83741,1,8,0:0:0:0:
256,192,83897,1,0,0:0:0:0:
256,192,84053,5,0,0:0:0:0:
256,192,84209,1,8,0:0:0:0:
256,192,84288,1,8,0:0:0:0:
256,192,84366,1,0,0:0:0:0:
256,192,84522,1,0,0:0:0:0:
256,192,84678,1,8,0:0:0:0:
256,192,84756,1,8,0:0:0:0:
256,192,84834,1,0,0:0:0:0:
256,192,84991,1,0,0:0:0:0:
256,192,85069,1,0,0:0:0:0:
256,192,85147,1,8,0:0:0:0:
256,192,85225,1,8,0:0:0:0:
256,192,85303,5,0,0:0:0:0:
256,192,85459,1,8,0:0:0:0:
256,192,85537,1,8,0:0:0:0:
256,192,85616,1,0,0:0:0:0:
256,192,85772,1,0,0:0:0:0:
256,192,85928,1,8,0:0:0:0:
256,192,86006,1,8,0:0:0:0:
256,192,86084,1,0,0:0:0:0:
256,192,86240,1,0,0:0:0:0:
256,192,86319,1,0,0:0:0:0:
256,192,86397,1,8,0:0:0:0:
256,192,86475,1,8,0:0:0:0:
256,192,86553,5,0,0:0:0:0:
256,192,86709,1,8,0:0:0:0:
256,192,86787,1,8,0:0:0:0:
256,192,86865,1,0,0:0:0:0:
256,192,87022,1,8,0:0:0:0:
256,192,87178,1,0,0:0:0:0:
256,192,87256,1,8,0:0:0:0:
256,192,87334,1,0,0:0:0:0:
256,192,87412,1,0,0:0:0:0:
256,192,87490,1,0,0:0:0:0:
256,192,87568,1,8,0:0:0:0:
256,192,87647,1,0,0:0:0:0:
256,192,87803,5,8,0:0:0:0:
256,192,87959,1,0,0:0:0:0:
256,192,88037,1,0,0:0:0:0:
256,192,88115,1,8,0:0:0:0:
256,192,88271,1,0,0:0:0:0:
256,192,88428,1,8,0:0:0:0:
256,192,88506,1,8,0:0:0:0:
256,192,88584,1,0,0:0:0:0:
256,192,88740,1,8,0:0:0:0:
256,192,88818,1,8,0:0:0:0:
256,192,88896,1,0,0:0:0:0:
256,192,88975,1,0,0:0:0:0:
256,192,89053,1,8,0:0:0:0:
256,192,89365,1,8,0:0:0:0:
256,192,89678,1,12,0:0:0:0:
256,192,89834,1,12,0:0:0:0:
256,192,89990,1,12,0:0:0:0:
256,192,90146,1,8,0:0:0:0:
256,192,90224,1,8,0:0:0:0:
256,192,90303,5,0,0:0:0:0:
256,192,90459,1,0,0:0:0:0:
256,192,90537,1,0,0:0:0:0:
256,192,90615,1,8,0:0:0:0:
256,192,90771,1,0,0:0:0:0:
256,192,90927,1,8,0:0:0:0:
256,192,91006,1,8,0:0:0:0:
256,192,91084,1,0,0:0:0:0:
256,192,91240,1,0,0:0:0:0:
256,192,91318,1,0,0:0:0:0:
256,192,91396,1,8,0:0:0:0:
256,192,91552,5,0,0:0:0:0:
256,192,91709,1,0,0:0:0:0:
256,192,91787,1,0,0:0:0:0:
256,192,91865,1,8,0:0:0:0:
256,192,92021,1,0,0:0:0:0:
256,192,92177,1,8,0:0:0:0:
256,192,92255,1,8,0:0:0:0:
256,192,92334,1,0,0:0:0:0:
256,192,92490,1,8,0:0:0:0:
256,192,92568,1,0,0:0:0:0:
256,192,92646,1,0,0:0:0:0:
256,192,92802,5,0,0:0:0:0:
256,192,92958,1,0,0:0:0:0:
256,192,93037,1,8,0:0:0:0:
256,192,93115,1,8,0:0:0:0:
256,192,93271,1,0,0:0:0:0:
256,192,93427,1,8,0:0:0:0:
256,192,93505,1,8,0:0:0:0:
256,192,93583,1,0,0:0:0:0:
256,192,93740,1,0,0:0:0:0:
256,192,93818,1,8,0:0:0:0:
256,192,93896,1,8,0:0:0:0:
256,192,94052,5,8,0:0:0:0:
256,192,94208,1,8,0:0:0:0:
256,192,94286,1,0,0:0:0:0:
256,192,94365,1,8,0:0:0:0:
256,192,94521,1,0,0:0:0:0:
256,192,94677,1,8,0:0:0:0:
256,192,94755,1,8,0:0:0:0:
256,192,94833,1,0,0:0:0:0:
256,192,94911,1,0,0:0:0:0:
256,192,94990,1,8,0:0:0:0:
256,192,95068,1,8,0:0:0:0:
256,192,95146,1,0,0:0:0:0:
256,192,95224,1,0,0:0:0:0:
256,192,95302,5,0,0:0:0:0:
256,192,95458,1,0,0:0:0:0:
256,192,95536,1,8,0:0:0:0:
256,192,95614,1,8,0:0:0:0:
256,192,95771,1,0,0:0:0:0:
256,192,95927,1,8,0:0:0:0:
256,192,96005,1,8,0:0:0:0:
256,192,96083,1,0,0:0:0:0:
256,192,96239,1,0,0:0:0:0:
256,192,96318,1,0,0:0:0:0:
256,192,96396,1,8,0:0:0:0:
256,192,96474,1,8,0:0:0:0:
256,192,96708,5,0,0:0:0:0:
256,192,96786,1,0,0:0:0:0:
256,192,96864,1,8,0:0:0:0:
256,192,96942,1,8,0:0:0:0:
256,192,97021,1,0,0:0:0:0:
256,192,97099,1,8,0:0:0:0:
256,192,97177,1,8,0:0:0:0:
256,192,97255,1,8,0:0:0:0:
256,192,97333,1,0,0:0:0:0:
256,192,97411,1,8,0:0:0:0:
256,192,97489,1,8,0:0:0:0:
256,192,97567,1,8,0:0:0:0:
256,192,97646,1,0,0:0:0:0:
256,192,97724,1,0,0:0:0:0:
256,192,97802,5,0,0:0:0:0:
256,192,97958,1,0,0:0:0:0:
256,192,98036,1,0,0:0:0:0:
256,192,98114,1,8,0:0:0:0:
256,192,98270,1,0,0:0:0:0:
256,192,98427,1,8,0:0:0:0:
256,192,98505,1,8,0:0:0:0:
256,192,98583,1,0,0:0:0:0:
256,192,98739,1,0,0:0:0:0:
256,192,98817,1,0,0:0:0:0:
256,192,98895,1,8,0:0:0:0:
256,192,98973,1,8,0:0:0:0:
256,192,99052,5,0,0:0:0:0:
256,192,99208,1,8,0:0:0:0:
256,192,99364,1,0,0:0:0:0:
256,192,99442,1,0,0:0:0:0:
256,192,99520,1,8,0:0:0:0:
256,192,99677,1,0,0:0:0:0:
256,192,99755,1,0,0:0:0:0:
256,192,99833,1,8,0:0:0:0:
256,192,99989,1,0,0:0:0:0:
256,192,100067,1,0,0:0:0:0:
256,192,100145,1,0,0:0:0:0:
256,192,100223,1,0,0:0:0:0:
256,192,100301,5,0,0:0:0:0:
256,192,100458,1,0,0:0:0:0:
256,192,100536,1,0,0:0:0:0:
256,192,100614,1,8,0:0:0:0:
256,192,100770,1,0,0:0:0:0:
256,192,100926,1,8,0:0:0:0:
256,192,101005,1,8,0:0:0:0:
256,192,101083,1,0,0:0:0:0:
256,192,101239,1,0,0:0:0:0:
256,192,101317,1,0,0:0:0:0:
256,192,101395,1,8,0:0:0:0:
256,192,101473,1,8,0:0:0:0:
256,192,101551,5,0,0:0:0:0:
256,192,101708,1,8,0:0:0:0:
256,192,101786,1,8,0:0:0:0:
256,192,101864,1,0,0:0:0:0:
256,192,102020,1,8,0:0:0:0:
256,192,102176,1,8,0:0:0:0:
256,192,102254,1,8,0:0:0:0:
256,192,102333,1,0,0:0:0:0:
256,192,102489,1,8,0:0:0:0:
256,192,102567,1,8,0:0:0:0:
256,192,102645,1,8,0:0:0:0:
256,192,102723,1,0,0:0:0:0:
256,192,102801,5,0,0:0:0:0:
256,192,102957,1,8,0:0:0:0:
256,192,103036,1,8,0:0:0:0:
256,192,103114,1,8,0:0:0:0:
256,192,103270,1,0,0:0:0:0:
256,192,103426,1,8,0:0:0:0:
256,192,103504,1,8,0:0:0:0:
256,192,103582,1,0,0:0:0:0:
256,192,103739,1,0,0:0:0:0:
256,192,103817,1,0,0:0:0:0:
256,192,103895,1,8,0:0:0:0:
256,192,103973,1,8,0:0:0:0:
256,192,104207,5,0,0:0:0:0:
256,192,104285,1,0,0:0:0:0:
256,192,104364,1,0,0:0:0:0:
256,192,104520,1,8,0:0:0:0:
256,192,104676,1,8,0:0:0:0:
256,192,104754,1,8,0:0:0:0:
256,192,104832,1,0,0:0:0:0:
256,192,104910,1,8,0:0:0:0:
256,192,104988,1,0,0:0:0:0:
256,192,105067,1,0,0:0:0:0:
256,192,105145,1,0,0:0:0:0:
256,192,105301,5,12,0:0:0:0:
256,192,105457,1,0,0:0:0:0:
256,192,105613,1,0,0:0:0:0:
256,192,105926,1,12,0:0:0:0:
256,192,106082,1,0,0:0:0:0:
256,192,106238,1,0,0:0:0:0:
256,192,106395,1,12,0:0:0:0:
256,192,106707,5,12,0:0:0:0:
256,192,106863,1,12,0:0:0:0:
256,192,107020,1,12,0:0:0:0:
256,192,107176,1,12,0:0:0:0:
256,192,107332,1,12,0:0:0:0:
256,192,107488,1,12,0:0:0:0:
256,192,107644,1,12,0:0:0:0:
256,192,107801,5,0,0:0:0:0:
256,192,107879,1,0,0:0:0:0:
256,192,107957,1,8,0:0:0:0:
256,192,108035,1,0,0:0:0:0:
256,192,108113,1,0,0:0:0:0:
256,192,108191,1,0,0:0:0:0:
256,192,108269,1,8,0:0:0:0:
256,192,108348,1,0,0:0:0:0:
256,192,108426,1,0,0:0:0:0:
256,192,108504,1,0,0:0:0:0:
256,192,108582,1,8,0:0:0:0:
256,192,108660,1,0,0:0:0:0:
256,192,108738,1,0,0:0:0:0:
256,192,108816,1,0,0:0:0:0:
256,192,108894,1,8,0:0:0:0:
256,192,108972,1,8,0:0:0:0:
256,192,109051,5,0,0:0:0:0:
256,192,109129,1,8,0:0:0:0:
256,192,109207,1,0,0:0:0:0:
256,192,109285,1,0,0:0:0:0:
256,192,109363,1,0,0:0:0:0:
256,192,109441,1,8,0:0:0:0:
256,192,109519,1,0,0:0:0:0:
256,192,109597,1,0,0:0:0:0:
256,192,109675,1,0,0:0:0:0:
256,192,109754,1,8,0:0:0:0:
256,192,109832,1,0,0:0:0:0:
256,192,109910,1,0,0:0:0:0:
256,192,109988,1,8,0:0:0:0:
256,192,110066,1,8,0:0:0:0:
256,192,110144,1,0,0:0:0:0:
256,192,110222,1,0,0:0:0:0:
256,192,110300,5,8,0:0:0:0:
256,192,110379,1,0,0:0:0:0:
256,192,110457,1,0,0:0:0:0:
256,192,110535,1,8,0:0:0:0:
256,192,110613,1,8,0:0:0:0:
256,192,110691,1,0,0:0:0:0:
256,192,110769,1,0,0:0:0:0:
256,192,110847,1,8,0:0:0:0:
256,192,110925,1,8,0:0:0:0:
256,192,111003,1,0,0:0:0:0:
256,192,111082,1,0,0:0:0:0:
256,192,111160,1,8,0:0:0:0:
256,192,111238,1,8,0:0:0:0:
256,192,111316,1,8,0:0:0:0:
256,192,111394,1,0,0:0:0:0:
256,192,111472,1,8,0:0:0:0:
256,192,111550,5,8,0:0:0:0:
256,192,111628,1,8,0:0:0:0:
256,192,111707,1,0,0:0:0:0:
256,192,111785,1,8,0:0:0:0:
256,192,111863,1,8,0:0:0:0:
256,192,111941,1,8,0:0:0:0:
256,192,112019,1,0,0:0:0:0:
256,192,112097,1,8,0:0:0:0:
256,192,112175,1,8,0:0:0:0:
256,192,112253,1,8,0:0:0:0:
256,192,112331,1,0,0:0:0:0:
256,192,112410,1,8,0:0:0:0:
256,192,112488,1,8,0:0:0:0:
256,192,112566,1,8,0:0:0:0:
256,192,112644,1,0,0:0:0:0:
256,192,112722,1,0,0:0:0:0:
256,192,112800,5,8,0:0:0:0:
256,192,112878,1,0,0:0:0:0:
256,192,112956,1,0,0:0:0:0:
256,192,113035,1,8,0:0:0:0:
256,192,113113,1,8,0:0:0:0:
256,192,113191,1,0,0:0:0:0:
256,192,113269,1,0,0:0:0:0:
256,192,113347,1,8,0:0:0:0:
256,192,113425,1,8,0:0:0:0:
256,192,113503,1,0,0:0:0:0:
256,192,113581,1,8,0:0:0:0:
256,192,113659,1,8,0:0:0:0:
256,192,113738,1,8,0:0:0:0:
256,192,113816,1,0,0:0:0:0:
256,192,113894,1,8,0:0:0:0:
256,192,113972,1,8,0:0:0:0:
256,192,114050,5,8,0:0:0:0:
256,192,114128,1,8,0:0:0:0:
256,192,114206,1,0,0:0:0:0:
256,192,114284,1,0,0:0:0:0:
256,192,114363,1,8,0:0:0:0:
256,192,114441,1,8,0:0:0:0:
256,192,114519,1,0,0:0:0:0:
256,192,114597,1,0,0:0:0:0:
256,192,114675,1,8,0:0:0:0:
256,192,114753,1,8,0:0:0:0:
256,192,114831,1,0,0:0:0:0:
256,192,114909,1,0,0:0:0:0:
256,192,114987,1,0,0:0:0:0:
256,192,115066,1,8,0:0:0:0:
256,192,115144,1,8,0:0:0:0:
256,192,115222,1,0,0:0:0:0:
256,192,115300,5,8,0:0:0:0:
256,192,115378,1,0,0:0:0:0:
256,192,115456,1,0,0:0:0:0:
256,192,115534,1,0,0:0:0:0:
256,192,115612,1,8,0:0:0:0:
256,192,115690,1,0,0:0:0:0:
256,192,115769,1,0,0:0:0:0:
256,192,115847,1,0,0:0:0:0:
256,192,115925,1,8,0:0:0:0:
256,192,116003,1,0,0:0:0:0:
256,192,116081,1,0,0:0:0:0:
256,192,116159,1,0,0:0:0:0:
256,192,116237,1,8,0:0:0:0:
256,192,116315,1,8,0:0:0:0:
256,192,116394,1,0,0:0:0:0:
256,192,116472,1,0,0:0:0:0:
256,192,116550,5,0,0:0:0:0:
256,192,116628,1,0,0:0:0:0:
256,192,116706,1,8,0:0:0:0:
256,192,116784,1,0,0:0:0:0:
256,192,116862,1,0,0:0:0:0:
256,192,116940,1,0,0:0:0:0:
256,192,117018,1,8,0:0:0:0:
256,192,117097,1,8,0:0:0:0:
256,192,117175,1,0,0:0:0:0:
256,192,117253,1,0,0:0:0:0:
256,192,117331,1,8,0:0:0:0:
256,192,117409,1,0,0:0:0:0:
256,192,117487,1,0,0:0:0:0:
256,192,117565,1,0,0:0:0:0:
256,192,117643,1,8,0:0:0:0:
256,192,117722,1,8,0:0:0:0:
256,192,117800,5,0,0:0:0:0:
256,192,117878,1,0,0:0:0:0:
256,192,117956,1,8,0:0:0:0:
256,192,118034,1,0,0:0:0:0:
256,192,118112,1,0,0:0:0:0:
256,192,118190,1,0,0:0:0:0:
256,192,118268,1,8,0:0:0:0:
256,192,118346,1,0,0:0:0:0:
256,192,118425,1,0,0:0:0:0:
256,192,118503,1,0,0:0:0:0:
256,192,118581,1,8,0:0:0:0:
256,192,118659,1,0,0:0:0:0:
256,192,118737,1,0,0:0:0:0:
256,192,118815,1,0,0:0:0:0:
256,192,118893,1,8,0:0:0:0:
256,192,118971,1,8,0:0:0:0:
256,192,119050,5,0,0:0:0:0:
256,192,119128,1,8,0:0:0:0:
256,192,119206,1,0,0:0:0:0:
256,192,119284,1,0,0:0:0:0:
256,192,119362,1,8,0:0:0:0:
256,192,119440,1,0,0:0:0:0:
256,192,119518,1,0,0:0:0:0:
256,192,119596,1,8,0:0:0:0:
256,192,119674,1,0,0:0:0:0:
256,192,119753,1,8,0:0:0:0:
256,192,119831,1,0,0:0:0:0:
256,192,119909,1,0,0:0:0:0:
256,192,119987,1,8,0:0:0:0:
256,192,120065,1,0,0:0:0:0:
256,192,120143,1,0,0:0:0:0:
256,192,120221,1,8,0:0:0:0:
256,192,120299,5,0,0:0:0:0:
256,192,120378,1,8,0:0:0:0:
256,192,120456,1,0,0:0:0:0:
256,192,120534,1,0,0:0:0:0:
256,192,120612,1,8,0:0:0:0:
256,192,120690,1,8,0:0:0:0:
256,192,120768,1,0,0:0:0:0:
256,192,120846,1,0,0:0:0:0:
256,192,120924,1,0,0:0:0:0:
256,192,121002,1,8,0:0:0:0:
256,192,121081,1,0,0:0:0:0:
256,192,121159,1,0,0:0:0:0:
256,192,121237,1,8,0:0:0:0:
256,192,121315,1,0,0:0:0:0:
256,192,121393,1,0,0:0:0:0:
256,192,121471,1,8,0:0:0:0:
256,192,121549,5,0,0:0:0:0:
256,192,121627,1,0,0:0:0:0:
256,192,121705,1,0,0:0:0:0:
256,192,121784,1,8,0:0:0:0:
256,192,121862,1,0,0:0:0:0:
256,192,121940,1,8,0:0:0:0:
256,192,122018,1,0,0:0:0:0:
256,192,122096,1,0,0:0:0:0:
256,192,122174,1,0,0:0:0:0:
256,192,122252,1,8,0:0:0:0:
256,192,122330,1,0,0:0:0:0:
256,192,122409,1,8,0:0:0:0:
256,192,122487,1,8,0:0:0:0:
256,192,122565,1,8,0:0:0:0:
256,192,122643,1,0,0:0:0:0:
256,192,122721,1,0,0:0:0:0:
256,192,122799,5,0,0:0:0:0:
256,192,122877,1,0,0:0:0:0:
256,192,122955,1,8,0:0:0:0:
256,192,123033,1,0,0:0:0:0:
256,192,123112,1,8,0:0:0:0:
256,192,123190,1,0,0:0:0:0:
256,192,123268,1,8,0:0:0:0:
256,192,123424,1,0,0:0:0:0:
256,192,123502,1,0,0:0:0:0:
256,192,123580,1,8,0:0:0:0:
256,192,123658,1,0,0:0:0:0:
256,192,123737,1,8,0:0:0:0:
256,192,123815,1,0,0:0:0:0:
256,192,123893,1,8,0:0:0:0:
256,192,124049,5,0,0:0:0:0:
256,192,124127,1,0,0:0:0:0:
256,192,124205,1,8,0:0:0:0:
256,192,124283,1,0,0:0:0:0:
256,192,124361,1,8,0:0:0:0:
256,192,124440,1,0,0:0:0:0:
256,192,124518,1,8,0:0:0:0:
256,192,124596,1,8,0:0:0:0:
256,192,124674,1,8,0:0:0:0:
256,192,124752,1,8,0:0:0:0:
256,192,124830,1,0,0:0:0:0:
256,192,124908,1,0,0:0:0:0:
256,192,124986,1,8,0:0:0:0:
256,192,125065,1,8,0:0:0:0:
256,192,125143,1,0,0:0:0:0:
256,192,125221,1,0,0:0:0:0:
256,192,125299,5,0,0:0:0:0:
256,192,125455,1,8,0:0:0:0:
256,192,125533,1,8,0:0:0:0:
256,192,125611,1,0,0:0:0:0:
256,192,125768,1,8,0:0:0:0:
256,192,125846,1,0,0:0:0:0:
256,192,126002,1,8,0:0:0:0:
256,192,126080,1,0,0:0:0:0:
256,192,126236,1,8,0:0:0:0:
256,192,126393,1,8,0:0:0:0:
256,192,126549,5,0,0:0:0:0:
256,192,126705,1,8,0:0:0:0:
256,192,126783,1,0,0:0:0:0:
256,192,126939,1,8,0:0:0:0:
256,192,127017,1,0,0:0:0:0:
256,192,127174,1,0,0:0:0:0:
256,192,127252,1,8,0:0:0:0:
256,192,127408,1,8,0:0:0:0:
256,192,127486,1,0,0:0:0:0:
256,192,127642,1,0,0:0:0:0:
256,192,127799,5,0,0:0:0:0:
256,192,127877,1,8,0:0:0:0:
256,192,128033,1,8,0:0:0:0:
256,192,128111,1,0,0:0:0:0:
256,192,128267,1,0,0:0:0:0:
256,192,128345,1,0,0:0:0:0:
256,192,128424,1,0,0:0:0:0:
256,192,128502,1,8,0:0:0:0:
256,192,128658,1,8,0:0:0:0:
256,192,128736,1,0,0:0:0:0:
256,192,128892,1,8,0:0:0:0:
256,192,129048,5,0,0:0:0:0:
256,192,129127,1,0,0:0:0:0:
256,192,129205,1,8,0:0:0:0:
256,192,129361,1,0,0:0:0:0:
256,192,129439,1,8,0:0:0:0:
256,192,129595,1,8,0:0:0:0:
256,192,129673,1,0,0:0:0:0:
256,192,129752,1,8,0:0:0:0:
256,192,129908,1,8,0:0:0:0:
256,192,129986,1,0,0:0:0:0:
256,192,130064,1,0,0:0:0:0:
256,192,130142,1,8,0:0:0:0:
256,192,130298,5,8,0:0:0:0:
256,192,130376,1,0,0:0:0:0:
256,192,130455,1,8,0:0:0:0:
256,192,130611,1,8,0:0:0:0:
256,192,130767,1,8,0:0:0:0:
256,192,130845,1,0,0:0:0:0:
256,192,130923,1,8,0:0:0:0:
256,192,131080,1,8,0:0:0:0:
256,192,131158,1,0,0:0:0:0:
256,192,131236,1,8,0:0:0:0:
256,192,131314,1,0,0:0:0:0:
256,192,131392,1,8,0:0:0:0:
256,192,131548,5,8,0:0:0:0:
256,192,131626,1,0,0:0:0:0:
256,192,131705,1,8,0:0:0:0:
256,192,131861,1,8,0:0:0:0:
256,192,132017,1,8,0:0:0:0:
256,192,132095,1,0,0:0:0:0:
256,192,132173,1,8,0:0:0:0:
256,192,132330,1,8,0:0:0:0:
256,192,132408,1,0,0:0:0:0:
256,192,132486,1,8,0:0:0:0:
256,192,132564,1,0,0:0:0:0:
256,192,132642,1,8,0:0:0:0:
256,192,132798,5,8,0:0:0:0:
256,192,132876,1,0,0:0:0:0:
256,192,132955,1,8,0:0:0:0:
256,192,133111,1,8,0:0:0:0:
256,192,133267,1,8,0:0:0:0:
256,192,133345,1,0,0:0:0:0:
256,192,133423,1,8,0:0:0:0:
256,192,133580,1,8,0:0:0:0:
256,192,133658,1,0,0:0:0:0:
256,192,133736,1,8,0:0:0:0:
256,192,133814,1,0,0:0:0:0:
256,192,133892,1,8,0:0:0:0:
256,192,134048,5,8,0:0:0:0:
256,192,134126,1,0,0:0:0:0:
256,192,134204,1,8,0:0:0:0:
256,192,134360,1,8,0:0:0:0:
256,192,134439,1,0,0:0:0:0:
256,192,134517,1,8,0:0:0:0:
256,192,134673,1,8,0:0:0:0:
256,192,134751,1,0,0:0:0:0:
256,192,134829,1,8,0:0:0:0:
256,192,134985,1,8,0:0:0:0:
256,192,135063,1,8,0:0:0:0:
256,192,135142,1,0,0:0:0:0:
256,192,135220,1,0,0:0:0:0:
256,192,135298,5,0,0:0:0:0:
256,192,135454,1,8,0:0:0:0:
256,192,135532,1,0,0:0:0:0:
256,192,135610,1,8,0:0:0:0:
256,192,135767,1,0,0:0:0:0:
256,192,135845,1,8,0:0:0:0:
256,192,136001,1,8,0:0:0:0:
256,192,136079,1,0,0:0:0:0:
256,192,136235,1,8,0:0:0:0:
256,192,136391,1,0,0:0:0:0:
256,192,136470,1,0,0:0:0:0:
256,192,136548,5,0,0:0:0:0:
256,192,136626,1,8,0:0:0:0:
256,192,136782,1,8,0:0:0:0:
256,192,136860,1,0,0:0:0:0:
256,192,137016,1,0,0:0:0:0:
256,192,137095,1,8,0:0:0:0:
256,192,137173,1,8,0:0:0:0:
256,192,137251,1,0,0:0:0:0:
256,192,137407,1,8,0:0:0:0:
256,192,137485,1,0,0:0:0:0:
256,192,137641,1,8,0:0:0:0:
256,192,137798,5,0,0:0:0:0:
256,192,137876,1,0,0:0:0:0:
256,192,137954,1,8,0:0:0:0:
256,192,138110,1,0,0:0:0:0:
256,192,138188,1,8,0:0:0:0:
256,192,138344,1,8,0:0:0:0:
256,192,138423,1,0,0:0:0:0:
256,192,138501,1,8,0:0:0:0:
256,192,138657,1,8,0:0:0:0:
256,192,138735,1,0,0:0:0:0:
256,192,138891,1,0,0:0:0:0:
256,192,139047,5,0,0:0:0:0:
256,192,139204,1,0,0:0:0:0:
256,192,139282,1,0,0:0:0:0:
256,192,139360,1,8,0:0:0:0:
256,192,139438,1,8,0:0:0:0:
256,192,139594,1,8,0:0:0:0:
256,192,139672,1,0,0:0:0:0:
256,192,139829,1,0,0:0:0:0:
256,192,139907,1,0,0:0:0:0:
256,192,139985,1,8,0:0:0:0:
256,192,140141,1,0,0:0:0:0:
256,192,140297,5,8,0:0:0:0:
256,192,140375,1,0,0:0:0:0:
256,192,140454,1,8,0:0:0:0:
256,192,140610,1,8,0:0:0:0:
256,192,140766,1,8,0:0:0:0:
256,192,140844,1,0,0:0:0:0:
256,192,140922,1,8,0:0:0:0:
256,192,141079,1,8,0:0:0:0:
256,192,141157,1,0,0:0:0:0:
256,192,141235,1,8,0:0:0:0:
256,192,141313,1,0,0:0:0:0:
256,192,141391,1,8,0:0:0:0:
256,192,141547,5,8,0:0:0:0:
256,192,141625,1,0,0:0:0:0:
256,192,141704,1,8,0:0:0:0:
256,192,141860,1,8,0:0:0:0:
256,192,142016,1,8,0:0:0:0:
256,192,142094,1,0,0:0:0:0:
256,192,142172,1,8,0:0:0:0:
256,192,142329,1,8,0:0:0:0:
256,192,142407,1,0,0:0:0:0:
256,192,142485,1,8,0:0:0:0:
256,192,142563,1,0,0:0:0:0:
256,192,142641,1,8,0:0:0:0:
256,192,142797,5,8,0:0:0:0:
256,192,142875,1,0,0:0:0:0:
256,192,142954,1,8,0:0:0:0:
256,192,143110,1,8,0:0:0:0:
256,192,143266,1,8,0:0:0:0:
256,192,143344,1,0,0:0:0:0:
256,192,143422,1,8,0:0:0:0:
256,192,143579,1,8,0:0:0:0:
256,192,143657,1,0,0:0:0:0:
256,192,143735,1,8,0:0:0:0:
256,192,143813,1,0,0:0:0:0:
256,192,143891,1,8,0:0:0:0:
256,192,144047,5,0,0:0:0:0:
256,192,144125,1,0,0:0:0:0:
256,192,144203,1,8,0:0:0:0:
256,192,144359,1,0,0:0:0:0:
256,192,144438,1,0,0:0:0:0:
256,192,144516,1,8,0:0:0:0:
256,192,144672,1,0,0:0:0:0:
256,192,144750,1,0,0:0:0:0:
256,192,144828,1,8,0:0:0:0:
256,192,144984,1,8,0:0:0:0:
256,192,145062,1,8,0:0:0:0:
256,192,145141,1,0,0:0:0:0:
256,192,145219,1,0,0:0:0:0:
256,192,145297,5,8,0:0:0:0:
256,192,145453,1,0,0:0:0:0:
256,192,145531,1,8,0:0:0:0:
256,192,145687,1,0,0:0:0:0:
256,192,145765,1,8,0:0:0:0:
256,192,145922,1,8,0:0:0:0:
256,192,146000,1,8,0:0:0:0:
256,192,146078,1,8,0:0:0:0:
256,192,146156,1,8,0:0:0:0:
256,192,146234,1,8,0:0:0:0:
256,192,146312,1,8,0:0:0:0:
256,192,146390,1,8,0:0:0:0:
256,192,146547,5,8,0:0:0:0:
256,192,146703,1,0,0:0:0:0:
256,192,146781,1,8,0:0:0:0:
256,192,146937,1,0,0:0:0:0:
256,192,147015,1,8,0:0:0:0:
256,192,147172,1,8,0:0:0:0:
256,192,147250,1,8,0:0:0:0:
256,192,147328,1,0,0:0:0:0:
256,192,147406,1,0,0:0:0:0:
256,192,147484,1,8,0:0:0:0:
256,192,147562,1,8,0:0:0:0:
256,192,147640,1,0,0:0:0:0:
256,192,147797,5,0,0:0:0:0:
256,192,147953,1,8,0:0:0:0:
256,192,148031,1,0,0:0:0:0:
256,192,148187,1,0,0:0:0:0:
256,192,148265,1,8,0:0:0:0:
256,192,148421,1,0,0:0:0:0:
256,192,148500,1,0,0:0:0:0:
256,192,148578,1,0,0:0:0:0:
256,192,148656,1,0,0:0:0:0:
256,192,148734,1,8,0:0:0:0:
256,192,148812,1,8,0:0:0:0:
256,192,148890,1,0,0:0:0:0:
256,192,149046,5,0,0:0:0:0:
256,192,149203,1,8,0:0:0:0:
256,192,149281,1,0,0:0:0:0:
256,192,149437,1,0,0:0:0:0:
256,192,149515,1,8,0:0:0:0:
256,192,149671,1,0,0:0:0:0:
256,192,149749,1,8,0:0:0:0:
256,192,149828,1,8,0:0:0:0:
256,192,149906,1,8,0:0:0:0:
256,192,149984,1,0,0:0:0:0:
256,192,150062,1,0,0:0:0:0:
256,192,150140,1,8,0:0:0:0:
256,192,150296,5,0,0:0:0:0:
256,192,150453,1,8,0:0:0:0:
256,192,150531,1,0,0:0:0:0:
256,192,150687,1,0,0:0:0:0:
256,192,150765,1,8,0:0:0:0:
256,192,150921,1,8,0:0:0:0:
256,192,150999,1,8,0:0:0:0:
256,192,151156,1,8,0:0:0:0:
256,192,151234,1,0,0:0:0:0:
256,192,151312,1,0,0:0:0:0:
256,192,151390,1,8,0:0:0:0:
256,192,151546,5,0,0:0:0:0:
256,192,151702,1,8,0:0:0:0:
256,192,151780,1,8,0:0:0:0:
256,192,151937,1,0,0:0:0:0:
256,192,152015,1,8,0:0:0:0:
256,192,152171,1,0,0:0:0:0:
256,192,152249,1,8,0:0:0:0:
256,192,152405,1,8,0:0:0:0:
256,192,152484,1,0,0:0:0:0:
256,192,152562,1,0,0:0:0:0:
256,192,152640,1,8,0:0:0:0:
256,192,152796,5,0,0:0:0:0:
256,192,152952,1,8,0:0:0:0:
256,192,153030,1,0,0:0:0:0:
256,192,153187,1,0,0:0:0:0:
256,192,153265,1,8,0:0:0:0:
256,192,153421,1,0,0:0:0:0:
256,192,153499,1,0,0:0:0:0:
256,192,153655,1,8,0:0:0:0:
256,192,153733,1,8,0:0:0:0:
256,192,153812,1,8,0:0:0:0:
256,192,153890,1,0,0:0:0:0:
256,192,154046,5,0,0:0:0:0:
256,192,154202,1,8,0:0:0:0:
256,192,154280,1,8,0:0:0:0:
256,192,154358,1,0,0:0:0:0:
256,192,154515,1,8,0:0:0:0:
256,192,154593,1,8,0:0:0:0:
256,192,154749,1,0,0:0:0:0:
256,192,154827,1,8,0:0:0:0:
256,192,154983,1,0,0:0:0:0:
256,192,155061,1,0,0:0:0:0:
256,192,155140,1,8,0:0:0:0:
256,192,155296,5,0,0:0:0:0:
256,192,155374,1,0,0:0:0:0:
256,192,155452,1,8,0:0:0:0:
256,192,155530,1,8,0:0:0:0:
256,192,155608,1,0,0:0:0:0:
256,192,155764,1,8,0:0:0:0:
256,192,155843,1,8,0:0:0:0:
256,192,155999,1,0,0:0:0:0:
256,192,156077,1,8,0:0:0:0:
256,192,156155,1,8,0:0:0:0:
256,192,156233,1,0,0:0:0:0:
256,192,156311,1,0,0:0:0:0:
256,192,156389,1,8,0:0:0:0:
256,192,156467,1,0,0:0:0:0:
256,192,156546,5,0,0:0:0:0:
256,192,156624,1,0,0:0:0:0:
256,192,156702,1,0,0:0:0:0:
256,192,156780,1,0,0:0:0:0:
256,192,156858,1,8,0:0:0:0:
256,192,156936,1,8,0:0:0:0:
256,192,157014,1,8,0:0:0:0:
256,192,157092,1,8,0:0:0:0:
256,192,157171,1,0,0:0:0:0:
256,192,157249,1,0,0:0:0:0:
256,192,157327,1,8,0:0:0:0:
256,192,157405,1,8,0:0:0:0:
256,192,157483,1,0,0:0:0:0:
256,192,157561,1,0,0:0:0:0:
256,192,157639,1,8,0:0:0:0:
256,192,157717,1,8,0:0:0:0:
256,192,157795,5,0,0:0:0:0:
256,192,157874,1,8,0:0:0:0:
256,192,157952,1,0,0:0:0:0:
256,192,158030,1,8,0:0:0:0:
256,192,158108,1,0,0:0:0:0:
256,192,158186,1,0,0:0:0:0:
256,192,158264,1,0,0:0:0:0:
256,192,158342,1,8,0:0:0:0:
256,192,158420,1,0,0:0:0:0:
256,192,158499,1,8,0:0:0:0:
256,192,158577,1,0,0:0:0:0:
256,192,158655,1,8,0:0:0:0:
256,192,158733,1,0,0:0:0:0:
256,192,158811,1,8,0:0:0:0:
256,192,158889,1,8,0:0:0:0:
256,192,158967,1,0,0:0:0:0:
256,192,159045,5,0,0:0:0:0:
256,192,159123,1,8,0:0:0:0:
256,192,159202,1,8,0:0:0:0:
256,192,159358,1,0,0:0:0:0:
256,192,159436,1,0,0:0:0:0:
256,192,159514,1,8,0:0:0:0:
256,192,159670,1,0,0:0:0:0:
256,192,159748,1,8,0:0:0:0:
256,192,159827,1,8,0:0:0:0:
256,192,159983,1,0,0:0:0:0:
256,192,160061,1,0,0:0:0:0:
256,192,160139,1,8,0:0:0:0:
256,192,160295,5,0,0:0:0:0:
256,192,160451,1,12,0:0:0:0:
256,192,160608,1,0,0:0:0:0:
256,192,160686,1,8,0:0:0:0:
256,192,160920,1,12,0:0:0:0:
256,192,161076,1,0,0:0:0:0:
256,192,161155,1,0,0:0:0:0:
256,192,161233,1,0,0:0:0:0:
256,192,161311,1,0,0:0:0:0:
256,192,161389,1,0,0:0:0:0:
256,192,161545,5,0,0:0:0:0:
256,192,161701,1,0,0:0:0:0:
256,192,161779,1,0,0:0:0:0:
256,192,161858,1,8,0:0:0:0:
256,192,162014,1,0,0:0:0:0:
256,192,162170,1,8,0:0:0:0:
256,192,162326,1,0,0:0:0:0:
256,192,162404,1,0,0:0:0:0:
256,192,162482,1,8,0:0:0:0:
256,192,162639,1,0,0:0:0:0:
256,192,162795,5,0,0:0:0:0:
256,192,162873,1,0,0:0:0:0:
256,192,162951,1,0,0:0:0:0:
256,192,163029,1,0,0:0:0:0:
256,192,163107,1,8,0:0:0:0:
256,192,163264,1,0,0:0:0:0:
256,192,163420,1,8,0:0:0:0:
256,192,163498,1,0,0:0:0:0:
256,192,163576,1,0,0:0:0:0:
256,192,163654,1,0,0:0:0:0:
256,192,163732,1,8,0:0:0:0:
256,192,163889,1,0,0:0:0:0:
256,192,164045,5,8,0:0:0:0:
256,192,164201,1,0,0:0:0:0:
256,192,164279,1,0,0:0:0:0:
256,192,164357,1,8,0:0:0:0:
256,192,164514,1,0,0:0:0:0:
256,192,164670,1,8,0:0:0:0:
256,192,164748,1,8,0:0:0:0:
256,192,164826,1,0,0:0:0:0:
256,192,164904,1,0,0:0:0:0:
256,192,164982,1,8,0:0:0:0:
256,192,165138,1,0,0:0:0:0:
256,192,165295,5,8,0:0:0:0:
256,192,165373,1,0,0:0:0:0:
256,192,165451,1,0,0:0:0:0:
256,192,165529,1,0,0:0:0:0:
256,192,165607,1,8,0:0:0:0:
256,192,165763,1,0,0:0:0:0:
256,192,165842,1,0,0:0:0:0:
256,192,165920,1,8,0:0:0:0:
256,192,165998,1,8,0:0:0:0:
256,192,166076,1,0,0:0:0:0:
256,192,166128,1,0,0:0:0:0:
256,192,166180,1,0,0:0:0:0:
256,192,166232,1,8,0:0:0:0:
256,192,166388,1,0,0:0:0:0:
256,192,166545,5,0,0:0:0:0:
256,192,166701,1,0,0:0:0:0:
256,192,166779,1,0,0:0:0:0:
256,192,166857,1,8,0:0:0:0:
256,192,167013,1,0,0:0:0:0:
256,192,167170,1,8,0:0:0:0:
256,192,167326,1,0,0:0:0:0:
256,192,167404,1,0,0:0:0:0:
256,192,167482,1,8,0:0:0:0:
256,192,167638,1,0,0:0:0:0:
256,192,167794,5,0,0:0:0:0:
256,192,167873,1,0,0:0:0:0:
256,192,167951,1,0,0:0:0:0:
256,192,168029,1,0,0:0:0:0:
256,192,168107,1,8,0:0:0:0:
256,192,168263,1,0,0:0:0:0:
256,192,168419,1,8,0:0:0:0:
256,192,168497,1,8,0:0:0:0:
256,192,168576,1,0,0:0:0:0:
256,192,168628,1,8,0:0:0:0:
256,192,168680,1,8,0:0:0:0:
256,192,168732,1,0,0:0:0:0:
256,192,168888,1,0,0:0:0:0:
256,192,169044,5,0,0:0:0:0:
256,192,169122,1,0,0:0:0:0:
256,192,169201,1,8,0:0:0:0:
256,192,169279,1,8,0:0:0:0:
256,192,169357,1,0,0:0:0:0:
256,192,169513,1,8,0:0:0:0:
256,192,169669,1,0,0:0:0:0:
256,192,169825,1,8,0:0:0:0:
256,192,169904,1,8,0:0:0:0:
256,192,169982,1,0,0:0:0:0:
256,192,170138,1,0,0:0:0:0:
256,192,170294,5,0,0:0:0:0:
256,192,170372,1,0,0:0:0:0:
256,192,170450,1,8,0:0:0:0:
256,192,170607,1,0,0:0:0:0:
256,192,170763,1,8,0:0:0:0:
256,192,170919,1,0,0:0:0:0:
256,192,170997,1,0,0:0:0:0:
256,192,171075,1,8,0:0:0:0:
256,192,171232,1,0,0:0:0:0:
256,192,171310,1,0,0:0:0:0:
256,192,171388,1,0,0:0:0:0:
256,192,171466,1,0,0:0:0:0:
256,192,171544,5,0,0:0:0:0:
256,192,171700,1,8,0:0:0:0:
256,192,171778,1,8,0:0:0:0:
256,192,171857,1,0,0:0:0:0:
256,192,172013,1,8,0:0:0:0:
256,192,172169,1,0,0:0:0:0:
256,192,172247,1,8,0:0:0:0:
256,192,172325,1,8,0:0:0:0:
256,192,172403,1,8,0:0:0:0:
256,192,172481,1,0,0:0:0:0:
256,192,172638,1,8,0:0:0:0:
256,192,172794,5,0,0:0:0:0:
256,192,172950,1,8,0:0:0:0:
256,192,173028,1,8,0:0:0:0:
256,192,173106,1,0,0:0:0:0:
256,192,173263,1,8,0:0:0:0:
256,192,173419,1,0,0:0:0:0:
256,192,173497,1,8,0:0:0:0:
256,192,173575,1,8,0:0:0:0:
256,192,173653,1,8,0:0:0:0:
256,192,173731,1,0,0:0:0:0:
256,192,173809,1,0,0:0:0:0:
256,192,173888,1,8,0:0:0:0:
256,192,174044,5,0,0:0:0:0:
256,192,174200,1,8,0:0:0:0:
256,192,174278,1,8,0:0:0:0:
256,192,174356,1,0,0:0:0:0:
256,192,174512,1,8,0:0:0:0:
256,192,174669,1,0,0:0:0:0:
256,192,174747,1,8,0:0:0:0:
256,192,174825,1,0,0:0:0:0:
256,192,174981,1,0,0:0:0:0:
256,192,175059,1,0,0:0:0:0:
256,192,175137,1,8,0:0:0:0:
256,192,175294,5,0,0:0:0:0:
256,192,175450,1,8,0:0:0:0:
256,192,175528,1,8,0:0:0:0:
256,192,175606,1,0,0:0:0:0:
256,192,175762,1,8,0:0:0:0:
256,192,175919,1,0,0:0:0:0:
256,192,175997,1,8,0:0:0:0:
256,192,176075,1,0,0:0:0:0:
256,192,176153,1,0,0:0:0:0:
256,192,176231,1,8,0:0:0:0:
256,192,176309,1,8,0:0:0:0:
256,192,176387,1,0,0:0:0:0:
256,192,176544,5,0,0:0:0:0:
256,192,176700,1,8,0:0:0:0:
256,192,176778,1,8,0:0:0:0:
256,192,176856,1,0,0:0:0:0:
256,192,177012,1,8,0:0:0:0:
256,192,177168,1,0,0:0:0:0:
256,192,177247,1,0,0:0:0:0:
256,192,177325,1,8,0:0:0:0:
256,192,177403,1,0,0:0:0:0:
256,192,177481,1,0,0:0:0:0:
256,192,177637,1,8,0:0:0:0:
256,192,177793,5,0,0:0:0:0:
256,192,177950,1,8,0:0:0:0:
256,192,178028,1,8,0:0:0:0:
256,192,178106,1,0,0:0:0:0:
256,192,178262,1,8,0:0:0:0:
256,192,178418,1,0,0:0:0:0:
256,192,178496,1,8,0:0:0:0:
256,192,178575,1,0,0:0:0:0:
256,192,178653,1,0,0:0:0:0:
256,192,178731,1,0,0:0:0:0:
256,192,178809,1,8,0:0:0:0:
256,192,178887,1,0,0:0:0:0:
256,192,179043,5,8,0:0:0:0:
256,192,179200,1,0,0:0:0:0:
256,192,179278,1,0,0:0:0:0:
256,192,179356,1,8,0:0:0:0:
256,192,179512,1,0,0:0:0:0:
256,192,179668,1,8,0:0:0:0:
256,192,179746,1,8,0:0:0:0:
256,192,179824,1,0,0:0:0:0:
256,192,179903,1,0,0:0:0:0:
256,192,179981,1,8,0:0:0:0:
256,192,180059,1,8,0:0:0:0:
256,192,180137,1,0,0:0:0:0:
256,192,180215,1,0,0:0:0:0:
256,192,180293,5,8,0:0:0:0:
256,192,180918,1,12,0:0:0:0:
256,192,181074,1,12,0:0:0:0:
256,192,181231,1,12,0:0:0:0:
256,192,181387,1,8,0:0:0:0:
256,192,181465,1,8,0:0:0:0:
256,192,181543,5,0,0:0:0:0:
256,192,181699,1,0,0:0:0:0:
256,192,181777,1,0,0:0:0:0:
256,192,181855,1,8,0:0:0:0:
256,192,182012,1,0,0:0:0:0:
256,192,182090,1,0,0:0:0:0:
256,192,182168,1,8,0:0:0:0:
256,192,182246,1,8,0:0:0:0:
256,192,182324,1,0,0:0:0:0:
256,192,182402,1,0,0:0:0:0:
256,192,182480,1,8,0:0:0:0:
256,192,182637,1,0,0:0:0:0:
256,192,182715,1,8,0:0:0:0:
256,192,182793,5,0,0:0:0:0:
256,192,182949,1,0,0:0:0:0:
256,192,183027,1,0,0:0:0:0:
256,192,183105,1,8,0:0:0:0:
256,192,183262,1,0,0:0:0:0:
256,192,183340,1,0,0:0:0:0:
256,192,183418,1,0,0:0:0:0:
256,192,183496,1,8,0:0:0:0:
256,192,183574,1,0,0:0:0:0:
256,192,183652,1,0,0:0:0:0:
256,192,183730,1,8,0:0:0:0:
256,192,183808,1,8,0:0:0:0:
256,192,183887,1,0,0:0:0:0:
256,192,183965,1,0,0:0:0:0:
256,192,184043,5,0,0:0:0:0:
256,192,184199,1,0,0:0:0:0:
256,192,184277,1,0,0:0:0:0:
256,192,184355,1,8,0:0:0:0:
256,192,184511,1,0,0:0:0:0:
256,192,184590,1,8,0:0:0:0:
256,192,184668,1,8,0:0:0:0:
256,192,184746,1,8,0:0:0:0:
256,192,184824,1,0,0:0:0:0:
256,192,184902,1,0,0:0:0:0:
256,192,184980,1,8,0:0:0:0:
256,192,185136,1,0,0:0:0:0:
256,192,185215,1,8,0:0:0:0:
256,192,185293,5,0,0:0:0:0:
256,192,185449,1,0,0:0:0:0:
256,192,185527,1,0,0:0:0:0:
256,192,185605,1,8,0:0:0:0:
256,192,185761,1,0,0:0:0:0:
256,192,185839,1,0,0:0:0:0:
256,192,185918,1,0,0:0:0:0:
256,192,185996,1,8,0:0:0:0:
256,192,186074,1,0,0:0:0:0:
256,192,186152,1,0,0:0:0:0:
256,192,186230,1,8,0:0:0:0:
256,192,186308,1,8,0:0:0:0:
256,192,186386,1,0,0:0:0:0:
256,192,186464,1,0,0:0:0:0:
256,192,186542,5,0,0:0:0:0:
256,192,186699,1,0,0:0:0:0:
256,192,186777,1,0,0:0:0:0:
256,192,186855,1,8,0:0:0:0:
256,192,187011,1,0,0:0:0:0:
256,192,187167,1,8,0:0:0:0:
256,192,187246,1,8,0:0:0:0:
256,192,187324,1,0,0:0:0:0:
256,192,187480,1,0,0:0:0:0:
256,192,187558,1,0,0:0:0:0:
256,192,187636,1,0,0:0:0:0:
256,192,187714,1,8,0:0:0:0:
256,192,187949,5,0,0:0:0:0:
256,192,188027,1,0,0:0:0:0:
256,192,188105,1,0,0:0:0:0:
256,192,188183,1,0,0:0:0:0:
256,192,188261,1,8,0:0:0:0:
256,192,188339,1,8,0:0:0:0:
256,192,188417,1,8,0:0:0:0:
256,192,188495,1,8,0:0:0:0:
256,192,188574,1,0,0:0:0:0:
256,192,188652,1,8,0:0:0:0:
256,192,188730,1,0,0:0:0:0:
256,192,188808,1,0,0:0:0:0:
256,192,188886,1,8,0:0:0:0:
256,192,188964,1,0,0:0:0:0:
256,192,189042,5,0,0:0:0:0:
256,192,189198,1,0,0:0:0:0:
256,192,189277,1,0,0:0:0:0:
256,192,189355,1,8,0:0:0:0:
256,192,189511,1,0,0:0:0:0:
256,192,189667,1,8,0:0:0:0:
256,192,189745,1,8,0:0:0:0:
256,192,189823,1,0,0:0:0:0:
256,192,189902,1,0,0:0:0:0:
256,192,189980,1,8,0:0:0:0:
256,192,190058,1,8,0:0:0:0:
256,192,190136,1,0,0:0:0:0:
256,192,190214,1,8,0:0:0:0:
256,192,190292,5,0,0:0:0:0:
256,192,190370,1,0,0:0:0:0:
256,192,190448,1,8,0:0:0:0:
256,192,190526,1,8,0:0:0:0:
256,192,190605,1,0,0:0:0:0:
256,192,190683,1,0,0:0:0:0:
256,192,190761,1,8,0:0:0:0:
256,192,190839,1,8,0:0:0:0:
256,192,190917,1,0,0:0:0:0:
256,192,190995,1,0,0:0:0:0:
256,192,191073,1,8,0:0:0:0:
256,192,191151,1,8,0:0:0:0:
256,192,191230,1,0,0:0:0:0:
256,192,191308,1,8,0:0:0:0:
256,192,191386,1,0,0:0:0:0:
256,192,191464,1,0,0:0:0:0:
256,192,191542,5,0,0:0:0:0:
256,192,191698,1,0,0:0:0:0:
256,192,191776,1,0,0:0:0:0:
256,192,191854,1,8,0:0:0:0:
256,192,192011,1,0,0:0:0:0:
256,192,192167,1,8,0:0:0:0:
256,192,192245,1,8,0:0:0:0:
256,192,192323,1,0,0:0:0:0:
256,192,192401,1,0,0:0:0:0:
256,192,192479,1,0,0:0:0:0:
256,192,192557,1,0,0:0:0:0:
256,192,192636,1,8,0:0:0:0:
256,192,192714,1,8,0:0:0:0:
256,192,192792,5,0,0:0:0:0:
256,192,192948,1,0,0:0:0:0:
256,192,193026,1,0,0:0:0:0:
256,192,193104,1,8,0:0:0:0:
256,192,193261,1,0,0:0:0:0:
256,192,193417,1,8,0:0:0:0:
256,192,193495,1,8,0:0:0:0:
256,192,193573,1,0,0:0:0:0:
256,192,193729,1,8,0:0:0:0:
256,192,193807,1,8,0:0:0:0:
256,192,193885,1,0,0:0:0:0:
256,192,193964,1,8,0:0:0:0:
256,192,194042,5,0,0:0:0:0:
256,192,194198,1,0,0:0:0:0:
256,192,194276,1,0,0:0:0:0:
256,192,194354,1,8,0:0:0:0:
256,192,194510,1,0,0:0:0:0:
256,192,194667,1,8,0:0:0:0:
256,192,194745,1,8,0:0:0:0:
256,192,194823,1,0,0:0:0:0:
256,192,194979,1,0,0:0:0:0:
256,192,195057,1,0,0:0:0:0:
256,192,195135,1,0,0:0:0:0:
256,192,195213,1,8,0:0:0:0:
256,192,195448,5,0,0:0:0:0:
256,192,195526,1,0,0:0:0:0:
256,192,195604,1,0,0:0:0:0:
256,192,195760,1,8,0:0:0:0:
256,192,195917,1,8,0:0:0:0:
256,192,195995,1,8,0:0:0:0:
256,192,196073,1,0,0:0:0:0:
256,192,196151,1,8,0:0:0:0:
256,192,196229,1,0,0:0:0:0:
256,192,196307,1,8,0:0:0:0:
256,192,196385,1,0,0:0:0:0:
256,192,196463,1,0,0:0:0:0:
256,192,196541,5,8,0:0:0:0:
256,192,196698,1,0,0:0:0:0:
256,192,196776,1,0,0:0:0:0:
256,192,196854,1,0,0:0:0:0:
256,192,197010,1,0,0:0:0:0:
256,192,197088,1,0,0:0:0:0:
256,192,197166,1,8,0:0:0:0:
256,192,197323,1,0,0:0:0:0:
256,192,197401,1,0,0:0:0:0:
256,192,197479,1,0,0:0:0:0:
256,192,197557,1,0,0:0:0:0:
256,192,197635,1,8,0:0:0:0:
256,192,197791,5,0,0:0:0:0:
256,192,197948,1,12,0:0:0:0:
256,192,198104,1,12,0:0:0:0:
256,192,198260,1,8,0:0:0:0:
256,192,198338,1,8,0:0:0:0:
256,192,198416,1,8,0:0:0:0:
256,192,198494,1,8,0:0:0:0:
256,192,198572,1,8,0:0:0:0:
256,192,198651,1,8,0:0:0:0:
256,192,198729,1,8,0:0:0:0:
256,192,198807,1,8,0:0:0:0:
256,192,198885,1,8,0:0:0:0:
256,192,198963,1,8,0:0:0:0:
256,192,199041,5,8,0:0:0:0:
256,192,199119,1,0,0:0:0:0:
256,192,199197,1,0,0:0:0:0:
256,192,199276,1,0,0:0:0:0:
256,192,199354,1,8,0:0:0:0:
256,192,199432,1,0,0:0:0:0:
256,192,199510,1,0,0:0:0:0:
256,192,199588,1,8,0:0:0:0:
256,192,199666,1,8,0:0:0:0:
256,192,199744,1,0,0:0:0:0:
256,192,199822,1,0,0:0:0:0:
256,192,199900,1,8,0:0:0:0:
256,192,199979,1,8,0:0:0:0:
256,192,200057,1,0,0:0:0:0:
256,192,200135,1,0,0:0:0:0:
256,192,200213,1,0,0:0:0:0:
256,192,200291,5,8,0:0:0:0:
256,192,200369,1,0,0:0:0:0:
256,192,200447,1,0,0:0:0:0:
256,192,200525,1,0,0:0:0:0:
256,192,200604,1,8,0:0:0:0:
256,192,200682,1,0,0:0:0:0:
256,192,200760,1,0,0:0:0:0:
256,192,200838,1,0,0:0:0:0:
256,192,200916,1,8,0:0:0:0:
256,192,200994,1,8,0:0:0:0:
256,192,201072,1,0,0:0:0:0:
256,192,201150,1,0,0:0:0:0:
256,192,201228,1,8,0:0:0:0:
256,192,201307,1,0,0:0:0:0:
256,192,201385,1,0,0:0:0:0:
256,192,201463,1,0,0:0:0:0:
256,192,201541,5,8,0:0:0:0:
256,192,201619,1,0,0:0:0:0:
256,192,201697,1,0,0:0:0:0:
256,192,201775,1,8,0:0:0:0:
256,192,201853,1,8,0:0:0:0:
256,192,201932,1,0,0:0:0:0:
256,192,202010,1,0,0:0:0:0:
256,192,202088,1,8,0:0:0:0:
256,192,202166,1,8,0:0:0:0:
256,192,202244,1,0,0:0:0:0:
256,192,202322,1,0,0:0:0:0:
256,192,202400,1,8,0:0:0:0:
256,192,202478,1,8,0:0:0:0:
256,192,202556,1,0,0:0:0:0:
256,192,202635,1,8,0:0:0:0:
256,192,202713,1,8,0:0:0:0:
256,192,202791,5,0,0:0:0:0:
256,192,202869,1,8,0:0:0:0:
256,192,202947,1,0,0:0:0:0:
256,192,203025,1,8,0:0:0:0:
256,192,203103,1,8,0:0:0:0:
256,192,203181,1,0,0:0:0:0:
256,192,203260,1,0,0:0:0:0:
256,192,203338,1,8,0:0:0:0:
256,192,203416,1,8,0:0:0:0:
256,192,203494,1,8,0:0:0:0:
256,192,203572,1,0,0:0:0:0:
256,192,203650,1,8,0:0:0:0:
256,192,203728,1,8,0:0:0:0:
256,192,203806,1,8,0:0:0:0:
256,192,203884,1,0,0:0:0:0:
256,192,203963,1,0,0:0:0:0:
256,192,204041,5,8,0:0:0:0:
256,192,204119,1,0,0:0:0:0:
256,192,204197,1,0,0:0:0:0:
256,192,204275,1,8,0:0:0:0:
256,192,204353,1,8,0:0:0:0:
256,192,204431,1,8,0:0:0:0:
256,192,204509,1,0,0:0:0:0:
256,192,204587,1,8,0:0:0:0:
256,192,204666,1,8,0:0:0:0:
256,192,204744,1,0,0:0:0:0:
256,192,204822,1,0,0:0:0:0:
256,192,204900,1,8,0:0:0:0:
256,192,204978,1,8,0:0:0:0:
256,192,205056,1,8,0:0:0:0:
256,192,205134,1,0,0:0:0:0:
256,192,205212,1,8,0:0:0:0:
256,192,205291,5,8,0:0:0:0:
256,192,205369,1,8,0:0:0:0:
256,192,205447,1,0,0:0:0:0:
256,192,205525,1,8,0:0:0:0:
256,192,205603,1,8,0:0:0:0:
256,192,205681,1,0,0:0:0:0:
256,192,205759,1,0,0:0:0:0:
256,192,205837,1,8,0:0:0:0:
256,192,205915,1,8,0:0:0:0:
256,192,205994,1,8,0:0:0:0:
256,192,206072,1,0,0:0:0:0:
256,192,206150,1,8,0:0:0:0:
256,192,206228,1,8,0:0:0:0:
256,192,206306,1,0,0:0:0:0:
256,192,206384,1,0,0:0:0:0:
256,192,206462,1,0,0:0:0:0:
256,192,206540,5,8,0:0:0:0:
256,192,206619,1,0,0:0:0:0:
256,192,206697,1,8,0:0:0:0:
256,192,206775,1,0,0:0:0:0:
256,192,206853,1,8,0:0:0:0:
256,192,206931,1,8,0:0:0:0:
256,192,207009,1,8,0:0:0:0:
256,192,207087,1,0,0:0:0:0:
256,192,207165,1,0,0:0:0:0:
256,192,207243,1,8,0:0:0:0:
256,192,207322,1,8,0:0:0:0:
256,192,207400,1,0,0:0:0:0:
256,192,207478,1,0,0:0:0:0:
256,192,207556,1,8,0:0:0:0:
256,192,207634,1,0,0:0:0:0:
256,192,207712,1,8,0:0:0:0:
256,192,207790,5,0,0:0:0:0:
256,192,207868,1,0,0:0:0:0:
256,192,207947,1,0,0:0:0:0:
256,192,208025,1,8,0:0:0:0:
256,192,208103,1,8,0:0:0:0:
256,192,208181,1,0,0:0:0:0:
256,192,208259,1,0,0:0:0:0:
256,192,208337,1,8,0:0:0:0:
256,192,208415,1,8,0:0:0:0:
256,192,208493,1,0,0:0:0:0:
256,192,208571,1,0,0:0:0:0:
256,192,208650,1,8,0:0:0:0:
256,192,208728,1,8,0:0:0:0:
256,192,208806,1,0,0:0:0:0:
256,192,208884,1,8,0:0:0:0:
256,192,208962,1,0,0:0:0:0:
256,192,209040,5,8,0:0:0:0:
256,192,209118,1,0,0:0:0:0:
256,192,209196,1,0,0:0:0:0:
256,192,209274,1,8,0:0:0:0:
256,192,209353,1,8,0:0:0:0:
256,192,209431,1,0,0:0:0:0:
256,192,209509,1,0,0:0:0:0:
256,192,209587,1,8,0:0:0:0:
256,192,209665,1,8,0:0:0:0:
256,192,209743,1,0,0:0:0:0:
256,192,209821,1,0,0:0:0:0:
256,192,209899,1,8,0:0:0:0:
256,192,209978,1,8,0:0:0:0:
256,192,210056,1,0,0:0:0:0:
256,192,210134,1,8,0:0:0:0:
256,192,210212,1,8,0:0:0:0:
256,192,210290,5,8,0:0:0:0:
256,192,210368,1,0,0:0:0:0:
256,192,210446,1,0,0:0:0:0:
256,192,210524,1,8,0:0:0:0:
256,192,210602,1,8,0:0:0:0:
256,192,210681,1,8,0:0:0:0:
256,192,210759,1,0,0:0:0:0:
256,192,210837,1,8,0:0:0:0:
256,192,210915,1,8,0:0:0:0:
256,192,210993,1,8,0:0:0:0:
256,192,211071,1,0,0:0:0:0:
256,192,211149,1,8,0:0:0:0:
256,192,211227,1,8,0:0:0:0:
256,192,211306,1,0,0:0:0:0:
256,192,211384,1,0,0:0:0:0:
256,192,211462,1,0,0:0:0:0:
256,192,211540,5,0,0:0:0:0:
256,192,211618,1,8,0:0:0:0:
256,192,211696,1,0,0:0:0:0:
256,192,211774,1,0,0:0:0:0:
256,192,211852,1,8,0:0:0:0:
256,192,211930,1,0,0:0:0:0:
256,192,212009,1,0,0:0:0:0:
256,192,212087,1,0,0:0:0:0:
256,192,212165,1,8,0:0:0:0:
256,192,212243,1,8,0:0:0:0:
256,192,212321,1,0,0:0:0:0:
256,192,212399,1,8,0:0:0:0:
256,192,212477,1,0,0:0:0:0:
256,192,212555,1,0,0:0:0:0:
256,192,212634,1,0,0:0:0:0:
256,192,212712,1,8,0:0:0:0:
256,192,212790,5,0,0:0:0:0:
256,192,212868,1,0,0:0:0:0:
256,192,212946,1,0,0:0:0:0:
256,192,213024,1,8,0:0:0:0:
256,192,213102,1,8,0:0:0:0:
256,192,213180,1,0,0:0:0:0:
256,192,213258,1,0,0:0:0:0:
256,192,213337,1,8,0:0:0:0:
256,192,213415,1,8,0:0:0:0:
256,192,213493,1,8,0:0:0:0:
256,192,213571,1,0,0:0:0:0:
256,192,213649,1,8,0:0:0:0:
256,192,213727,1,8,0:0:0:0:
256,192,213805,1,0,0:0:0:0:
256,192,213883,1,0,0:0:0:0:
256,192,213962,1,0,0:0:0:0:
256,192,214040,5,0,0:0:0:0:
256,192,214118,1,0,0:0:0:0:
256,192,214196,1,8,0:0:0:0:
256,192,214274,1,0,0:0:0:0:
256,192,214352,1,8,0:0:0:0:
256,192,214430,1,0,0:0:0:0:
256,192,214508,1,8,0:0:0:0:
256,192,214586,1,8,0:0:0:0:
256,192,214665,1,0,0:0:0:0:
256,192,214743,1,0,0:0:0:0:
256,192,214821,1,8,0:0:0:0:
256,192,214899,1,0,0:0:0:0:
256,192,214977,1,8,0:0:0:0:
256,192,215055,1,0,0:0:0:0:
256,192,215133,1,8,0:0:0:0:
256,192,215211,1,8,0:0:0:0:
256,192,215289,5,0,0:0:0:0:
256,192,215368,1,0,0:0:0:0:
256,192,215446,1,8,0:0:0:0:
256,192,215524,1,0,0:0:0:0:
256,192,215602,1,8,0:0:0:0:
256,192,215680,1,0,0:0:0:0:
256,192,215758,1,0,0:0:0:0:
256,192,215836,1,8,0:0:0:0:
256,192,215914,1,8,0:0:0:0:
256,192,215993,1,8,0:0:0:0:
256,192,216071,1,0,0:0:0:0:
256,192,216149,1,8,0:0:0:0:
256,192,216227,1,8,0:0:0:0:
256,192,216305,1,0,0:0:0:0:
256,192,216383,1,0,0:0:0:0:
256,192,216461,1,0,0:0:0:0:
256,192,216539,1,0,0:0:0:0:
256,192,216696,1,0,0:0:0:0:
256,192,216774,1,0,0:0:0:0:
256,192,216852,1,0,0:0:0:0:
256,192,217008,1,0,0:0:0:0:
256,192,217086,1,0,0:0:0:0:
256,192,217242,1,0,0:0:0:0:
256,192,217321,1,0,0:0:0:0:
256,192,217477,1,0,0:0:0:0:
256,192,217633,1,0,0:0:0:0:
256,192,217789,5,0,0:0:0:0:
256,192,217945,1,0,0:0:0:0:
256,192,218024,1,0,0:0:0:0:
256,192,218102,1,8,0:0:0:0:
256,192,218258,1,0,0:0:0:0:
256,192,218414,1,8,0:0:0:0:
256,192,218492,1,8,0:0:0:0:
256,192,218570,1,0,0:0:0:0:
256,192,218727,1,8,0:0:0:0:
256,192,218883,1,0,0:0:0:0:
256,192,219039,5,0,0:0:0:0:
256,192,219195,1,0,0:0:0:0:
256,192,219273,1,0,0:0:0:0:
256,192,219352,1,8,0:0:0:0:
256,192,219508,1,0,0:0:0:0:
256,192,219586,1,8,0:0:0:0:
256,192,219742,1,8,0:0:0:0:
256,192,219820,1,0,0:0:0:0:
256,192,219977,1,8,0:0:0:0:
256,192,220133,1,0,0:0:0:0:
256,192,220289,5,0,0:0:0:0:
256,192,220445,1,0,0:0:0:0:
256,192,220523,1,0,0:0:0:0:
256,192,220601,1,0,0:0:0:0:
256,192,220758,1,0,0:0:0:0:
256,192,220914,1,0,0:0:0:0:
256,192,220992,1,0,0:0:0:0:
256,192,221070,1,0,0:0:0:0:
256,192,221226,1,0,0:0:0:0:
256,192,221383,1,0,0:0:0:0:
256,192,221539,5,8,0:0:0:0:
256,192,221695,1,0,0:0:0:0:
256,192,221773,1,0,0:0:0:0:
256,192,221851,1,8,0:0:0:0:
256,192,222008,1,0,0:0:0:0:
256,192,222086,1,8,0:0:0:0:
256,192,222242,1,8,0:0:0:0:
256,192,222320,1,0,0:0:0:0:
256,192,222476,1,8,0:0:0:0:
256,192,222632,1,0,0:0:0:0:
256,192,222789,5,0,0:0:0:0:
256,192,222945,1,0,0:0:0:0:
256,192,223023,1,0,0:0:0:0:
256,192,223101,1,0,0:0:0:0:
256,192,223257,1,0,0:0:0:0:
256,192,223414,1,0,0:0:0:0:
256,192,223492,1,0,0:0:0:0:
256,192,223570,1,0,0:0:0:0:
256,192,223726,1,0,0:0:0:0:
256,192,223882,1,0,0:0:0:0:
256,192,224039,5,8,0:0:0:0:
256,192,224195,1,0,0:0:0:0:
256,192,224273,1,0,0:0:0:0:
256,192,224351,1,8,0:0:0:0:
256,192,224507,1,0,0:0:0:0:
256,192,224585,1,8,0:0:0:0:
256,192,224742,1,8,0:0:0:0:
256,192,224820,1,0,0:0:0:0:
256,192,224898,1,0,0:0:0:0:
256,192,224976,1,8,0:0:0:0:
256,192,225132,1,0,0:0:0:0:
256,192,225288,5,0,0:0:0:0:
256,192,225367,1,0,0:0:0:0:
256,192,225445,1,0,0:0:0:0:
256,192,225523,1,0,0:0:0:0:
256,192,225601,1,8,0:0:0:0:
256,192,225679,1,0,0:0:0:0:
256,192,225757,1,0,0:0:0:0:
256,192,225835,1,0,0:0:0:0:
256,192,225913,1,8,0:0:0:0:
256,192,225992,1,0,0:0:0:0:
256,192,226070,1,0,0:0:0:0:
256,192,226148,1,0,0:0:0:0:
256,192,226226,1,8,0:0:0:0:
256,192,226382,1,0,0:0:0:0:
256,192,226538,5,0,0:0:0:0:
256,192,226616,1,0,0:0:0:0:
256,192,226695,1,0,0:0:0:0:
256,192,226773,1,0,0:0:0:0:
256,192,226851,1,8,0:0:0:0:
256,192,227007,1,0,0:0:0:0:
256,192,227085,1,0,0:0:0:0:
256,192,227163,1,0,0:0:0:0:
256,192,227241,1,0,0:0:0:0:
256,192,227319,1,0,0:0:0:0:
256,192,227398,1,0,0:0:0:0:
256,192,227476,1,8,0:0:0:0:
256,192,227554,1,8,0:0:0:0:
256,192,227632,1,0,0:0:0:0:
256,192,227710,1,0,0:0:0:0:
256,192,227788,5,0,0:0:0:0:
256,192,227866,1,0,0:0:0:0:
256,192,227944,1,0,0:0:0:0:
256,192,228023,1,0,0:0:0:0:
256,192,228101,1,8,0:0:0:0:
256,192,228179,1,8,0:0:0:0:
256,192,228257,1,8,0:0:0:0:
256,192,228335,1,8,0:0:0:0:
256,192,228413,1,0,0:0:0:0:
256,192,228491,1,0,0:0:0:0:
256,192,228569,1,0,0:0:0:0:
256,192,228647,1,0,0:0:0:0:
256,192,228726,1,8,0:0:0:0:
256,192,228804,1,8,0:0:0:0:
256,192,228882,1,8,0:0:0:0:
256,192,228960,1,8,0:0:0:0:
256,192,229038,5,0,0:0:0:0:
256,192,229194,1,8,0:0:0:0:
256,192,229351,1,0,0:0:0:0:
256,192,229429,1,0,0:0:0:0:
256,192,229507,1,8,0:0:0:0:
256,192,229663,1,0,0:0:0:0:
256,192,229819,1,8,0:0:0:0:
256,192,229975,1,0,0:0:0:0:
256,192,230054,1,0,0:0:0:0:
256,192,230132,1,8,0:0:0:0:
256,192,230288,5,0,0:0:0:0:
256,192,230366,1,0,0:0:0:0:
256,192,230444,1,8,0:0:0:0:
256,192,230600,1,0,0:0:0:0:
256,192,230679,1,0,0:0:0:0:
256,192,230757,1,8,0:0:0:0:
256,192,230913,1,0,0:0:0:0:
256,192,230991,1,0,0:0:0:0:
256,192,231069,1,8,0:0:0:0:
256,192,231225,1,8,0:0:0:0:
256,192,231303,1,8,0:0:0:0:
256,192,231382,1,8,0:0:0:0:
256,192,231460,1,8,0:0:0:0:
50,82,231538,2,8,L|380:79,1,315.000012016297
256,192,232788,5,0,0:0:0:0:
256,192,233100,1,8,0:0:0:0:
256,192,233413,1,8,0:0:0:0:
256,192,233725,1,8,0:0:0:0:
63,95,234038,2,8,L|385:107,1,315.000012016297
256,192,235287,5,0,0:0:0:0:
256,192,235600,1,8,0:0:0:0:
256,192,235912,1,8,0:0:0:0:
256,192,236225,1,8,0:0:0:0:
