osu file format v12

[General]
AudioFilename: 07_-_CYBER_Sparks.mp3
AudioLeadIn: 1000
PreviewTime: -1
Countdown: 1
SampleSet: Soft
StackLeniency: 0.7
Mode: 1
LetterboxInBreaks: 1
SkinPreference:Taiko Star

[Editor]
DistanceSpacing: 1
BeatDivisor: 4
GridSize: 32

[Metadata]
Title:CYBER Sparks
TitleUnicode:CYBER Sparks
Artist:Tatsh
ArtistUnicode:Tatsh
Creator:Konpaku Sariel
Version:Hard Taiko
Source:Touhou
Tags:master spark,marisa,touhou
BeatmapID:245562
BeatmapSetID:88286

[Difficulty]
HPDrainRate:4
CircleSize:5
OverallDifficulty:4
ApproachRate:4
SliderMultiplier:1.4
SliderTickRate:4

[Events]
//Background and Video events
0,0,"%B8%AE~1.PNG",0,0
//Break Periods
//Storyboard Layer 0 (Background)
//Storyboard Layer 1 (Fail)
//Storyboard Layer 2 (Pass)
//Storyboard Layer 3 (Foreground)
//Storyboard Sound Samples
//Background Colour Transformations
3,100,163,162,255

[TimingPoints]
940,312.467451307156,4,2,0,100,1,0
2187,312.467451307156,3,2,0,100,1,0
3436,625,3,2,0,100,1,0
4062,312.467451307156,4,2,0,100,1,0
70305,-100,4,2,0,100,0,1
89365,-100,4,2,0,100,0,0
90303,-100,4,2,0,100,0,1
99052,-100,4,2,0,100,0,0
100301,-100,4,2,0,100,0,1
104051,-100,4,2,0,100,0,0

[HitObjects]
256,192,4062,1,0,0:0:0:0:
256,192,4218,1,8,0:0:0:0:
256,192,4374,1,0,0:0:0:0:
256,192,4530,1,8,0:0:0:0:
256,192,4686,1,0,0:0:0:0:
256,192,4843,1,8,0:0:0:0:
256,192,4999,1,0,0:0:0:0:
256,192,5155,1,8,0:0:0:0:
256,192,5311,5,0,0:0:0:0:
256,192,5468,1,8,0:0:0:0:
256,192,5624,1,0,0:0:0:0:
256,192,5780,1,8,0:0:0:0:
256,192,5936,1,0,0:0:0:0:
256,192,6093,1,8,0:0:0:0:
256,192,6249,1,0,0:0:0:0:
256,192,6405,1,8,0:0:0:0:
256,192,6561,1,0,0:0:0:0:
256,192,6717,1,8,0:0:0:0:
256,192,6874,1,0,0:0:0:0:
256,192,7030,1,8,0:0:0:0:
256,192,7186,1,0,0:0:0:0:
256,192,7342,1,8,0:0:0:0:
256,192,7499,1,0,0:0:0:0:
256,192,7655,1,8,0:0:0:0:
256,192,7811,5,0,0:0:0:0:
256,192,7967,1,8,0:0:0:0:
256,192,8124,1,0,0:0:0:0:
256,192,8280,1,8,0:0:0:0:
256,192,8436,1,0,0:0:0:0:
256,192,8592,1,8,0:0:0:0:
256,192,8749,1,0,0:0:0:0:
256,192,8905,1,0,0:0:0:0:
256,192,8983,1,0,0:0:0:0:
256,192,9061,5,0,0:0:0:0:
256,192,9217,1,8,0:0:0:0:
256,192,9295,1,8,0:0:0:0:
256,192,9373,1,0,0:0:0:0:
256,192,9530,1,8,0:0:0:0:
256,192,9608,1,8,0:0:0:0:
256,192,9686,1,0,0:0:0:0:
256,192,9842,1,8,0:0:0:0:
256,192,9920,1,8,0:0:0:0:
256,192,9998,1,0,0:0:0:0:
256,192,10155,1,8,0:0:0:0:
256,192,10233,1,8,0:0:0:0:
256,192,10311,1,0,0:0:0:0:
256,192,10467,1,8,0:0:0:0:
256,192,10545,1,8,0:0:0:0:
256,192,10623,1,0,0:0:0:0:
256,192,10701,1,8,0:0:0:0:
256,192,10780,1,8,0:0:0:0:
256,192,10858,1,8,0:0:0:0:
256,192,10936,1,0,0:0:0:0:
256,192,11092,1,8,0:0:0:0:
256,192,11170,1,8,0:0:0:0:
256,192,11248,1,0,0:0:0:0:
256,192,11404,1,8,0:0:0:0:
256,192,11483,1,8,0:0:0:0:
256,192,11561,5,0,0:0:0:0:
256,192,11717,1,8,0:0:0:0:
256,192,11795,1,8,0:0:0:0:
256,192,11873,1,0,0:0:0:0:
256,192,11951,1,8,0:0:0:0:
256,192,12029,1,8,0:0:0:0:
256,192,12108,1,8,0:0:0:0:
256,192,12186,1,0,0:0:0:0:
256,192,12342,1,8,0:0:0:0:
256,192,12420,1,8,0:0:0:0:
256,192,12498,1,0,0:0:0:0:
256,192,12654,1,8,0:0:0:0:
256,192,12732,1,8,0:0:0:0:
256,192,12811,1,0,0:0:0:0:
256,192,12967,5,8,0:0:0:0:
256,192,13045,1,8,0:0:0:0:
256,192,13123,1,0,0:0:0:0:
256,192,13201,1,8,0:0:0:0:
256,192,13279,1,8,0:0:0:0:
256,192,13357,1,8,0:0:0:0:
256,192,13436,1,0,0:0:0:0:
256,192,13592,1,8,0:0:0:0:
256,192,13670,1,8,0:0:0:0:
256,192,13748,1,0,0:0:0:0:
256,192,13904,1,8,0:0:0:0:
256,192,14060,5,4,0:0:0:0:
256,192,14217,1,0,0:0:0:0:
256,192,14373,1,12,0:0:0:0:
256,192,14685,1,4,0:0:0:0:
256,192,14842,1,0,0:0:0:0:
256,192,14998,1,12,0:0:0:0:
256,192,15310,1,4,0:0:0:0:
256,192,15467,1,0,0:0:0:0:
256,192,15623,1,12,0:0:0:0:
256,192,15935,1,4,0:0:0:0:
256,192,16091,1,0,0:0:0:0:
256,192,16248,1,12,0:0:0:0:
256,192,16560,1,4,0:0:0:0:
256,192,16716,1,0,0:0:0:0:
256,192,16873,1,12,0:0:0:0:
256,192,17185,1,4,0:0:0:0:
256,192,17341,1,0,0:0:0:0:
256,192,17498,1,12,0:0:0:0:
256,192,17810,1,4,0:0:0:0:
256,192,17966,1,0,0:0:0:0:
256,192,18123,1,12,0:0:0:0:
256,192,18435,1,4,0:0:0:0:
256,192,18591,1,0,0:0:0:0:
256,192,18748,1,12,0:0:0:0:
256,192,19060,5,0,0:0:0:0:
256,192,19216,1,0,0:0:0:0:
256,192,19294,1,0,0:0:0:0:
256,192,19372,1,8,0:0:0:0:
256,192,19529,1,0,0:0:0:0:
256,192,19685,1,0,0:0:0:0:
256,192,19763,1,0,0:0:0:0:
256,192,19841,1,0,0:0:0:0:
256,192,19997,1,8,0:0:0:0:
256,192,20075,1,8,0:0:0:0:
256,192,20154,1,0,0:0:0:0:
256,192,20310,5,0,0:0:0:0:
256,192,20466,1,0,0:0:0:0:
256,192,20544,1,0,0:0:0:0:
256,192,20622,1,8,0:0:0:0:
256,192,20779,1,0,0:0:0:0:
256,192,20935,1,0,0:0:0:0:
256,192,21013,1,0,0:0:0:0:
256,192,21091,1,0,0:0:0:0:
256,192,21247,1,0,0:0:0:0:
256,192,21325,1,0,0:0:0:0:
256,192,21403,1,8,0:0:0:0:
256,192,21560,5,0,0:0:0:0:
256,192,21716,1,0,0:0:0:0:
256,192,21794,1,0,0:0:0:0:
256,192,21872,1,8,0:0:0:0:
256,192,22029,1,0,0:0:0:0:
256,192,22185,1,0,0:0:0:0:
256,192,22263,1,0,0:0:0:0:
256,192,22341,1,0,0:0:0:0:
256,192,22497,1,8,0:0:0:0:
256,192,22575,1,8,0:0:0:0:
256,192,22654,1,0,0:0:0:0:
256,192,22810,5,0,0:0:0:0:
256,192,22966,1,0,0:0:0:0:
256,192,23044,1,0,0:0:0:0:
256,192,23122,1,8,0:0:0:0:
256,192,23279,1,0,0:0:0:0:
256,192,23435,1,0,0:0:0:0:
256,192,23513,1,0,0:0:0:0:
256,192,23591,1,0,0:0:0:0:
256,192,23747,1,0,0:0:0:0:
256,192,23825,1,0,0:0:0:0:
256,192,23903,1,8,0:0:0:0:
256,192,24059,5,0,0:0:0:0:
256,192,24215,1,8,0:0:0:0:
256,192,24293,1,8,0:0:0:0:
256,192,24372,1,0,0:0:0:0:
256,192,24528,1,8,0:0:0:0:
256,192,24684,1,0,0:0:0:0:
256,192,24762,1,8,0:0:0:0:
256,192,24840,1,8,0:0:0:0:
256,192,24996,1,0,0:0:0:0:
256,192,25074,1,0,0:0:0:0:
256,192,25153,1,8,0:0:0:0:
256,192,25309,5,0,0:0:0:0:
256,192,25465,1,8,0:0:0:0:
256,192,25543,1,8,0:0:0:0:
256,192,25621,1,0,0:0:0:0:
256,192,25778,1,8,0:0:0:0:
256,192,25934,1,0,0:0:0:0:
256,192,26012,1,0,0:0:0:0:
256,192,26090,1,8,0:0:0:0:
256,192,26246,1,8,0:0:0:0:
256,192,26324,1,8,0:0:0:0:
256,192,26402,1,0,0:0:0:0:
256,192,26559,5,0,0:0:0:0:
256,192,26715,1,8,0:0:0:0:
256,192,26794,1,8,0:0:0:0:
256,192,26872,1,0,0:0:0:0:
256,192,27028,1,8,0:0:0:0:
256,192,27184,1,0,0:0:0:0:
256,192,27262,1,0,0:0:0:0:
256,192,27340,1,0,0:0:0:0:
256,192,27418,1,0,0:0:0:0:
256,192,27497,1,8,0:0:0:0:
256,192,27575,1,8,0:0:0:0:
256,192,27653,1,0,0:0:0:0:
64,96,27809,2,0,L|512:96,1,420
256,192,29059,5,0,0:0:0:0:
256,192,29215,1,8,0:0:0:0:
256,192,29293,1,0,0:0:0:0:
256,192,29371,1,8,0:0:0:0:
256,192,29528,1,0,0:0:0:0:
256,192,29606,1,8,0:0:0:0:
256,192,29762,1,0,0:0:0:0:
256,192,29840,1,8,0:0:0:0:
256,192,29996,1,0,0:0:0:0:
256,192,30074,1,0,0:0:0:0:
256,192,30153,1,8,0:0:0:0:
256,192,30309,5,0,0:0:0:0:
256,192,30465,1,8,0:0:0:0:
256,192,30543,1,0,0:0:0:0:
256,192,30621,1,8,0:0:0:0:
256,192,30777,1,0,0:0:0:0:
256,192,30856,1,8,0:0:0:0:
256,192,31012,1,8,0:0:0:0:
256,192,31090,1,0,0:0:0:0:
256,192,31246,1,8,0:0:0:0:
256,192,31324,1,8,0:0:0:0:
256,192,31402,1,0,0:0:0:0:
256,192,31559,5,0,0:0:0:0:
256,192,31715,1,8,0:0:0:0:
256,192,31793,1,0,0:0:0:0:
256,192,31871,1,8,0:0:0:0:
256,192,32028,1,0,0:0:0:0:
256,192,32106,1,8,0:0:0:0:
256,192,32262,1,0,0:0:0:0:
256,192,32340,1,8,0:0:0:0:
256,192,32496,1,0,0:0:0:0:
256,192,32574,1,0,0:0:0:0:
256,192,32653,1,8,0:0:0:0:
256,192,32809,5,0,0:0:0:0:
256,192,32965,1,8,0:0:0:0:
256,192,33043,1,0,0:0:0:0:
256,192,33121,1,8,0:0:0:0:
256,192,33277,1,0,0:0:0:0:
256,192,33356,1,8,0:0:0:0:
256,192,33512,1,8,0:0:0:0:
256,192,33590,1,0,0:0:0:0:
256,192,33746,1,8,0:0:0:0:
256,192,33824,1,8,0:0:0:0:
256,192,33902,1,0,0:0:0:0:
256,192,34058,5,0,0:0:0:0:
256,192,34136,1,0,0:0:0:0:
256,192,34215,1,0,0:0:0:0:
256,192,34293,1,0,0:0:0:0:
256,192,34371,1,8,0:0:0:0:
256,192,34527,1,0,0:0:0:0:
256,192,34605,1,0,0:0:0:0:
256,192,34683,1,0,0:0:0:0:
256,192,34761,1,0,0:0:0:0:
256,192,34840,1,8,0:0:0:0:
256,192,34996,1,8,0:0:0:0:
256,192,35074,1,8,0:0:0:0:
256,192,35152,1,0,0:0:0:0:
256,192,35308,5,0,0:0:0:0:
256,192,35386,1,0,0:0:0:0:
256,192,35464,1,0,0:0:0:0:
256,192,35543,1,0,0:0:0:0:
256,192,35621,1,8,0:0:0:0:
256,192,35777,1,0,0:0:0:0:
256,192,35855,1,0,0:0:0:0:
256,192,35933,1,0,0:0:0:0:
256,192,36011,1,0,0:0:0:0:
256,192,36089,1,8,0:0:0:0:
256,192,36246,1,0,0:0:0:0:
256,192,36324,1,0,0:0:0:0:
256,192,36402,1,8,0:0:0:0:
256,192,36558,5,0,0:0:0:0:
256,192,36636,1,0,0:0:0:0:
256,192,36714,1,8,0:0:0:0:
256,192,36871,1,8,0:0:0:0:
256,192,36949,1,0,0:0:0:0:
256,192,37027,1,8,0:0:0:0:
256,192,37183,1,0,0:0:0:0:
256,192,37261,1,0,0:0:0:0:
256,192,37339,1,8,0:0:0:0:
256,192,37496,1,8,0:0:0:0:
256,192,37574,1,0,0:0:0:0:
256,192,37652,1,8,0:0:0:0:
256,192,37808,5,0,0:0:0:0:
256,192,37886,1,0,0:0:0:0:
256,192,37964,1,8,0:0:0:0:
256,192,38120,1,8,0:0:0:0:
256,192,38199,1,0,0:0:0:0:
256,192,38277,1,8,0:0:0:0:
256,192,38433,12,8,38745,0:0:0:0:
256,192,39058,5,0,0:0:0:0:
256,192,39214,1,0,0:0:0:0:
256,192,39370,1,8,0:0:0:0:
256,192,39527,1,0,0:0:0:0:
256,192,39605,1,0,0:0:0:0:
256,192,39683,1,0,0:0:0:0:
256,192,39839,1,0,0:0:0:0:
256,192,39995,1,8,0:0:0:0:
256,192,40308,5,0,0:0:0:0:
256,192,40464,1,0,0:0:0:0:
256,192,40620,1,8,0:0:0:0:
256,192,40777,1,0,0:0:0:0:
256,192,40855,1,0,0:0:0:0:
256,192,40933,1,0,0:0:0:0:
256,192,41089,1,0,0:0:0:0:
256,192,41245,1,8,0:0:0:0:
256,192,41401,1,8,0:0:0:0:
256,192,41558,5,8,0:0:0:0:
256,192,41714,1,0,0:0:0:0:
256,192,41870,1,8,0:0:0:0:
256,192,42027,1,8,0:0:0:0:
256,192,42105,1,8,0:0:0:0:
256,192,42183,1,0,0:0:0:0:
256,192,42339,1,0,0:0:0:0:
256,192,42495,1,8,0:0:0:0:
256,192,42807,5,8,0:0:0:0:
256,192,42963,1,0,0:0:0:0:
256,192,43119,1,8,0:0:0:0:
256,192,43432,1,8,0:0:0:0:
256,192,43588,1,0,0:0:0:0:
256,192,43744,1,8,0:0:0:0:
256,192,44057,5,8,0:0:0:0:
256,192,44213,1,8,0:0:0:0:
256,192,44369,1,8,0:0:0:0:
256,192,44526,1,8,0:0:0:0:
256,192,44604,1,8,0:0:0:0:
256,192,44682,1,8,0:0:0:0:
256,192,44838,1,0,0:0:0:0:
256,192,44994,1,8,0:0:0:0:
256,192,45307,5,0,0:0:0:0:
256,192,45463,1,0,0:0:0:0:
256,192,45619,1,8,0:0:0:0:
256,192,45776,1,0,0:0:0:0:
256,192,45854,1,0,0:0:0:0:
256,192,45932,1,0,0:0:0:0:
256,192,46088,1,0,0:0:0:0:
256,192,46244,1,8,0:0:0:0:
256,192,46401,1,8,0:0:0:0:
256,192,46557,5,8,0:0:0:0:
256,192,46713,1,0,0:0:0:0:
256,192,46869,1,8,0:0:0:0:
256,192,47026,1,8,0:0:0:0:
256,192,47104,1,8,0:0:0:0:
256,192,47182,1,0,0:0:0:0:
256,192,47338,1,0,0:0:0:0:
256,192,47494,1,8,0:0:0:0:
256,192,47807,5,0,0:0:0:0:
256,192,48119,1,0,0:0:0:0:
256,192,48432,1,0,0:0:0:0:
256,192,49057,5,0,0:0:0:0:
256,192,49213,1,0,0:0:0:0:
256,192,49369,1,8,0:0:0:0:
256,192,49682,1,0,0:0:0:0:
256,192,49838,1,0,0:0:0:0:
256,192,49994,1,8,0:0:0:0:
256,192,50307,1,0,0:0:0:0:
256,192,50463,1,0,0:0:0:0:
256,192,50619,1,8,0:0:0:0:
256,192,50775,1,0,0:0:0:0:
256,192,50932,1,8,0:0:0:0:
256,192,51088,1,0,0:0:0:0:
256,192,51166,1,8,0:0:0:0:
256,192,51244,1,0,0:0:0:0:
256,192,51400,1,0,0:0:0:0:
256,192,51557,5,0,0:0:0:0:
256,192,51713,1,0,0:0:0:0:
256,192,51869,1,8,0:0:0:0:
256,192,52181,1,0,0:0:0:0:
256,192,52338,1,0,0:0:0:0:
256,192,52494,1,8,0:0:0:0:
256,192,52806,1,0,0:0:0:0:
256,192,52963,1,0,0:0:0:0:
256,192,53119,1,8,0:0:0:0:
256,192,53275,1,0,0:0:0:0:
256,192,53431,1,8,0:0:0:0:
256,192,53588,1,0,0:0:0:0:
256,192,53666,1,8,0:0:0:0:
256,192,53744,1,0,0:0:0:0:
256,192,53900,1,0,0:0:0:0:
256,192,54056,5,0,0:0:0:0:
256,192,54213,1,0,0:0:0:0:
256,192,54369,1,8,0:0:0:0:
256,192,54681,1,0,0:0:0:0:
256,192,54837,1,0,0:0:0:0:
256,192,54994,1,8,0:0:0:0:
256,192,55306,1,0,0:0:0:0:
256,192,55462,1,0,0:0:0:0:
256,192,55619,1,8,0:0:0:0:
256,192,55775,1,0,0:0:0:0:
256,192,55931,1,8,0:0:0:0:
256,192,56087,1,0,0:0:0:0:
256,192,56165,1,8,0:0:0:0:
256,192,56244,1,0,0:0:0:0:
256,192,56400,1,0,0:0:0:0:
256,192,56556,5,0,0:0:0:0:
256,192,56712,1,8,0:0:0:0:
256,192,56868,1,0,0:0:0:0:
256,192,57181,1,0,0:0:0:0:
256,192,57493,1,0,0:0:0:0:
256,192,57806,5,0,0:0:0:0:
256,192,58118,1,0,0:0:0:0:
256,192,58431,1,8,0:0:0:0:
256,192,58743,1,0,0:0:0:0:
256,192,58900,1,8,0:0:0:0:
256,192,59056,5,0,0:0:0:0:
256,192,59368,1,8,0:0:0:0:
256,192,59681,1,0,0:0:0:0:
256,192,59993,1,0,0:0:0:0:
256,192,60149,1,8,0:0:0:0:
256,192,60306,1,0,0:0:0:0:
256,192,60618,1,8,0:0:0:0:
256,192,60931,1,8,0:0:0:0:
256,192,61087,1,0,0:0:0:0:
256,192,61243,1,8,0:0:0:0:
256,192,61399,1,8,0:0:0:0:
256,192,61556,5,0,0:0:0:0:
256,192,61868,1,8,0:0:0:0:
256,192,62180,1,0,0:0:0:0:
256,192,62337,1,0,0:0:0:0:
256,192,62493,1,8,0:0:0:0:
256,192,62805,5,0,0:0:0:0:
256,192,63118,1,8,0:0:0:0:
256,192,63430,1,0,0:0:0:0:
256,192,63587,1,0,0:0:0:0:
256,192,63743,1,0,0:0:0:0:
256,192,63899,1,8,0:0:0:0:
256,192,64055,5,8,0:0:0:0:
256,192,64368,1,8,0:0:0:0:
256,192,64680,1,8,0:0:0:0:
256,192,64993,1,0,0:0:0:0:
256,192,65149,1,8,0:0:0:0:
256,192,65305,5,8,0:0:0:0:
256,192,65618,1,8,0:0:0:0:
256,192,65930,1,8,0:0:0:0:
256,192,66086,1,0,0:0:0:0:
256,192,66243,1,8,0:0:0:0:
256,192,66399,1,8,0:0:0:0:
256,192,66555,5,0,0:0:0:0:
256,192,66867,1,8,0:0:0:0:
256,192,67180,1,0,0:0:0:0:
256,192,67336,1,0,0:0:0:0:
256,192,67492,1,8,0:0:0:0:
256,192,67805,5,12,0:0:0:0:
256,192,69055,5,0,0:0:0:0:
256,192,69211,1,8,0:0:0:0:
256,192,69367,1,0,0:0:0:0:
256,192,69445,1,8,0:0:0:0:
256,192,69680,1,12,0:0:0:0:
256,192,69836,1,0,0:0:0:0:
256,192,69914,1,0,0:0:0:0:
256,192,69992,1,0,0:0:0:0:
256,192,70070,1,0,0:0:0:0:
256,192,70148,1,0,0:0:0:0:
256,192,70305,5,0,0:0:0:0:
256,192,70461,1,0,0:0:0:0:
256,192,70617,1,8,0:0:0:0:
256,192,70851,1,8,0:0:0:0:
256,192,70930,1,0,0:0:0:0:
256,192,71086,1,0,0:0:0:0:
256,192,71242,1,8,0:0:0:0:
256,192,71476,1,8,0:0:0:0:
256,192,71554,1,0,0:0:0:0:
256,192,71711,1,0,0:0:0:0:
256,192,71867,1,8,0:0:0:0:
256,192,72023,1,0,0:0:0:0:
256,192,72101,1,0,0:0:0:0:
256,192,72179,1,8,0:0:0:0:
256,192,72336,1,0,0:0:0:0:
256,192,72414,1,8,0:0:0:0:
256,192,72492,1,0,0:0:0:0:
256,192,72648,1,0,0:0:0:0:
256,192,72804,5,0,0:0:0:0:
256,192,72961,1,0,0:0:0:0:
256,192,73117,1,8,0:0:0:0:
256,192,73351,1,8,0:0:0:0:
256,192,73429,1,0,0:0:0:0:
256,192,73586,1,0,0:0:0:0:
256,192,73742,1,8,0:0:0:0:
256,192,73976,1,8,0:0:0:0:
256,192,74054,1,0,0:0:0:0:
256,192,74210,1,0,0:0:0:0:
256,192,74367,1,8,0:0:0:0:
256,192,74523,1,0,0:0:0:0:
256,192,74601,1,0,0:0:0:0:
256,192,74679,1,8,0:0:0:0:
256,192,74835,1,0,0:0:0:0:
256,192,74887,1,8,0:0:0:0:
256,192,74940,1,8,0:0:0:0:
256,192,74992,1,0,0:0:0:0:
256,192,75148,1,0,0:0:0:0:
256,192,75304,5,0,0:0:0:0:
256,192,75460,1,0,0:0:0:0:
256,192,75617,1,8,0:0:0:0:
256,192,75851,1,8,0:0:0:0:
256,192,75929,1,0,0:0:0:0:
256,192,76085,1,0,0:0:0:0:
256,192,76241,1,8,0:0:0:0:
256,192,76476,1,8,0:0:0:0:
256,192,76554,1,0,0:0:0:0:
256,192,76710,1,0,0:0:0:0:
256,192,76866,1,8,0:0:0:0:
256,192,77023,1,0,0:0:0:0:
256,192,77101,1,0,0:0:0:0:
256,192,77179,1,8,0:0:0:0:
256,192,77335,1,0,0:0:0:0:
256,192,77413,1,8,0:0:0:0:
256,192,77491,1,0,0:0:0:0:
256,192,77648,1,0,0:0:0:0:
256,192,77804,5,0,0:0:0:0:
256,192,77960,1,8,0:0:0:0:
256,192,78038,1,8,0:0:0:0:
256,192,78116,1,0,0:0:0:0:
256,192,78273,1,8,0:0:0:0:
256,192,78429,1,0,0:0:0:0:
256,192,78507,1,0,0:0:0:0:
256,192,78585,1,8,0:0:0:0:
256,192,78741,1,0,0:0:0:0:
256,192,78897,1,0,0:0:0:0:
256,192,79054,5,0,0:0:0:0:
256,192,79132,1,0,0:0:0:0:
256,192,79210,1,0,0:0:0:0:
256,192,79366,1,8,0:0:0:0:
256,192,79444,1,0,0:0:0:0:
256,192,79522,1,0,0:0:0:0:
256,192,79679,1,8,0:0:0:0:
256,192,79757,1,8,0:0:0:0:
256,192,79835,1,0,0:0:0:0:
256,192,79991,1,0,0:0:0:0:
256,192,80069,1,0,0:0:0:0:
256,192,80147,1,8,0:0:0:0:
256,192,80225,1,8,0:0:0:0:
256,192,80304,5,0,0:0:0:0:
256,192,80460,1,8,0:0:0:0:
256,192,80538,1,8,0:0:0:0:
256,192,80616,1,0,0:0:0:0:
256,192,80772,1,8,0:0:0:0:
256,192,80928,1,0,0:0:0:0:
256,192,81085,1,8,0:0:0:0:
256,192,81163,1,8,0:0:0:0:
256,192,81241,1,0,0:0:0:0:
256,192,81397,1,8,0:0:0:0:
256,192,81553,5,0,0:0:0:0:
256,192,81632,1,0,0:0:0:0:
256,192,81710,1,8,0:0:0:0:
256,192,81866,1,0,0:0:0:0:
256,192,82022,1,8,0:0:0:0:
256,192,82178,1,0,0:0:0:0:
256,192,82256,1,0,0:0:0:0:
256,192,82335,1,8,0:0:0:0:
256,192,82491,1,0,0:0:0:0:
256,192,82647,1,8,0:0:0:0:
256,192,82803,5,0,0:0:0:0:
256,192,82960,1,8,0:0:0:0:
256,192,83116,1,0,0:0:0:0:
256,192,83194,1,0,0:0:0:0:
256,192,83272,1,8,0:0:0:0:
256,192,83428,1,0,0:0:0:0:
256,192,83584,1,8,0:0:0:0:
256,192,83741,1,0,0:0:0:0:
256,192,83819,1,0,0:0:0:0:
256,192,83897,1,8,0:0:0:0:
256,192,84053,5,0,0:0:0:0:
256,192,84209,1,8,0:0:0:0:
256,192,84366,1,8,0:0:0:0:
256,192,84444,1,8,0:0:0:0:
256,192,84522,1,0,0:0:0:0:
256,192,84678,1,0,0:0:0:0:
256,192,84834,1,8,0:0:0:0:
256,192,84912,1,8,0:0:0:0:
256,192,84991,1,0,0:0:0:0:
256,192,85147,1,8,0:0:0:0:
256,192,85303,5,0,0:0:0:0:
256,192,85459,1,0,0:0:0:0:
256,192,85616,1,8,0:0:0:0:
256,192,85694,1,8,0:0:0:0:
256,192,85772,1,8,0:0:0:0:
256,192,85928,1,0,0:0:0:0:
256,192,86084,1,8,0:0:0:0:
256,192,86162,1,8,0:0:0:0:
256,192,86240,1,0,0:0:0:0:
256,192,86397,1,8,0:0:0:0:
256,192,86553,5,0,0:0:0:0:
256,192,86709,1,8,0:0:0:0:
256,192,86865,1,0,0:0:0:0:
256,192,86943,1,0,0:0:0:0:
256,192,87022,1,8,0:0:0:0:
256,192,87178,1,0,0:0:0:0:
256,192,87334,1,8,0:0:0:0:
256,192,87412,1,8,0:0:0:0:
256,192,87490,1,0,0:0:0:0:
256,192,87568,1,0,0:0:0:0:
256,192,87647,1,8,0:0:0:0:
256,192,87803,5,0,0:0:0:0:
256,192,87881,1,0,0:0:0:0:
256,192,87959,1,0,0:0:0:0:
256,192,88037,1,0,0:0:0:0:
256,192,88115,1,8,0:0:0:0:
256,192,88193,1,0,0:0:0:0:
256,192,88271,1,0,0:0:0:0:
256,192,88350,1,0,0:0:0:0:
256,192,88428,1,8,0:0:0:0:
256,192,88584,1,0,0:0:0:0:
256,192,88662,1,0,0:0:0:0:
256,192,88740,1,8,0:0:0:0:
256,192,88896,1,0,0:0:0:0:
256,192,89053,5,12,0:0:0:0:
256,192,89678,1,8,0:0:0:0:
256,192,89834,1,8,0:0:0:0:
256,192,89990,1,8,0:0:0:0:
256,192,90146,1,8,0:0:0:0:
256,192,90224,1,8,0:0:0:0:
256,192,90303,1,0,0:0:0:0:
256,192,90459,1,0,0:0:0:0:
256,192,90537,1,0,0:0:0:0:
256,192,90615,1,8,0:0:0:0:
256,192,90771,1,0,0:0:0:0:
256,192,90927,1,8,0:0:0:0:
256,192,91006,1,8,0:0:0:0:
256,192,91084,1,0,0:0:0:0:
256,192,91240,1,0,0:0:0:0:
256,192,91396,1,8,0:0:0:0:
256,192,91552,5,0,0:0:0:0:
256,192,91709,1,8,0:0:0:0:
256,192,91865,1,0,0:0:0:0:
256,192,91943,1,0,0:0:0:0:
256,192,92021,1,8,0:0:0:0:
256,192,92177,1,8,0:0:0:0:
256,192,92334,1,0,0:0:0:0:
256,192,92412,1,0,0:0:0:0:
256,192,92490,1,8,0:0:0:0:
256,192,92646,1,0,0:0:0:0:
256,192,92802,5,0,0:0:0:0:
256,192,92958,1,8,0:0:0:0:
256,192,93115,1,0,0:0:0:0:
256,192,93193,1,0,0:0:0:0:
256,192,93271,1,8,0:0:0:0:
256,192,93427,1,8,0:0:0:0:
256,192,93505,1,8,0:0:0:0:
256,192,93583,1,0,0:0:0:0:
256,192,93662,1,0,0:0:0:0:
256,192,93740,1,0,0:0:0:0:
256,192,93896,1,8,0:0:0:0:
256,192,94052,5,0,0:0:0:0:
256,192,94208,1,8,0:0:0:0:
256,192,94365,1,0,0:0:0:0:
256,192,94443,1,0,0:0:0:0:
256,192,94521,1,8,0:0:0:0:
256,192,94677,1,8,0:0:0:0:
256,192,94755,1,8,0:0:0:0:
256,192,94833,1,0,0:0:0:0:
256,192,94911,1,8,0:0:0:0:
256,192,94990,1,0,0:0:0:0:
256,192,95146,1,0,0:0:0:0:
256,192,95302,5,0,0:0:0:0:
256,192,95458,1,0,0:0:0:0:
256,192,95536,1,0,0:0:0:0:
256,192,95614,1,8,0:0:0:0:
256,192,95771,1,0,0:0:0:0:
256,192,95927,1,8,0:0:0:0:
256,192,96005,1,8,0:0:0:0:
256,192,96083,1,0,0:0:0:0:
256,192,96239,1,0,0:0:0:0:
256,192,96318,1,0,0:0:0:0:
256,192,96396,1,0,0:0:0:0:
256,192,96474,1,8,0:0:0:0:
256,192,96708,5,8,0:0:0:0:
256,192,96786,1,8,0:0:0:0:
256,192,96864,1,0,0:0:0:0:
256,192,97021,1,8,0:0:0:0:
256,192,97177,1,8,0:0:0:0:
256,192,97255,1,8,0:0:0:0:
256,192,97333,1,0,0:0:0:0:
256,192,97411,1,8,0:0:0:0:
256,192,97489,1,0,0:0:0:0:
256,192,97567,1,0,0:0:0:0:
256,192,97646,1,8,0:0:0:0:
256,192,97724,1,0,0:0:0:0:
256,192,97802,5,0,0:0:0:0:
256,192,97958,1,0,0:0:0:0:
256,192,98036,1,0,0:0:0:0:
256,192,98114,1,8,0:0:0:0:
256,192,98270,1,0,0:0:0:0:
256,192,98427,1,8,0:0:0:0:
256,192,98505,1,8,0:0:0:0:
256,192,98583,1,0,0:0:0:0:
256,192,98739,1,0,0:0:0:0:
256,192,98895,1,8,0:0:0:0:
256,192,99052,12,8,99989,0:0:0:0:
256,192,100301,5,0,0:0:0:0:
256,192,100458,1,0,0:0:0:0:
256,192,100614,1,8,0:0:0:0:
256,192,100770,1,0,0:0:0:0:
256,192,100848,1,0,0:0:0:0:
256,192,100926,1,8,0:0:0:0:
256,192,101083,1,0,0:0:0:0:
256,192,101161,1,0,0:0:0:0:
256,192,101239,1,0,0:0:0:0:
256,192,101317,1,0,0:0:0:0:
256,192,101395,1,8,0:0:0:0:
256,192,101551,5,0,0:0:0:0:
256,192,101708,1,0,0:0:0:0:
256,192,101864,1,8,0:0:0:0:
256,192,102020,1,0,0:0:0:0:
256,192,102098,1,0,0:0:0:0:
256,192,102176,1,8,0:0:0:0:
256,192,102333,1,8,0:0:0:0:
256,192,102411,1,8,0:0:0:0:
256,192,102489,1,0,0:0:0:0:
256,192,102567,1,0,0:0:0:0:
256,192,102645,1,0,0:0:0:0:
256,192,102801,5,0,0:0:0:0:
256,192,102957,1,0,0:0:0:0:
256,192,103114,1,8,0:0:0:0:
256,192,103270,1,0,0:0:0:0:
256,192,103348,1,0,0:0:0:0:
256,192,103426,1,8,0:0:0:0:
256,192,103582,1,0,0:0:0:0:
256,192,103661,1,0,0:0:0:0:
256,192,103739,1,0,0:0:0:0:
256,192,103817,1,0,0:0:0:0:
256,192,103895,1,8,0:0:0:0:
256,192,104207,5,0,0:0:0:0:
256,192,104285,1,0,0:0:0:0:
256,192,104364,1,0,0:0:0:0:
256,192,104520,1,8,0:0:0:0:
256,192,104598,1,8,0:0:0:0:
256,192,104676,1,8,0:0:0:0:
256,192,104754,1,8,0:0:0:0:
256,192,104832,1,0,0:0:0:0:
256,192,104988,1,0,0:0:0:0:
256,192,105145,1,0,0:0:0:0:
256,192,105301,5,12,0:0:0:0:
256,192,105457,1,0,0:0:0:0:
256,192,105613,1,0,0:0:0:0:
256,192,105926,1,12,0:0:0:0:
256,192,106082,1,0,0:0:0:0:
256,192,106238,1,0,0:0:0:0:
256,192,106395,1,12,0:0:0:0:
256,192,106707,1,8,0:0:0:0:
256,192,106863,1,8,0:0:0:0:
256,192,107020,1,8,0:0:0:0:
256,192,107176,1,8,0:0:0:0:
256,192,107332,1,8,0:0:0:0:
256,192,107488,1,8,0:0:0:0:
256,192,107644,1,8,0:0:0:0:
256,192,107801,5,0,0:0:0:0:
256,192,107879,1,0,0:0:0:0:
256,192,107957,1,0,0:0:0:0:
256,192,108035,1,0,0:0:0:0:
256,192,108113,1,8,0:0:0:0:
256,192,108191,1,0,0:0:0:0:
256,192,108269,1,0,0:0:0:0:
256,192,108348,1,0,0:0:0:0:
256,192,108426,1,0,0:0:0:0:
256,192,108504,1,0,0:0:0:0:
256,192,108582,1,0,0:0:0:0:
256,192,108660,1,0,0:0:0:0:
256,192,108738,1,8,0:0:0:0:
256,192,108816,1,0,0:0:0:0:
256,192,108894,1,0,0:0:0:0:
256,192,109051,5,0,0:0:0:0:
256,192,109129,1,0,0:0:0:0:
256,192,109207,1,0,0:0:0:0:
256,192,109285,1,0,0:0:0:0:
256,192,109363,1,8,0:0:0:0:
256,192,109441,1,8,0:0:0:0:
256,192,109519,1,0,0:0:0:0:
256,192,109597,1,0,0:0:0:0:
256,192,109675,1,0,0:0:0:0:
256,192,109754,1,0,0:0:0:0:
256,192,109832,1,0,0:0:0:0:
256,192,109910,1,0,0:0:0:0:
256,192,109988,1,8,0:0:0:0:
256,192,110066,1,0,0:0:0:0:
256,192,110144,1,8,0:0:0:0:
256,192,110300,5,0,0:0:0:0:
256,192,110379,1,0,0:0:0:0:
256,192,110457,1,8,0:0:0:0:
256,192,110535,1,8,0:0:0:0:
256,192,110613,1,0,0:0:0:0:
256,192,110691,1,0,0:0:0:0:
256,192,110769,1,8,0:0:0:0:
256,192,110847,1,8,0:0:0:0:
256,192,110925,1,0,0:0:0:0:
256,192,111003,1,0,0:0:0:0:
256,192,111082,1,8,0:0:0:0:
256,192,111160,1,0,0:0:0:0:
256,192,111238,1,8,0:0:0:0:
256,192,111316,1,0,0:0:0:0:
256,192,111394,1,8,0:0:0:0:
256,192,111550,5,8,0:0:0:0:
256,192,111628,1,8,0:0:0:0:
256,192,111707,1,0,0:0:0:0:
256,192,111785,1,0,0:0:0:0:
256,192,111863,1,8,0:0:0:0:
256,192,111941,1,8,0:0:0:0:
256,192,112019,1,0,0:0:0:0:
256,192,112097,1,0,0:0:0:0:
256,192,112175,1,8,0:0:0:0:
256,192,112253,1,8,0:0:0:0:
256,192,112331,1,0,0:0:0:0:
256,192,112410,1,8,0:0:0:0:
256,192,112488,1,8,0:0:0:0:
256,192,112566,1,0,0:0:0:0:
256,192,112644,1,0,0:0:0:0:
256,192,112800,5,8,0:0:0:0:
256,192,112878,1,0,0:0:0:0:
256,192,112956,1,0,0:0:0:0:
256,192,113035,1,0,0:0:0:0:
256,192,113113,1,8,0:0:0:0:
256,192,113191,1,0,0:0:0:0:
256,192,113269,1,0,0:0:0:0:
256,192,113347,1,0,0:0:0:0:
256,192,113425,1,8,0:0:0:0:
256,192,113503,1,0,0:0:0:0:
256,192,113581,1,0,0:0:0:0:
256,192,113659,1,8,0:0:0:0:
256,192,113738,1,0,0:0:0:0:
256,192,113816,1,0,0:0:0:0:
256,192,113894,1,8,0:0:0:0:
256,192,114050,5,8,0:0:0:0:
256,192,114128,1,8,0:0:0:0:
256,192,114206,1,0,0:0:0:0:
256,192,114284,1,8,0:0:0:0:
256,192,114363,1,8,0:0:0:0:
256,192,114441,1,0,0:0:0:0:
256,192,114519,1,8,0:0:0:0:
256,192,114597,1,8,0:0:0:0:
256,192,114675,1,0,0:0:0:0:
256,192,114753,1,8,0:0:0:0:
256,192,114831,1,8,0:0:0:0:
256,192,114909,1,8,0:0:0:0:
256,192,114987,1,0,0:0:0:0:
256,192,115066,1,8,0:0:0:0:
256,192,115144,1,0,0:0:0:0:
256,192,115300,5,8,0:0:0:0:
256,192,115378,1,8,0:0:0:0:
256,192,115456,1,0,0:0:0:0:
256,192,115534,1,0,0:0:0:0:
256,192,115612,1,0,0:0:0:0:
256,192,115690,1,0,0:0:0:0:
256,192,115769,1,8,0:0:0:0:
256,192,115847,1,8,0:0:0:0:
256,192,115925,1,0,0:0:0:0:
256,192,116003,1,0,0:0:0:0:
256,192,116081,1,0,0:0:0:0:
256,192,116159,1,0,0:0:0:0:
256,192,116237,1,8,0:0:0:0:
256,192,116315,1,8,0:0:0:0:
256,192,116394,1,0,0:0:0:0:
256,192,116550,5,0,0:0:0:0:
256,192,116628,1,0,0:0:0:0:
256,192,116706,1,0,0:0:0:0:
256,192,116784,1,0,0:0:0:0:
256,192,116862,1,8,0:0:0:0:
256,192,116940,1,8,0:0:0:0:
256,192,117018,1,0,0:0:0:0:
256,192,117097,1,0,0:0:0:0:
256,192,117175,1,8,0:0:0:0:
256,192,117253,1,8,0:0:0:0:
256,192,117331,1,0,0:0:0:0:
256,192,117409,1,0,0:0:0:0:
256,192,117487,1,8,0:0:0:0:
256,192,117565,1,0,0:0:0:0:
256,192,117643,1,8,0:0:0:0:
256,192,117800,5,0,0:0:0:0:
256,192,117878,1,8,0:0:0:0:
256,192,117956,1,0,0:0:0:0:
256,192,118034,1,0,0:0:0:0:
256,192,118112,1,8,0:0:0:0:
256,192,118190,1,0,0:0:0:0:
256,192,118268,1,0,0:0:0:0:
256,192,118346,1,8,0:0:0:0:
256,192,118425,1,0,0:0:0:0:
256,192,118503,1,0,0:0:0:0:
256,192,118581,1,8,0:0:0:0:
256,192,118659,1,0,0:0:0:0:
256,192,118737,1,8,0:0:0:0:
256,192,118815,1,0,0:0:0:0:
256,192,118893,1,8,0:0:0:0:
256,192,119050,5,8,0:0:0:0:
256,192,119128,1,8,0:0:0:0:
256,192,119206,1,0,0:0:0:0:
256,192,119284,1,8,0:0:0:0:
256,192,119362,1,8,0:0:0:0:
256,192,119440,1,0,0:0:0:0:
256,192,119518,1,8,0:0:0:0:
256,192,119596,1,8,0:0:0:0:
256,192,119674,1,0,0:0:0:0:
256,192,119753,1,8,0:0:0:0:
256,192,119831,1,8,0:0:0:0:
256,192,119909,1,0,0:0:0:0:
256,192,119987,1,8,0:0:0:0:
256,192,120065,1,0,0:0:0:0:
256,192,120143,1,0,0:0:0:0:
256,192,120299,1,8,0:0:0:0:
256,192,120378,1,0,0:0:0:0:
256,192,120456,1,8,0:0:0:0:
256,192,120534,1,0,0:0:0:0:
256,192,120612,1,8,0:0:0:0:
256,192,120690,1,0,0:0:0:0:
256,192,120768,1,0,0:0:0:0:
256,192,120846,1,0,0:0:0:0:
256,192,120924,1,8,0:0:0:0:
256,192,121002,1,0,0:0:0:0:
256,192,121081,1,8,0:0:0:0:
256,192,121159,1,0,0:0:0:0:
256,192,121237,1,8,0:0:0:0:
256,192,121315,1,0,0:0:0:0:
256,192,121393,1,0,0:0:0:0:
256,192,121549,5,0,0:0:0:0:
256,192,121627,1,0,0:0:0:0:
256,192,121705,1,0,0:0:0:0:
256,192,121784,1,8,0:0:0:0:
256,192,121862,1,8,0:0:0:0:
256,192,121940,1,0,0:0:0:0:
256,192,122018,1,0,0:0:0:0:
256,192,122096,1,8,0:0:0:0:
256,192,122174,1,8,0:0:0:0:
256,192,122252,1,0,0:0:0:0:
256,192,122330,1,0,0:0:0:0:
256,192,122409,1,8,0:0:0:0:
256,192,122487,1,8,0:0:0:0:
256,192,122565,1,0,0:0:0:0:
256,192,122643,1,0,0:0:0:0:
256,192,122799,5,0,0:0:0:0:
256,192,122877,1,0,0:0:0:0:
256,192,122955,1,8,0:0:0:0:
256,192,123112,1,8,0:0:0:0:
256,192,123190,1,0,0:0:0:0:
256,192,123268,1,8,0:0:0:0:
256,192,123424,1,0,0:0:0:0:
256,192,123502,1,0,0:0:0:0:
256,192,123580,1,8,0:0:0:0:
256,192,123737,1,8,0:0:0:0:
256,192,123815,1,0,0:0:0:0:
256,192,123893,1,8,0:0:0:0:
256,192,124049,5,0,0:0:0:0:
256,192,124127,1,0,0:0:0:0:
256,192,124205,1,8,0:0:0:0:
256,192,124283,1,0,0:0:0:0:
256,192,124361,1,8,0:0:0:0:
256,192,124440,1,0,0:0:0:0:
256,192,124518,1,0,0:0:0:0:
256,192,124596,1,8,0:0:0:0:
256,192,124674,1,8,0:0:0:0:
256,192,124752,1,8,0:0:0:0:
256,192,124830,1,0,0:0:0:0:
256,192,124908,1,0,0:0:0:0:
256,192,124986,1,8,0:0:0:0:
256,192,125065,1,0,0:0:0:0:
256,192,125143,1,0,0:0:0:0:
