osu file format v9

[General]
AudioFilename: 24th Century BOY.mp3
AudioLeadIn: 0
PreviewTime: 18300
Countdown: 0
SampleSet: Soft
StackLeniency: 0.7
Mode: 0
LetterboxInBreaks: 1

[Editor]
DistanceSpacing: 1
BeatDivisor: 4
GridSize: 4

[Metadata]
Title:24th Century BOY
Artist:Tatsh
Creator:Takos
Version:Normal
Source:beatmania IIDX
Tags:19 Lincle konami streams deathstreams

[Difficulty]
HPDrainRate:2
CircleSize:3
OverallDifficulty:2
ApproachRate:4
SliderMultiplier:1
SliderTickRate:1

[Events]
//Background and Video events
0,0,"BG.jpg"
//Break Periods
2,53117,57311
//Storyboard Layer 0 (Background)
//Storyboard Layer 1 (Fail)
//Storyboard Layer 2 (Pass)
//Storyboard Layer 3 (Foreground)
//Storyboard Sound Samples
//Background Colour Transformations
3,100,0,0,0

[TimingPoints]
1489,357.142857142857,4,2,1,60,1,0
15238,-100,4,2,1,20,0,0
16488,-100,4,2,1,30,0,0
16667,-100,4,2,1,40,0,0
16846,-100,4,2,1,50,0,0
17024,-100,4,2,1,60,0,0
17203,-100,4,2,1,70,0,0
17381,-100,4,2,1,80,0,0
17560,-100,4,2,1,5,0,0
18274,-100,4,1,1,70,0,0
90417,357.142857142857,4,1,1,70,1,1
118989,-100,4,1,1,70,0,0

[Colours]
Combo1 : 255,74,74
Combo2 : 255,255,255
Combo3 : 255,104,255
Combo4 : 92,248,252

[HitObjects]
171,246,4346,2,0,B|200:289|256:316|312:289|341:246,1,200,2|0
172,135,5774,2,0,B|200:95|256:68|311:94|341:138,1,200,2|0
340,237,6846,1,2
256,192,7203,6,0,B|228:151|172:124|116:151|87:194,1,200,2|0
256,192,8631,2,0,B|283:232|339:259|395:232|424:189,1,200,2|0
340,136,9703,1,2
256,80,10060,6,0,B|56:80,1,200,6|0
56,279,11488,2,0,B|256:279,1,200,2|0
308,192,12560,1,2
358,106,12917,6,0,B|408:130|425:183|419:242|369:271,1,200,2|0
246,112,14346,2,0,B|197:140|191:199|208:252|257:276,1,200,2|0
256,192,15417,12,0,17560
364,92,18631,6,0,B|364:192,1,100,4|8
276,148,19346,2,0,B|250:244,1,100,0|8
176,176,20060,2,0,B|126:262,1,100,0|8
68,180,20774,1,0
232,64,21488,6,0,B|277:35|332:50,1,100,0|8
413,101,22203,2,0,B|442:146|427:201,1,100,0|8
360,268,22917,2,0,B|315:297|260:282,1,100,2|8
194,210,23631,1,2
76,372,24346,6,0,B|32:335|39:281,1,100,0|8
98,204,25060,2,0,B|137:167|137:113,1,100,0|8
39,135,25774,2,0,B|0:172|0:226,1,100,0|8
60,304,26488,1,0
228,192,27203,6,0,B|328:192,2,100,0|8|0
380,320,28631,2,0,B|428:320,2,50,0|0|8
280,320,29346,1,2
128,192,30060,6,0,B|128:92|128:92|208:28,1,200,4|0
384,116,31488,2,0,B|384:216|384:216|304:280,1,200,2|2
205,278,32560,1,10
134,207,32917,6,0,B|69:132|69:132|136:56,1,200
336,60,34346,2,0,B|400:134|400:134|334:211,1,200,2|2
272,132,35417,1,10
196,196,35774,6,0,B|118:196|118:196|104:180|104:180|88:196|88:196|8:196,1,200
156,60,37203,2,0,B|233:59|233:59|248:76|248:76|264:60|264:60|344:60,1,200,2|2
436,44,38274,1,8
452,144,38631,6,0,B|476:188|476:188|452:232,1,100,4|8
352,236,39346,2,0,B|376:192|376:192|352:148,1,100,4|8
252,148,40060,2,0,B|276:192|276:192|252:236,2,100,4|8|0
52,144,41489,6,0,B|24:192|52:240,1,100,0|8
122,309,42203,2,0,B|168:281|216:309,1,100,0|8
316,309,42917,2,0,B|362:336|410:308,1,100,0|8
481,237,43631,2,0,B|453:190|481:142,1,100,0|8
480,40,44346,6,0,B|388:96|288:40,1,200,2|2
120,148,45774,2,0,B|212:92|312:148,1,200,2|2
451,288,47203,6,0,B|404:315|356:287,1,100,0|8
285,216,47917,2,0,B|238:188|190:216,1,100,0|8
119,287,48631,2,0,B|72:314|24:286,1,100,0|8
24,186,49346,2,0,B|70:158|118:186,2,100,0|8|2
164,44,50774,5,2
363,44,51489,1,2
256,212,52203,2,0,B|256:312,2,100,2|10|4
303,60,58631,5,0
387,239,59346,1,0
208,323,60060,1,0
124,144,60774,1,0
303,60,61489,5,0
124,144,62203,1,0
208,323,62917,1,0
387,239,63631,1,0
303,60,64346,5,4
256,192,67203,6,0,B|356:192,1,100,4|8
444,144,67917,2,0,B|476:192|444:240,1,100,0|8
356,284,68631,2,0,B|256:284,1,100,0|8
156,284,69346,1,2
256,112,70060,6,0,B|356:112,1,100,0|8
444,156,70774,2,0,B|474:110|442:62,1,100,0|8
354,18,71489,2,0,B|323:63|356:112,1,100,0|8
444,156,72203,1,2
256,228,72917,6,0,B|286:273|254:321,1,100,0|8
164,280,73631,2,0,B|64:280,1,100,0|8
16,192,74346,2,0,B|116:192,1,100,0|8
168,108,75060,1,2
368,108,75774,6,0,B|368:208,1,100,0|8
438,278,76489,2,0,B|367:348,1,100,0|8
296,277,77203,2,0,B|196:276,1,100,0|8
125,206,77917,1,2
192,132,78274,1,10
256,56,78631,6,0,B|305:36|363:47|397:96|391:156,1,200,4|0
288,322,80060,2,0,B|239:342|181:331|147:282|153:222,1,200,2|2
156,128,81131,1,10
156,28,81489,6,0,B|104:32|56:64|52:124|68:176,1,200
244,268,82917,2,0,B|296:264|344:232|348:172|332:120,1,200,2|2
296,28,83989,1,10
228,104,84346,6,0,B|180:104|180:104|179:204|179:204|128:204,1,200
320,156,85774,2,0,B|320:204|320:204|420:204|420:204|420:256,1,200,2|2
420,356,86846,1,10
336,300,87203,6,0,B|216:300|216:172,1,200,2|0
357,31,88631,2,0,B|477:31|477:159,1,200,6|2
476,257,89703,1,10
288,192,90417,6,0,B|259:149|203:122|147:149|118:192,1,200,4|0
60,272,91488,1,8
160,284,91845,2,0,B|189:327|245:354|301:327|330:284,1,200
388,204,92916,1,8
444,288,93274,2,0,B|487:259|514:203|487:147|444:118,1,200
364,60,94345,1,8
264,60,94702,6,0,B|164:60,1,100,2|10
208,152,95416,2,0,B|108:152,1,100,2|10
56,240,96131,6,0,B|256:240,1,200
356,240,97202,1,8
404,328,97559,2,0,B|204:328,1,200
105,309,98631,1,8
181,244,98988,2,0,B|229:244|229:244|181:156|181:156|181:104,1,200
268,56,100059,1,8
356,104,100416,6,0,B|356:208,1,100,2|10
356,304,101131,2,0,B|356:360,2,50,2|0|10
440,248,101845,6,0,B|440:148,1,100,0|8
340,148,102559,2,0,B|269:77,1,100,0|8
198,148,103274,2,0,B|97:148,1,100,0|8
98,247,103988,2,0,B|27:317,1,100,0|8
120,360,104702,6,0,B|219:360|219:360|288:280,1,200,2|2
426,142,106131,2,0,B|502:206|502:206|501:306,1,200,2|2
300,304,107559,6,0,B|200:304,1,100,0|8
140,224,108274,2,0,B|240:224,1,100,0|8
300,144,108988,2,0,B|200:144,1,100,0|8
140,64,109702,2,0,B|240:64,1,100,0|8
340,64,110416,6,0,B|394:55|426:102,1,100,2|8
347,164,111131,2,0,B|391:195|380:251,1,100,2|8
282,233,111845,2,0,B|291:287|244:319,1,100,2|8
185,237,112559,2,0,B|135:241,2,50,2|0|8
208,140,113274,6,0,B|178:91|206:47,1,100,2|8
306,45,113988,2,0,B|336:94|308:138,1,100,2|8
307,239,114702,2,0,B|337:288|308:333,1,100,2|8
209,334,115416,2,0,B|178:284|207:239,1,100,2|8
256,192,116131,12,6,118988
