osu file format v9

[General]
AudioFilename: 24th Century BOY.mp3
AudioLeadIn: 0
PreviewTime: 18300
Countdown: 0
SampleSet: Normal
StackLeniency: 0.7
Mode: 0
LetterboxInBreaks: 1

[Editor]
DistanceSpacing: 1
BeatDivisor: 4
GridSize: 4

[Metadata]
Title:24th Century BOY
Artist:Tatsh
Creator:Takos
Version:Hyper
Source:beatmania IIDX
Tags:19 Lincle konami streams deathstreams

[Difficulty]
HPDrainRate:5
CircleSize:4
OverallDifficulty:6
ApproachRate:7
SliderMultiplier:1.6
SliderTickRate:1

[Events]
//Background and Video events
0,0,"BG.jpg"
//Break Periods
2,53117,57731
//Storyboard Layer 0 (Background)
//Storyboard Layer 1 (Fail)
//Storyboard Layer 2 (Pass)
//Storyboard Layer 3 (Foreground)
//Storyboard Sound Samples
//Background Colour Transformations
3,100,0,0,0

[TimingPoints]
1489,357.142857142857,4,2,1,60,1,0
2917,-133.333333333333,4,2,1,50,0,0
14971,-133.333333333333,4,2,1,25,0,0
15238,-133.333333333333,4,2,1,20,0,0
16488,-133.333333333333,4,2,1,30,0,0
16667,-133.333333333333,4,2,1,40,0,0
16846,-133.333333333333,4,2,1,50,0,0
17024,-133.333333333333,4,2,1,60,0,0
17203,-133.333333333333,4,2,1,70,0,0
17381,-133.333333333333,4,2,1,80,0,0
17560,-133.333333333333,4,2,1,5,0,0
18274,-100,4,1,1,70,0,0
41801,-100,4,2,1,70,0,0
41890,-100,4,1,1,70,0,0
42515,-100,4,2,1,70,0,0
42605,-100,4,1,1,70,0,0
43230,-100,4,2,1,70,0,0
43319,-100,4,1,1,70,0,0
43944,-100,4,2,1,70,0,0
44033,-100,4,1,1,70,0,0
44658,-100,4,2,1,70,0,0
44747,-100,4,1,1,70,0,0
45372,-100,4,2,1,70,0,0
45462,-100,4,1,1,70,0,0
46087,-100,4,2,1,70,0,0
46176,-100,4,1,1,70,0,0
46801,-100,4,2,1,70,0,0
46890,-100,4,1,1,70,0,0
47515,-100,4,2,1,70,0,0
47605,-100,4,1,1,70,0,0
48230,-100,4,2,1,70,0,0
48319,-100,4,1,1,70,0,0
48944,-100,4,2,1,70,0,0
49033,-100,4,1,1,70,0,0
49658,-100,4,2,1,70,0,0
49747,-100,4,1,1,70,0,0
51801,-100,4,2,1,70,0,0
51890,-100,4,1,1,70,0,0
52515,-100,4,2,1,70,0,0
52605,-100,4,1,1,70,0,0
64524,-100,4,1,1,30,0,0
66131,-100,4,1,1,40,0,0
66488,-100,4,1,1,50,0,0
66667,-100,4,1,1,60,0,0
66846,-100,4,2,1,5,0,0
67024,-100,4,1,1,70,0,0
78944,-100,4,2,1,70,0,0
79033,-100,4,1,1,70,0,0
79613,-100,4,2,1,70,0,0
79747,-100,4,1,1,70,0,0
81801,-100,4,2,1,70,0,0
81890,-100,4,1,1,70,0,0
82471,-100,4,2,1,70,0,0
82605,-100,4,1,1,70,0,0
84658,-100,4,2,1,70,0,0
84747,-100,4,1,1,70,0,0
85372,-100,4,2,1,70,0,0
85462,-100,4,1,1,70,0,0
90417,357.142857142857,4,1,1,70,1,1
104658,-100,4,2,1,70,0,1
104747,-100,4,1,1,70,0,1
105015,-100,4,2,1,70,0,1
105104,-100,4,1,1,70,0,1
105372,-100,4,2,1,70,0,1
105461,-100,4,1,1,70,0,1
105729,-100,4,2,1,70,0,1
105818,-100,4,1,1,70,0,1
106086,-100,4,2,1,70,0,1
106175,-100,4,1,1,70,0,1
106443,-100,4,2,1,70,0,1
106533,-100,4,1,1,70,0,1
106800,-100,4,2,1,70,0,1
106890,-100,4,1,1,70,0,1
107158,-100,4,2,1,70,0,1
107381,-100,4,1,1,70,0,1
118989,-100,4,1,1,70,0,0

[Colours]
Combo1 : 255,74,74
Combo2 : 255,255,255
Combo3 : 255,104,255
Combo4 : 92,248,252

[HitObjects]
78,61,3988,2,0,B|68:93,3,29.9999991059304
57,117,4346,2,0,B|36:174|56:234,1,119.999996423721,2|0
89,283,4881,2,0,B|149:275|208:286,1,119.999996423721,2|0
267,298,5417,1,2
383,271,5774,6,0,B|399:152,1,119.999996423721,2|0
360,106,6310,2,0,B|344:225,1,119.999996423721,2|0
336,284,6846,1,2
235,221,7203,6,0,B|171:220|129:169,1,119.999996423721,2|0
108,114,7739,2,0,B|153:69|219:69,1,119.999996423721,2|0
275,74,8274,1,2
342,172,8631,2,0,B|355:219|402:237,2,89.9999973177911,2|2|2
474,49,9703,1,2
420,156,10060,6,0,B|436:218|399:270,1,119.999996423721,6|0
346,297,10596,2,0,B|227:309,1,119.999996423721,2|0
169,296,11131,1,2
92,203,11488,6,0,B|211:191,1,119.999996423721,2|0
250,145,12024,2,0,B|369:133,1,119.999996423721,2|0
404,83,12560,1,2
465,186,12917,6,0,B|478:249|435:301,1,119.999996423721,2|0
382,322,13453,2,0,B|323:301|264:308,1,119.999996423721,2|0
207,328,13988,1,2
90,299,14346,6,0,B|54:176,1,119.999996423721
85,131,14881,2,0,B|108:193,1,59.9999982118607,2|6
256,192,15238,12,0,17560
256,56,18631,6,0,B|256:136,1,80,4|0
256,216,18988,1,8
199,272,19167,2,0,B|168:304,2,40
313,272,19524,2,0,B|344:304,2,40,0|0|8
256,328,19881,1,0
200,272,20060,6,0,B|160:289|123:271,1,80
60,219,20417,2,0,B|24:147,1,80,8|0
103,134,20774,2,0,B|107:54,1,80
178,92,21131,2,0,B|222:25,1,80,8|0
269,90,21488,6,0,B|318:74,2,40
226,158,21846,2,0,B|204:192|212:236,1,80,8|0
222,314,22203,2,0,B|228:363,2,40
284,263,22560,2,0,B|324:278|363:259,1,80,8|0
429,217,22917,6,0,B|461:144,1,80,2|0
429,217,23274,2,0,B|420:137,1,80,10|0
430,217,23631,2,0,B|382:152,1,80,2|0
430,217,23988,2,0,B|357:185,1,80,10|0
357,265,24346,6,0,B|343:304|297:318|297:321,1,80
220,321,24703,2,0,B|172:294,2,40,8|0|0
256,251,25060,2,0,B|274:214|256:171,1,80
295,103,25417,2,0,B|344:97,2,40,8|0|0
215,103,25774,6,0,B|134:82,1,80
148,162,26131,2,0,B|67:141,1,80,8|0
160,248,26488,2,0,B|79:227,1,80,0|0
93,307,26846,2,0,B|12:286,1,80,8|0
177,331,27203,6,0,B|219:341,2,40
219,263,27560,2,0,B|259:276|298:257,1,80,8|0
371,228,27917,2,0,B|401:260,2,40
307,179,28274,2,0,B|286:142|299:98,1,80,8|0
363,55,28631,2,0,B|384:92|371:136,2,80,0|0|8
209,100,29346,5,2
38,154,29613,1,2
209,100,29881,1,2
256,164,30060,6,0,B|256:247|256:247,1,80,4|0
177,225,30417,2,0,B|169:267|201:300,1,80,8|0
276,320,30774,2,0,B|356:312,1,80
435,309,31131,1,8
435,309,31221,1,0
435,309,31310,1,0
475,239,31488,6,0,B|495:199|485:160,1,80,2|0
451,88,31846,2,0,B|451:42,2,40,10|0|0
408,156,32203,2,0,B|408:202,2,40,2|0|0
353,98,32560,2,0,B|325:130|333:176,1,80,10|0
336,252,32917,6,0,B|316:291|270:294,1,80
266,213,33274,2,0,B|222:215|202:254,1,80,8|0
201,334,33631,2,0,B|121:324,1,80
41,317,33988,1,8
41,317,34078,1,0
41,317,34167,1,0
60,238,34346,6,0,B|50:196,3,40,2|0|0|0
45,159,34703,2,0,B|61:121,3,40,10|0|0|0
86,90,35060,2,0,B|127:72,3,40,10|0|0|0
162,67,35417,2,0,B|209:67,3,40,10|0|0|0
242,68,35774,6,0,B|328:66,1,80
290,139,36131,2,0,B|365:180,1,80,8|0
297,228,36489,2,0,B|341:301,1,80
259,310,36846,1,8
259,310,36935,1,0
259,310,37024,1,0
197,258,37203,6,0,B|196:216,3,40,2|0|0|0
159,234,37560,2,0,B|158:192,3,40,10|0|0|0
119,205,37917,2,0,B|118:163,3,40,2|0|0|0
79,177,38274,2,0,B|78:135,3,40,10|0|0|0
39,150,38631,5,0
256,44,38989,1,8
473,150,39346,1,0
256,254,39703,1,8
256,144,40060,6,0,B|217:121|179:143,1,80,2|0
138,211,40417,2,0,B|177:234|215:212,1,80,10|0
256,103,40774,2,0,B|217:80|179:102,1,80,2|0
138,247,41131,2,0,B|177:270|215:248,1,80,10|0
293,95,41489,6,0,B|320:66,3,40,4|0|0|0
349,94,41846,2,0,B|376:123,3,40,10|0|0|0
404,94,42203,2,0,B|431:65,3,40
459,93,42560,2,0,B|514:152,1,80,10|0
456,208,42917,6,0,B|429:237,3,40
400,209,43274,2,0,B|373:180,3,40,10|0|0|0
345,209,43631,2,0,B|318:238,3,40
290,210,43989,2,0,B|236:151,1,80,10|0
235,151,44346,6,0,B|208:180,3,40
179,208,44703,2,0,B|120:264,1,80,14|0
277,233,45060,2,0,B|304:204,3,40
333,176,45417,2,0,B|392:120,1,80,10|0
447,64,45774,6,0,B|476:92,3,40
475,132,46131,2,0,B|476:176,3,40,10|0|0|0
475,212,46489,2,0,B|476:256,3,40
475,292,46846,2,0,B|446:319,3,40,10|0|0|0
405,319,47203,6,0,B|361:319,3,40,0|0|0|0
324,319,47560,2,0,B|280:321|254:287,1,80,10|0
231,210,47917,2,0,B|209:171,3,40,0|0|0|0
191,140,48274,2,0,B|170:100|128:95,1,80,10|0
48,95,48631,6,0,B|20:128,3,40
22,165,48989,2,0,B|50:198,3,40,10|0|0|0
47,236,49346,2,0,B|19:269,3,40
21,306,49703,2,0,B|49:339,3,40,10|0|0|0
88,336,50060,6,0,B|136:336,3,40
168,336,50417,2,0,B|209:337|209:337|240:304,1,80,10|0
456,336,50774,2,0,B|408:336,3,40
376,336,51131,2,0,B|335:337|335:337|304:304,1,80,10|0
252,248,51489,6,0,B|220:220,3,40
200,188,51846,2,0,B|228:156,3,40,10|0|0|0
260,136,52203,2,0,B|292:164,3,40
312,196,52560,2,0,B|284:228,4,40,0|0|0|0|4
256,152,58631,6,0,B|256:72,1,80
296,192,58989,2,0,B|376:192,1,80,8|0
256,232,59346,2,0,B|256:312,1,80
216,192,59703,2,0,B|136:192,1,80,8|0
170,107,60060,6,0,B|227:164,1,80
340,107,60417,2,0,B|284:164,1,80,8|0
340,277,60774,2,0,B|284:221,1,80
170,277,61131,2,0,B|227:221,1,80,8|0
256,88,61489,6,0,B|283:59|283:59|316:88,1,80
433,154,61846,2,0,B|403:180|403:180|376:152,1,80,8|0
256,216,62203,2,0,B|283:187|283:187|316:216,1,80
433,282,62560,2,0,B|403:308|403:308|375:279,1,80,8|0
256,296,62917,6,0,B|256:340,2,40
157,225,63274,2,0,B|119:238,2,40,8|0|0
193,108,63631,2,0,B|169:76,2,40
315,106,63989,2,0,B|338:74,2,40,8|0|0
356,221,64346,1,4
256,192,64435,12,0,66935
256,60,67203,6,0,B|294:38|334:61,1,80,4|0
381,123,67560,2,0,B|382:166|423:188,1,80,8|0
473,248,67917,2,0,B|482:289|460:328,2,80,0|0|8
473,167,68453,6,0,B|455:79,1,80,0|0
365,45,68810,2,0,B|383:133,1,80,0|8
356,199,69167,1,0
328,274,69346,2,0,B|314:319,2,40,0|0|0
275,212,69703,2,0,B|227:225,2,40,8|0|0
300,135,70060,6,0,B|219:119,1,80,0|0
206,40,70417,2,0,B|164:50|149:90,1,80,8|0
163,169,70774,2,0,B|181:210|156:249,1,80,0|0
96,297,71131,1,8
170,325,71310,6,0,B|246:298,1,80,0|0
321,323,71667,2,0,B|397:296,1,80,0|8
476,299,72024,1,0
488,219,72203,2,0,B|493:179,2,40,0|0|0
412,247,72560,2,0,B|367:240,2,40,8|0|0
420,167,72917,6,0,B|432:124|418:76|369:58|332:68,1,160,0|8
256,87,73453,1,0
177,67,73631,2,0,B|143:58|94:76|80:124|92:167,1,160,0|8
125,239,74167,1,0
168,306,74346,6,0,B|207:376,1,80,0|0
205,239,74703,2,0,B|286:237,1,80,8|0
166,170,75060,2,0,B|214:105,1,80,0|0
91,166,75417,2,0,B|56:93,1,80,8|0
125,239,75774,5,0
387,239,76131,1,8
256,12,76489,2,0,B|256:90,1,80,0|0
256,372,77024,6,0,B|256:294,2,80,6|0|2
256,192,77739,2,2,B|268:200|268:200|280:192|280:192|292:200|292:200|304:192|304:192|316:200|316:200|328:192|328:192|340:200|340:200|352:192|352:192|364:200|364:200|376:192|376:192|388:200|388:200,1,160,2|0
456,244,78274,2,0,B|496:244,2,40,10|0|0
388,284,78631,6,0,B|308:284,1,80,4|0
286,361,78989,2,0,B|242:351|234:308,1,80,10|0
156,330,79346,2,0,B|163:251,1,80
171,170,79703,1,10
171,170,79792,1,0
171,170,79881,1,0
232,118,80060,6,0,B|228:80,2,40,2|0|0
285,177,80417,2,0,B|288:214,2,40,10|0|0
310,83,80774,2,0,B|306:45,2,40,2|0|0
368,204,81131,2,0,B|371:241,2,40,10|0|0
388,52,81489,6,0,B|397:133,1,80
468,94,81846,2,0,B|476:173,1,80,10|0
408,217,82203,2,0,B|416:296,1,80
347,337,82560,1,10
347,337,82649,1,0
347,337,82739,1,0
277,296,82917,6,0,B|242:273,2,40,2|0|0
211,341,83274,2,0,B|176:318,2,40,10|0|0
221,262,83631,2,0,B|186:239,2,40,2|0|0
155,308,83989,2,0,B|120:285,2,40,10|0|0
164,227,84346,6,0,B|93:183,1,80,0|0
28,284,84703,2,0,B|72:213,1,80,10|0
169,284,85060,2,0,B|98:240,1,80,0|0
33,341,85417,1,10
33,341,85506,1,0
33,341,85596,1,0
152,344,85774,6,0,B|197:342,2,40,2|0|0
176,267,86131,2,0,B|221:265,2,40,10|0|0
230,186,86489,2,0,B|191:188,2,40,2|0|0
254,109,86846,2,0,B|215:111,2,40,10|0|0
335,105,87203,6,0,B|414:101,1,80,0|0
473,176,87560,2,0,B|394:180,1,80,8|0
340,260,87917,2,0,B|419:256,1,80,0|0
478,331,88274,2,0,B|399:335,1,80,8|0
301,338,88631,6,0,B|240:344|240:344|194:303,3,120,2|2|2|2
120,211,89703,1,2
120,211,89881,1,2
293,44,90417,5,4
293,44,90506,1,0
293,44,90595,1,0
293,44,90684,1,0
293,44,90774,2,0,B|375:62,1,80,8|0
424,295,91488,5,8
424,295,91577,1,0
424,295,91666,1,0
351,327,91845,1,0
351,327,91934,1,0
351,327,92024,1,0
351,327,92113,1,0
351,327,92202,2,0,B|269:309,1,80,8|0
100,141,92916,5,8
100,141,93006,1,0
100,141,93095,1,0
122,64,93274,1,0
122,64,93363,1,0
122,64,93452,1,0
122,64,93541,1,0
122,64,93631,2,0,B|197:34,1,80,8|0
421,121,94345,5,8
421,121,94434,1,0
421,121,94524,1,0
352,80,94702,6,0,B|310:68,3,40,2|0|0|0
273,68,95059,2,0,B|233:67,3,40,10|0|0|0
192,74,95416,2,0,B|150:84,3,40,2|0|0|0
119,105,95774,2,0,B|88:132,3,40,10|0|0|0
67,165,96131,6,0,B|37:198|42:238,1,80,0|0
52,317,96488,2,0,B|98:310|114:273|114:273|150:271|150:271|196:334|269:301,1,240,8|0
222,234,97202,5,8
222,234,97291,1,0
222,234,97381,1,0
301,225,97559,2,0,B|299:177|256:162,1,80,0|0
176,169,97916,2,0,B|120:222|136:294|198:333|267:300,1,240,8|0
301,225,98631,5,8
301,225,98720,1,0
301,225,98809,1,0
221,216,98988,2,0,B|223:168|266:153,1,80,0|0
346,160,99345,2,0,B|402:213|386:285|324:324|255:291,1,240,8|0
221,216,100059,1,0
221,216,100149,1,0
221,216,100238,1,0
144,192,100416,5,2
69,163,100595,1,0
144,138,100774,1,10
69,110,100952,1,0
144,83,101131,5,8
223,83,101309,1,8
303,83,101488,1,8
383,83,101666,1,8
462,83,101845,6,0,B|462:162,1,80,0|0
411,272,102202,2,0,B|411:193,1,80,8|0
358,83,102559,2,0,B|358:162,1,80,0|0
307,272,102916,2,0,B|307:193,1,80,8|0
254,83,103274,6,0,B|254:162,1,80,0|0
203,272,103631,2,0,B|203:193,1,80,8|0
150,83,103988,2,0,B|150:162,1,80,0|0
99,272,104345,2,0,B|99:193,1,80,8|0
47,83,104702,5,2
41,162,104881,1,0
59,239,105059,1,10
120,289,105238,1,0
194,318,105416,1,2
273,321,105595,1,0
349,297,105774,1,10
163,87,106131,5,2
239,63,106309,1,0
318,66,106488,1,10
392,95,106666,1,0
453,145,106845,1,2
471,222,107024,1,0
465,301,107202,1,10
308,280,107559,6,0,B|271:299|227:280,1,80,0|0
230,200,107916,2,0,B|267:181|311:200,1,80,8|0
385,279,108274,2,0,B|348:298|304:279,1,80,0|0
307,199,108631,2,0,B|344:180|388:199,1,80,8|0
384,117,108988,6,0,B|421:136|465:117,1,80,0|0
462,37,109345,2,0,B|425:18|381:37,1,80,8|0
307,116,109702,2,0,B|344:135|388:116,1,80,0|0
385,36,110059,2,0,B|348:17|304:36,1,80,8|0
237,72,110416,6,0,B|214:39,2,40,2|0|0
269,145,110774,2,0,B|286:185|267:222,1,80,10|0
243,298,111131,2,0,B|281:309,2,40,2|0|0
173,260,111488,2,0,B|134:238|126:198,1,80,10|0
106,120,111845,6,0,B|140:101,2,40,2|0|0
51,178,112202,2,0,B|44:219|67:259,1,80,10|0
71,335,112559,2,0,B|32:348,2,40,2|0|0
147,310,112916,2,0,B|187:295|224:308,1,80,10|0
302,333,113274,6,0,B|390:350|444:282,1,160,2|10
512,183,113898,1,2
392,168,114166,1,0
392,168,114345,2,0,B|332:109,1,80,10|0
262,67,114702,6,0,B|147:188,1,160,2|10
67,268,115327,1,2
44,150,115595,1,0
44,150,115774,2,0,B|53:106|91:90,1,80,10|0
256,192,116131,12,6,118988
