osu file format v9

[General]
AudioFilename: 24th Century BOY.mp3
AudioLeadIn: 0
PreviewTime: 18300
Countdown: 0
SampleSet: Normal
StackLeniency: 0.4
Mode: 0
LetterboxInBreaks: 1

[Editor]
DistanceSpacing: 1.2
BeatDivisor: 8
GridSize: 4

[Metadata]
Title:24th Century BOY
Artist:Tatsh
Creator:Takos
Version:Another
Source:beatmania IIDX
Tags:19 Lincle konami streams deathstreams

[Difficulty]
HPDrainRate:7
CircleSize:4
OverallDifficulty:8
ApproachRate:8
SliderMultiplier:1.8
SliderTickRate:1

[Events]
//Background and Video events
0,0,"BG.jpg"
//Break Periods
2,53117,57881
//Storyboard Layer 0 (Background)
//Storyboard Layer 1 (Fail)
//Storyboard Layer 2 (Pass)
//Storyboard Layer 3 (Foreground)
//Storyboard Sound Samples
//Background Colour Transformations
3,100,0,0,0

[TimingPoints]
1489,357.142857142857,4,2,1,60,1,0
2917,-133.333333333333,4,2,1,50,0,0
15238,-133.333333333333,4,2,1,20,0,0
16488,-133.333333333333,4,2,1,30,0,0
16667,-133.333333333333,4,2,1,40,0,0
16846,-133.333333333333,4,2,1,50,0,0
17024,-133.333333333333,4,2,1,60,0,0
17203,-133.333333333333,4,2,1,70,0,0
17381,-133.333333333333,4,2,1,80,0,0
17560,-133.333333333333,4,2,1,5,0,0
18274,-100,4,1,1,70,0,0
41801,-100,4,2,1,70,0,0
41890,-100,4,1,1,70,0,0
42515,-100,4,2,1,70,0,0
42605,-100,4,1,1,70,0,0
43230,-100,4,2,1,70,0,0
43319,-100,4,1,1,70,0,0
43944,-100,4,2,1,70,0,0
44033,-100,4,1,1,70,0,0
44658,-100,4,2,1,70,0,0
44747,-100,4,1,1,70,0,0
45372,-100,4,2,1,70,0,0
45462,-100,4,1,1,70,0,0
46087,-100,4,2,1,70,0,0
46176,-100,4,1,1,70,0,0
46801,-100,4,2,1,70,0,0
46890,-100,4,1,1,70,0,0
47515,-100,4,2,1,70,0,0
47605,-100,4,1,1,70,0,0
48230,-100,4,2,1,70,0,0
48319,-100,4,1,1,70,0,0
48944,-100,4,2,1,70,0,0
49033,-100,4,1,1,70,0,0
49658,-100,4,2,1,70,0,0
49747,-100,4,1,1,70,0,0
51801,-100,4,2,1,70,0,0
51890,-100,4,1,1,70,0,0
52515,-100,4,2,1,70,0,0
52605,-100,4,1,1,70,0,0
64524,-100,4,1,1,30,0,0
66131,-100,4,1,1,40,0,0
66488,-100,4,1,1,50,0,0
66667,-100,4,1,1,60,0,0
66846,-100,4,2,1,5,0,0
67024,-100,4,1,1,70,0,0
78944,-100,4,2,1,70,0,0
79033,-100,4,1,1,70,0,0
79613,-100,4,2,1,70,0,0
79747,-100,4,1,1,70,0,0
81801,-100,4,2,1,70,0,0
81890,-100,4,1,1,70,0,0
82471,-100,4,2,1,70,0,0
82605,-100,4,1,1,70,0,0
84658,-100,4,2,1,70,0,0
84747,-100,4,1,1,70,0,0
85372,-100,4,2,1,70,0,0
85506,-100,4,1,1,70,0,0
86801,-100,4,2,1,70,0,0
86890,-100,4,1,1,70,0,0
87515,-100,4,2,1,70,0,0
87605,-100,4,1,1,70,0,0
88230,-100,4,2,1,70,0,0
88319,-100,4,1,1,70,0,0
89792,-200,4,1,1,70,0,0
90060,-200,4,1,1,30,0,0
90328,-200,4,2,1,20,0,0
90417,357.142857142857,4,1,1,70,1,1
105015,-100,4,2,1,70,0,1
105104,-100,4,1,1,70,0,1
105729,-100,4,2,1,70,0,1
105818,-100,4,1,1,70,0,1
106443,-100,4,2,1,70,0,1
106533,-100,4,1,1,70,0,1
107158,-100,4,2,1,70,0,1
107381,-100,4,1,1,70,0,1
115684,-100,4,1,1,60,0,1
118989,-100,4,1,1,70,0,0

[Colours]
Combo1 : 255,74,74
Combo2 : 255,255,255
Combo3 : 255,104,255
Combo4 : 92,248,252

[HitObjects]
385,79,3988,5,0
404,106,4078,1,0
419,136,4167,1,0
425,168,4256,1,0
426,201,4346,1,2
406,279,4524,1,0
334,318,4703,1,0
297,246,4881,2,0,B|253:192|179:187,1,134.999995976687,2|0
174,85,5417,2,0,B|106:117,1,67.4999979883433,2|0
76,208,5774,5,2
36,279,5953,1,0
76,349,6131,1,0
118,279,6310,2,0,B|166:223|159:153,1,134.999995976687,2|0
102,95,6846,2,0,B|158:47,1,67.4999979883433,2|0
230,78,7203,5,2
309,62,7381,1,0
388,46,7560,1,0
435,121,7739,2,0,B|288:150,1,134.999995976687,2|0
311,245,8274,2,0,B|246:231,1,67.4999979883433,2|0
200,140,8631,5,2
143,247,8899,1,2
200,140,9167,1,2
442,323,9703,1,2
401,124,10060,5,6
361,53,10239,1,0
282,72,10417,1,0
323,141,10596,2,0,B|247:133|203:186,1,134.999995976687,2|0
289,239,11131,2,0,B|271:304,1,67.4999979883433,2|0
367,254,11488,5,2
439,216,11667,1,0
424,135,11846,1,0
215,209,12024,2,0,B|287:211|338:165,1,134.999995976687,2|0
141,100,12560,2,0,B|204:122,1,67.4999979883433,2|0
53,49,12917,5,2
107,201,13274,1,0
138,276,13453,1,2
153,33,13988,1,2
312,64,14346,1,2
457,258,14881,5,2
406,321,15060,1,2
256,192,15149,12,0,17560
457,87,18631,6,0,B|450:177,1,90,4|0
438,312,18988,1,8
344,256,19167,1,0
344,256,19256,1,0
344,256,19346,2,0,B|297:245|260:276,1,90,0|0
188,357,19703,2,0,B|149:321|152:274,1,90,8|0
201,181,20060,6,0,B|221:138|211:95,1,90,0|0
289,18,20417,1,8
278,42,20506,1,0
278,69,20596,1,0
294,89,20685,1,0
316,103,20774,2,0,B|355:128|407:97,2,90,0|0|8
211,131,21310,5,0
208,157,21399,1,0
201,182,21488,2,0,B|193:228|151:259,1,90,0|0
311,182,21846,2,0,B|319:228|361:259,1,90,8|0
301,131,22203,2,0,B|309:85|351:54,2,90,0|0|8
256,228,22738,1,0
213,327,22917,6,0,B|257:352|299:327,1,90,2|0
391,235,23274,1,2
407,193,23363,1,0
391,149,23453,1,0
299,57,23631,2,0,B|255:32|213:57,1,90,2|0
121,149,23988,1,2
105,191,24078,1,0
120,234,24167,1,0
102,341,24346,6,0,B|58:318|49:262,1,90,4|0
66,163,24703,1,8
135,80,24881,1,0
158,66,24971,1,0
182,54,25060,2,0,B|221:27|270:34,1,90,0|0
302,136,25417,2,0,B|351:145|385:113,1,90,8|0
483,63,25774,5,0
494,87,25863,1,0
495,114,25953,1,0
455,214,26131,1,8
375,286,26310,1,0
350,297,26399,1,0
325,307,26488,2,0,B|231:344|150:273,1,180,0|8
60,159,27024,5,0
60,159,27113,1,0
60,159,27203,2,0,B|142:104,1,90,0|0
158,214,27560,2,0,B|240:269,1,90,8|0
271,124,27917,2,0,B|353:69,1,90,0|0
368,252,28274,2,0,B|450:307,1,90,8|0
472,96,28631,5,0
415,248,28810,1,0
268,179,28988,1,10
122,371,29346,5,2
372,273,29613,1,2
122,371,29881,1,2
49,225,30060,6,0,B|45:175|83:139,1,90
79,143,30328,1,0
79,143,30417,1,8
156,219,30596,1,0
179,324,30774,1,0
257,249,30953,1,0
236,143,31131,1,0
213,126,31221,1,0
188,115,31310,1,0
321,98,31488,6,0,B|314:147|346:182,1,90,2|0
422,258,31846,1,10
433,282,31935,1,0
433,308,32024,1,0
423,333,32113,1,0
405,353,32203,1,2
380,363,32292,1,0
353,361,32381,1,0
329,346,32471,1,0
315,322,32560,1,10
317,214,32738,1,0
267,117,32917,6,0,B|227:85|183:101,1,90
182,101,33185,1,0
182,101,33274,1,8
201,210,33453,1,0
267,294,33631,1,0
308,194,33810,1,0
236,100,33988,1,0
209,97,34078,1,0
182,101,34167,1,0
106,162,34346,5,2
95,186,34435,1,0
95,212,34524,1,0
98,238,34613,1,0
108,263,34703,1,10
123,285,34792,1,0
143,302,34881,1,0
168,312,34971,1,0
194,318,35060,1,2
220,316,35149,1,0
246,312,35238,1,0
272,306,35328,1,0
294,291,35417,1,10
370,214,35596,1,8
273,167,35774,6,0,B|279:115|334:97,1,90
325,100,36042,1,0
325,100,36131,1,8
183,139,36310,1,0
233,44,36489,1,0
325,100,36667,1,0
89,110,36846,1,8
102,86,36935,1,0
123,69,37024,1,0
112,203,37203,5,2
131,183,37292,1,0
157,177,37381,1,0
182,185,37471,1,0
195,208,37560,1,2
196,234,37649,1,0
183,257,37739,1,0
164,277,37828,1,0
143,294,37917,1,2
122,310,38006,1,0
149,310,38096,1,0
175,310,38185,1,0
201,310,38274,1,2
288,246,38453,5,0
288,156,38631,2,0,B|288:246,1,90,4|0
288,246,38989,2,0,B|378:246,1,90
378,156,39346,2,0,B|378:246,1,90,4|0
378,246,39703,2,0,B|378:336,1,90
112,352,40060,5,4
256,312,40239,1,0
400,352,40417,1,8
113,64,40774,2,0,B|84:64,3,30
400,64,41131,2,0,B|428:64,3,30
256,64,41489,5,4
256,91,41578,1,0
256,117,41667,1,0
256,143,41756,1,0
256,170,41846,1,10
256,196,41935,1,0
256,222,42024,1,0
256,248,42114,1,0
256,275,42203,5,0
248,300,42292,1,0
233,322,42381,1,0
210,337,42471,1,0
183,342,42560,2,0,B|135:342,3,45,10|0|0|0
111,337,42917,5,0
88,322,43006,1,0
71,300,43096,1,0
59,275,43185,1,0
59,248,43274,1,10
59,221,43364,1,0
71,196,43453,1,0
88,175,43542,1,0
111,161,43631,5,0
138,161,43721,1,0
164,161,43810,1,0
190,161,43899,1,0
216,160,43989,2,0,B|264:160,3,45,10|0|0|0
288,160,44346,5,0
314,160,44435,1,0
340,160,44524,1,0
366,160,44614,1,0
393,160,44703,2,0,B|488:160,1,90,14|0
224,224,45060,5,0
198,224,45149,1,0
172,224,45239,1,0
146,224,45328,1,0
119,224,45417,2,0,B|72:224,3,45,10|0|0|0
46,224,45774,5,0
22,211,45864,1,0
8,187,45953,1,0
6,160,46042,1,0
18,136,46131,1,10
37,117,46221,1,0
62,108,46310,1,0
88,114,46399,1,0
110,129,46489,5,0
124,151,46578,1,0
126,177,46667,1,0
117,202,46756,1,0
99,222,46846,1,10
94,248,46935,1,0
106,272,47024,1,0
130,282,47114,1,0
156,286,47203,6,0,B|208:286,3,45,4|0|0|0
291,286,47560,2,0,B|327:249,3,45,10|0|0|0
386,189,47917,2,0,B|386:136,3,45
386,53,48274,2,0,B|349:17,3,45,10|0|0|0
263,21,48631,6,0,B|217:20,3,45
118,115,48989,2,0,B|163:115,3,45,10|0|0|0
246,223,49346,2,0,B|191:224,3,45
118,332,49703,2,0,B|166:332,3,45,10|0|0|0
254,324,50060,5,0
263,299,50149,1,0
263,273,50239,1,0
258,247,50328,1,0
246,223,50417,1,10
162,154,50596,1,0
104,63,50774,5,0
128,51,50864,1,0
154,46,50953,1,0
180,46,51042,1,0
205,55,51131,1,10
291,120,51310,1,0
350,209,51489,5,0
359,234,51578,1,0
382,247,51667,1,0
407,239,51756,1,0
421,215,51846,1,10
415,188,51935,1,0
392,173,52024,1,0
365,177,52114,1,0
342,192,52203,5,0
325,213,52292,1,0
320,239,52381,1,0
327,265,52471,1,0
342,287,52560,1,10
362,304,52649,1,0
387,313,52739,1,0
414,310,52828,1,0
439,302,52917,1,4
278,162,58631,5,4
233,221,58810,1,0
226,152,58989,1,8
285,230,59167,1,0
248,135,59346,5,0
261,246,59524,1,0
321,162,59703,1,8
188,219,59881,1,0
299,131,60060,5,0
211,251,60239,1,0
196,113,60417,1,8
313,268,60596,1,0
166,153,60774,5,0
342,228,60953,1,0
266,89,61131,1,8
241,291,61310,1,0
192,192,61489,6,0,B|104:176,1,90
256,128,61846,2,0,B|272:40,1,90,8|0
320,192,62203,2,0,B|408:208,1,90
256,256,62560,2,0,B|240:344,1,90,8|0
169,168,62917,6,0,B|109:147,2,45
279,105,63274,2,0,B|304:56,2,45,8|0|0
343,216,63631,2,0,B|403:237,2,45,0|0|0
233,279,63989,2,0,B|214:316,8,22.5
256,192,64435,12,0,66846
401,102,67203,6,0,B|428:139|428:192,1,90,4|0
346,337,67560,2,0,B|309:364|256:364,1,90,8|0
111,282,67917,2,0,B|84:245|84:192,2,90,0|0|8
256,192,68453,6,0,B|283:229|283:282,2,90,0|0|0
190,106,68989,1,8
297,89,69167,1,0
353,181,69346,1,0
452,140,69524,2,0,B|484:116,3,30
442,259,69881,1,0
359,328,70060,6,0,B|323:295|279:293,1,90,0|0
188,353,70417,2,0,B|151:319|153:273,1,90,8|0
45,264,70774,2,0,B|49:216|90:185,1,90,0|0
194,179,71131,1,8
20,101,71310,6,0,B|62:74|109:82,1,90,0|0
208,116,71667,2,0,B|251:123|293:96,1,90,0|8
382,35,72024,1,0
411,139,72203,1,0
477,54,72381,2,0,B|508:32,3,30
411,139,72739,1,0
376,241,72917,5,4
369,267,73006,1,0
350,286,73096,1,0
325,295,73185,1,0
298,294,73274,1,8
195,259,73453,1,0
115,186,73631,2,0,B|81:221|88:272,2,90,0|0|0
298,294,74167,6,0,B|332:259|325:208,2,90,0|0|0
277,311,74614,1,0
252,322,74703,1,8
145,334,74881,1,0
75,251,75060,2,0,B|19:176,1,90,0|0
158,228,75417,2,0,B|176:136,1,90,8|0
233,270,75774,6,0,B|295:200,1,90,0|0
261,354,76131,2,0,B|354:346,1,90,8|0
453,312,76489,1,0
477,206,76667,1,0
440,104,76846,1,8
359,32,77024,5,6
359,352,77381,1,6
96,192,77739,2,2,B|116:234|159:247|205:237|222:193|222:193|268:193,1,180,2|0
224,86,78274,2,0,B|274:79|311:112,1,90,2|0
388,192,78631,5,4
413,201,78721,1,0
429,222,78810,1,0
439,246,78899,1,0
434,272,78989,1,10
418,294,79078,1,0
393,304,79167,1,0
366,304,79256,1,0
338,304,79346,1,0
230,304,79524,1,0
121,304,79703,1,10
94,304,79792,1,0
67,304,79881,1,0
27,203,80060,5,2
27,203,80149,1,0
99,88,80328,1,2
99,88,80417,1,8
181,195,80596,1,2
181,195,80685,1,0
181,195,80774,1,2
138,323,80953,1,2
273,324,81131,1,10
299,320,81221,1,0
324,311,81310,1,0
343,292,81399,1,0
359,270,81489,5,0
367,244,81578,1,0
369,217,81667,1,0
363,190,81756,1,0
351,165,81846,1,10
332,145,81935,1,0
309,130,82024,1,0
283,122,82114,1,0
255,121,82203,1,0
151,150,82381,1,0
47,119,82560,1,10
57,94,82649,1,0
75,74,82739,1,0
181,52,82917,5,2
181,52,83006,1,0
311,87,83185,1,2
311,87,83274,1,8
340,219,83453,1,2
340,219,83542,1,0
253,323,83721,1,2
253,323,83810,1,2
122,294,83989,1,10
122,294,84078,1,0
122,294,84167,1,0
122,294,84256,1,0
122,294,84346,5,0
129,268,84435,1,0
136,242,84524,1,0
144,216,84614,1,0
151,189,84703,1,10
158,163,84792,1,0
165,137,84881,1,0
172,110,84971,1,0
179,84,85060,5,0
186,110,85149,1,0
193,136,85239,1,0
201,162,85328,1,0
208,189,85417,1,10
236,294,85596,1,0
263,190,85774,5,2
270,163,85864,1,0
377,163,86042,1,2
384,190,86131,1,8
491,190,86310,1,2
498,163,86399,1,0
491,137,86489,5,0
481,111,86578,1,0
471,85,86667,1,0
461,59,86756,1,0
450,33,86846,1,10
439,59,86935,1,0
429,85,87024,1,0
419,111,87114,1,0
409,137,87203,5,0
400,162,87292,1,0
377,163,87381,1,0
349,163,87471,1,0
329,143,87560,1,10
309,162,87649,1,0
282,162,87738,1,0
254,162,87828,1,0
227,162,87917,5,0
200,160,88006,1,0
172,160,88096,1,0
145,160,88185,1,0
125,179,88274,1,10
105,159,88363,1,0
77,159,88453,1,0
50,159,88542,1,0
24,192,88631,5,6
256,344,88899,1,2
488,192,89167,1,6
256,40,89435,1,2
256,192,89703,1,2
256,192,89881,6,0,B|202:231|142:204,1,112.5,0|0
127,191,90417,5,4
109,170,90506,1,0
94,146,90596,1,0
88,119,90685,1,0
93,92,90774,2,0,B|117:47|162:37,1,90,8|0
259,79,91131,1,0
365,59,91310,1,0
432,142,91488,5,8
435,168,91578,1,0
435,194,91667,1,0
428,220,91756,1,0
411,241,91846,1,0
389,256,91935,1,0
362,261,92024,1,0
335,255,92113,1,0
311,241,92203,2,0,B|272:211|228:216,1,90,8|0
156,298,92560,2,0,B|116:264|120:210,1,90
167,121,92917,5,8
144,106,93006,1,0
116,102,93096,1,0
90,109,93185,1,0
72,129,93274,1,0
63,154,93363,1,0
64,181,93453,1,0
76,204,93542,1,0
82,230,93631,2,0,B|92:277|67:316,1,90,8|0
150,384,93988,2,0,B|140:337|165:298,1,90,0|0
238,217,94346,5,8
238,217,94435,1,0
238,217,94524,1,0
324,248,94702,6,0,B|370:234,3,45,2|0|0|0
391,247,95059,2,0,B|425:275,3,45,10|0|0|0
424,303,95417,2,0,B|383:337,3,45,2|0|0|0
366,346,95774,2,0,B|319:337,3,45,10|0|0|0
299,323,96131,5,0
274,311,96221,1,0
247,305,96310,1,0
220,311,96399,1,0
197,326,96488,2,0,B|152:343|108:325,1,90,8|0
65,225,96846,2,0,B|110:208|154:226,1,90
255,221,97203,5,8
255,221,97292,1,0
255,221,97381,1,0
200,128,97560,1,0
219,108,97649,1,0
243,98,97738,1,0
270,97,97828,1,0
296,100,97917,2,0,B|336:127|384:119,1,90,8|0
486,93,98274,1,0
486,93,98453,1,0
453,205,98631,5,8
449,232,98721,1,0
437,256,98810,1,0
330,271,98988,1,0
306,257,99078,1,0
279,255,99167,1,0
254,267,99256,1,0
239,290,99346,2,0,B|209:333|154:339|95:306|91:249|106:198|161:177,1,270,8|0
181,249,100060,5,8
202,233,100149,1,0
224,217,100238,1,0
282,94,100417,5,2
405,151,100596,1,2
347,274,100774,1,2
224,217,100953,1,2
449,96,101131,6,0,B|405:99,1,45,8|0
461,139,101310,2,0,B|501:121,1,45,8|0
469,183,101488,2,0,B|421:189,1,45,8|0
480,226,101667,2,0,B|523:209,1,45,8|0
480,271,101846,6,0,B|454:312|405:315,1,90,4|0
301,229,102203,2,0,B|254:248|254:300,1,90,8|0
125,349,102560,2,0,B|107:303|125:261,1,90,0|0
23,171,102917,2,0,B|54:132|102:132,1,90,8|0
228,175,103274,6,0,B|278:160|292:116,1,90,0|0
407,46,103631,2,0,B|444:85|430:142,1,90,8|0
344,231,103988,2,0,B|313:268|311:314,1,90,0|0
176,322,104346,1,0
160,299,104435,1,0
153,272,104524,1,0
154,245,104613,1,0
160,218,104703,5,0
170,193,104792,1,0
187,171,104881,1,0
206,152,104971,1,0
230,141,105060,1,10
256,135,105149,1,0
282,136,105238,1,0
307,143,105328,1,0
333,147,105417,1,0
359,145,105506,1,0
385,138,105596,1,0
409,126,105685,1,0
427,105,105774,2,0,B|442:51,1,45,10|0
279,297,106131,5,0
251,289,106221,1,0
229,274,106310,1,0
212,252,106399,1,0
199,228,106488,1,10
190,203,106578,1,0
188,175,106667,1,0
191,148,106756,1,0
201,124,106846,1,0
217,102,106935,1,0
222,75,107024,1,0
211,50,107113,1,0
188,35,107203,1,10
359,256,107560,5,0
378,196,107738,1,0
362,134,107917,1,8
319,88,108096,1,0
259,69,108274,1,0
198,85,108453,1,0
152,129,108631,1,8
134,191,108810,1,4
105,191,108988,5,4
127,114,109167,1,0
184,60,109346,1,8
260,40,109524,1,0
334,63,109703,1,0
388,120,109881,1,0
407,197,110060,1,8
384,271,110238,1,0
323,326,110417,5,2
318,327,110506,1,0
210,321,110685,1,2
201,317,110774,1,10
89,281,110953,1,2
83,268,111042,1,0
32,152,111221,1,2
37,134,111310,1,0
42,116,111399,1,0
48,99,111488,1,10
304,51,111846,5,2
323,63,111935,1,0
448,134,112113,1,2
448,161,112203,1,8
457,314,112381,1,2
435,336,112471,1,0
272,327,112649,1,2
237,319,112738,1,0
201,311,112828,1,0
165,303,112917,1,10
75,59,113274,5,6
221,285,113631,1,10
363,141,113899,1,2
221,285,114167,1,0
191,152,114346,2,0,B|178:88,3,45,10|0|0|0
166,32,114703,5,6
75,286,115060,1,10
279,317,115328,1,2
75,286,115596,1,0
194,223,115774,2,0,B|211:190,8,22.5,10|0|0|0|0|0|0|0|0
256,192,116221,12,6,118988
