osu file format v5

[General]
AudioFilename: Tarou - Danjo.mp3
AudioLeadIn: 0
PreviewTime: 41861
Countdown: 1
SampleSet: Normal
StackLeniency: 0.7
Mode: 0
LetterboxInBreaks: 1

[Metadata]
Title:Danjo
Artist:Tarou
Creator:james039
Version:Normal
Source:NicoNicoDouga
Tags:danjo nico douga kaito meiko kagamine ren rin hatsune miku

[Difficulty]
HPDrainRate:3
CircleSize:4
OverallDifficulty:3
SliderMultiplier:1.4
SliderTickRate:1

[Events]
//Background and Video events
0,0,"HetarenBakaito.png"
1,-500,"danjo.avi"
//Break Periods
2,54139,59512
//Storyboard Layer 0 (Background)
//Storyboard Layer 1 (Failing)
//Storyboard Layer 2 (Passing)
//Storyboard Layer 3 (Foreground)
//Storyboard Sound Samples
//Background Colour Transformations
3,100,163,162,255

[TimingPoints]
3290,389.61038961039,4,1,0,100,1,0
42251,-100,4,1,0,100,0,1
51504,-100,4,1,1,100,0,1
54231,-100,4,1,0,100,0,1
54328,-100,4,1,0,100,0,0
87444,-100,4,1,0,100,0,1
111990,-100,4,1,1,100,0,1

[Colours]
Combo1 : 255,0,128
Combo2 : 0,0,160

[HitObjects]
448,160,9523,6,0,B|352:128|320:224|160:160,1,280
48,88,10887,1,0
64,160,12640,6,8,B|160:128|192:224|352:160,1,280
464,88,14004,1,8
232,72,15757,5,8
280,72,15952,1,8
232,208,16536,1,8
280,208,16731,1,8
136,240,17315,2,2,B|258:369|378:238,1,280
192,192,18874,5,8
192,240,19069,1,8
320,192,19653,1,8
320,240,19848,1,8
384,104,20432,2,2,B|256:2|125:107,1,280
192,264,21991,2,0,B|192:160,1,70
360,152,22770,6,0,B|360:248,1,70
256,328,23549,6,8,B|318:230|219:135|256:40,1,280
208,192,25108,5,2
304,192,25497,5,2
208,192,25887,5,2
304,192,26277,5,2
392,272,26666,6,0,B|104:272,1,280,0|0
232,72,28225,1,8
280,72,28420,1,8
232,208,29004,1,8
280,208,29199,1,8
136,240,29783,2,2,B|258:369|378:238,1,280
192,144,31342,1,0
192,192,31537,1,0
320,144,32121,5,8
320,192,32316,1,8
16,160,32900,5,8
96,160,33290,5,2
176,160,33679,5,8
256,160,34069,1,2
336,160,34458,5,8
416,160,34848,5,2
496,160,35238,5,8
16,224,36017,5,2
96,224,36407,5,8
176,224,36796,5,2
256,224,37186,5,8
336,224,37575,5,2
416,224,37965,1,2
496,224,38355,5,8
72,208,39134,6,2,B|232:48|296:304|456:208,1,385
400,104,40692,6,8,B|318:212|112:96,1,280,8|12
304,176,42251,5,2
208,208,42640,5,2
192,248,42835,6,8,B|352:248,1,140
336,344,43614,5,8
288,344,43809,5,10
192,344,44199,5,10
288,208,45367,5,2
192,176,45756,5,2
176,136,45951,6,0,B|160:133|336:136,1,140,8|8
320,40,46730,5,0
272,40,46925,5,2
176,40,47315,5,2
176,136,47705,6,8,B|328:136,1,140
256,192,48484,12,12,51212
136,120,51796,5,8
168,160,51991,5,2
256,120,52380,5,8
288,160,52575,5,2
256,248,52965,5,8
208,264,53160,6,2,B|262:352|312:264,1,140
256,184,53939,5,12
280,72,60952,5,8
232,72,61147,1,8
280,208,61731,5,2
232,208,61926,1,2
376,240,62510,2,2,B|254:369|134:238,1,280
320,192,64069,5,8
320,240,64264,1,8
192,192,64848,1,10
192,240,65043,1,10
128,104,65627,2,2,B|256:2|387:107,1,280,2|6
400,192,66796,1,8
400,288,67186,5,2
304,256,67575,1,2
208,224,67965,1,2
128,280,68354,1,2
48,224,68744,1,2
104,144,69134,1,2
104,48,69523,1,6
208,208,70302,5,0
256,120,70692,5,2
208,208,71081,5,0
256,120,71471,5,2
256,216,71861,2,0,B|256:312,4,70,8|8|8|0|4
88,112,73419,6,8,B|184:112,1,70
158,112,73809,1,2
160,208,74199,5,8
160,208,74393,2,0,B|232:208,1,70,8|2
312,256,74978,2,0,B|136:256,3,140,2|2|2|2
136,160,76536,6,0,B|200:232,1,70
88,96,77315,2,8,B|88:136,3,35,8|8|8|8
0,176,78095,1,8
96,176,78484,5,2
192,176,78874,5,8
288,176,79264,1,2
384,176,79653,5,8
480,176,80043,5,2
480,272,80432,5,2
432,80,81212,5,2
336,80,81601,5,8
240,80,81991,5,2
144,80,82380,5,8
48,80,82770,6,0,B|48:232,1,140,2|2
144,216,83549,5,4
336,216,84328,6,2,B|347:128|264:72,1,140
192,96,85108,2,2,B|152:160|232:224,1,140
304,280,85887,2,2,B|232:304|160:280,3,140,6|6|6|6
96,216,87445,2,0,B|168:216,1,70
224,296,88030,2,0,B|304:296,3,70
272,200,89004,2,0,B|192:200,1,70
152,200,89393,5,10
344,168,89783,2,10,B|200:168,1,140
296,200,90562,5,0
208,176,90951,5,0
176,136,91146,6,0,B|336:136,1,140
336,40,91925,5,0
288,40,92120,5,0
192,40,92510,5,0
192,136,92900,6,8,B|344:136,1,140
256,192,93679,12,8,96406
184,312,96991,5,8
224,280,97186,5,2
184,192,97575,5,8
224,160,97770,5,2
312,192,98160,5,8
328,240,98355,6,2,B|416:186|328:136,1,140
248,192,99134,5,6
416,144,99912,5,0
384,240,100302,5,0
344,256,100497,6,0,B|344:96,1,140
248,112,101276,5,0
248,160,101471,5,0
248,256,101861,5,0
152,256,102251,2,8,B|152:112,1,140
96,144,103030,5,0
128,240,103420,5,0
168,256,103615,6,0,B|168:96,1,140
264,112,104394,5,0
264,160,104589,5,0
264,256,104979,5,0
360,256,105369,2,8,B|360:112,1,140
360,116,106147,5,0
360,224,106537,5,0
360,304,106731,5,0
256,256,107121,1,0
160,224,107510,6,0,B|160:154,1,70,8|8
72,222,107900,6,0,B|72:152,1,70,8|8
72,80,108290,5,2
160,80,108484,5,2
256,80,108874,5,2
256,192,109458,12,4,111601
80,64,112380,6,0,B|184:168,1,140,8|8
224,160,112965,2,0,B|328:56,1,140,8|8
336,160,113744,5,2
304,192,113939,5,2
368,264,114328,5,2
296,328,114718,6,8,B|152:328,1,140
56,328,115497,6,0,B|160:224,1,140,8|8
200,232,116082,6,0,B|304:336,1,140,2|2
312,232,116861,5,2
280,200,117056,5,2
352,128,117445,5,2
272,64,117835,6,8,B|128:64,1,140
256,192,118614,12,4,121342
136,264,121926,5,8
168,224,122121,5,2
256,264,122510,5,8
288,224,122705,5,2
256,136,123095,5,0
208,120,123290,6,2,B|262:32|312:120,1,140
256,200,124069,5,6
