osu file format v5

[General]
AudioFilename: Tarou - Danjo.mp3
AudioLeadIn: 0
PreviewTime: 41861
Countdown: 1
SampleSet: Normal
StackLeniency: 0.7
Mode: 0
LetterboxInBreaks: 1

[Metadata]
Title:Danjo
Artist:Tarou
Creator:james039
Version:Easy
Source:NicoNicoDouga
Tags:danjo nico douga kaito meiko kagamine ren rin hatsune miku

[Difficulty]
HPDrainRate:3
CircleSize:4
OverallDifficulty:3
SliderMultiplier:1.4
SliderTickRate:1

[Events]
//Background and Video events
0,0,"HetarenBakaito.png"
1,-500,"danjo.avi"
//Break Periods
2,54139,59512
//Storyboard Layer 0 (Background)
//Storyboard Layer 1 (Failing)
//Storyboard Layer 2 (Passing)
//Storyboard Layer 3 (Foreground)
//Storyboard Sound Samples
//Background Colour Transformations
3,100,163,162,255

[TimingPoints]
3290,389.61038961039,4,1,0,80,1,0
42251,-100,4,1,0,80,0,1
48192,-100,4,1,1,100,0,1
54328,-100,4,1,0,80,0,0
87445,-100,4,1,0,80,0,1

[Colours]
Combo1 : 255,0,128
Combo2 : 0,0,160

[HitObjects]
160,184,15757,5,0
256,280,16536,1,8
352,184,17315,1,0
256,88,18095,1,8
120,80,18874,6,2,B|264:16|400:88,1,280
392,216,20432,2,2,B|264:301|96:200,1,280
208,128,21991,6,0,B|272:80|344:128,1,140
344,192,22770,2,8,B|199:192,1,140
128,200,23549,2,8,B|160:288|184:328|280:344|360:336|392:296|432:176,1,420,12|12
256,176,25108,1,8
256,176,25497,5,2
256,176,25887,5,8
256,176,26277,5,2
392,272,26666,6,0,B|104:272,1,280,8|2
192,120,28225,1,8
192,256,29004,1,8
328,256,29783,1,2
328,120,30563,1,2
192,144,31341,2,0,B|192:216,1,70
296,216,32121,6,8,B|296:120,1,70
384,96,32900,6,8,B|240:96,1,140
176,96,33679,2,8,B|176:240,1,140
176,304,34458,6,0,B|320:304,1,140,2|2
384,304,35238,2,0,B|384:208,1,70,2|2
256,192,36017,12,4,38354
96,248,39134,5,8
192,152,39913,1,8
288,248,40692,1,8
384,152,41471,1,8
248,112,42251,6,8,B|296:192|296:216|104:192|104:176|128:104,2,280
232,248,44588,1,2
296,248,44978,1,2
264,192,45367,1,8
128,192,46146,1,8
264,128,46925,1,8
120,136,47705,1,2
120,136,48095,1,2
256,192,48484,12,12,53939
48,184,60952,5,2
240,184,61731,2,0,B|344:88|416:88|480:208,1,280,2|2
104,184,64069,5,8
104,256,64458,1,8
176,256,64848,2,0,B|296:136,1,140,8|8
256,256,65627,2,0,B|360:152,1,140,2|2
56,160,67186,6,0,B|133:44|367:44|488:176|488:288|389:345|138:345|48:248,1,840
80,56,70302,6,0,B|19:92|112:184,1,140,2|2
128,240,71082,2,0,B|160:280|288:248,1,140,2|2
264,320,71861,2,0,B|104:320,3,140,8|8|8|4
88,256,73419,5,0
208,176,74199,1,8
208,304,74978,1,0
352,304,75757,1,8
416,304,76147,1,8
352,232,76536,5,0
352,184,76731,1,0
248,184,77315,5,8
248,184,77510,1,8
144,184,78095,5,0
200,312,78874,1,0
336,312,79653,5,2
432,216,80432,1,2
352,96,81212,5,8
208,96,81991,1,8
88,168,82770,1,0
152,296,83549,5,2
264,216,84328,5,0
264,72,85108,1,4
48,64,85887,6,2,B|48:272|88:288|184:272,1,280,2|6
104,88,87445,5,2
248,88,88030,1,2
176,320,89004,1,8
272,320,89393,5,8
400,56,90562,5,2
304,168,91147,1,2
56,192,92121,1,8
152,192,92510,5,8
248,192,92899,5,4
248,192,93290,1,4
256,192,93679,12,8,96406
72,120,96991,6,0,B|111:69|128:120,1,70,8|8
152,200,97575,6,0,B|192:160|224:216,1,70,2|2
312,200,98160,5,2
312,248,98354,6,2,B|160:248,2,140,2|2|6
