osu file format v5

[General]
AudioFilename: Danjo.mp3
AudioLeadIn: 0
PreviewTime: -1
Countdown: 0
SampleSet: Normal
EditorBookmarks: 15977,61170

[Metadata]
Title:Dan Jo
Artist:Tarou
Creator:vytalibus
Version:Sensei

[Difficulty]
HPDrainRate:6
CircleSize:6
OverallDifficulty:8
SliderMultiplier:1.2
SliderTickRate:1

[Events]
//Background and Video events
1,0,"Dan Jo.avi"
//Break Periods
2,54741,60414
//Storyboard Layer 0 (Background)
//Storyboard Layer 1 (Failing)
//Storyboard Layer 2 (Passing)
//Storyboard Layer 3 (Foreground)
//Storyboard Sound Samples
//Background Colour Transformations
3,100,163,162,255

[TimingPoints]
3504,389.598879023944,4,1,1,100

[Colours]
Combo1 : 5,5,240
Combo2 : 255,183,237

[HitObjects]
384,112,15581,1,2
256,112,15971,5,0
224,64,16165,1,0
192,112,16360,1,0
160,64,16555,1,0
128,112,16750,1,0
160,160,16945,1,0
224,160,17139,1,0
192,208,17334,1,0
256,208,17529,1,0
288,160,17724,1,0
320,112,17919,1,0
288,64,18113,1,0
256,112,18308,2,0,B|192:112,1,60
288,272,19087,5,0
352,272,19282,1,0
320,224,19477,1,0
352,176,19672,1,0
384,224,19867,1,0
416,272,20061,1,0
448,224,20256,1,0
416,176,20451,1,0
384,128,20646,1,0
320,128,20841,1,0
288,176,21035,1,0
320,224,21230,1,0
256,224,21425,2,0,B|224:176,4,30
320,224,22009,5,0
304,192,22107,1,0
272,176,22204,1,0
192,96,22594,1,4
192,208,22983,1,0
192,240,23081,1,0
192,272,23178,1,0
368,208,23763,6,0,B|320:160,1,60
288,112,24152,2,0,B|240:160,1,60
288,192,24542,1,0
288,224,24639,1,0
288,256,24737,1,0
144,144,25321,5,0
256,144,25711,6,0,B|256:208,1,60
320,208,26100,5,0
192,208,26490,6,0,B|192:144,1,60
256,192,26879,12,4,27659
352,64,28438,5,0
320,112,28633,1,0
384,112,28827,1,0
416,160,29022,1,0
352,160,29217,1,0
384,208,29412,1,0
320,208,29607,1,0
288,160,29801,1,0
256,208,29996,5,0
288,256,30191,1,0
352,256,30386,1,0
416,256,30581,1,0
448,208,30775,1,0
480,160,30970,1,0
304,96,31555,6,0,B|240:96,1,60
176,96,31944,1,4
176,208,32334,6,0,B|304:208,1,120
416,208,33113,6,0,B|416:144,1,60
400,96,33503,6,0,B|320:96,1,60
288,96,33892,6,0,B|288:176,1,60
272,208,34282,2,0,B|208:208,1,60
160,224,34671,6,0,B|160:288,1,60
224,304,35061,6,0,B|288:304,1,60
336,272,35451,5,4
448,64,36230,6,0,B|448:144,1,60
384,128,36619,6,0,B|384:64,1,60
320,64,37009,6,0,B|320:128,1,60
256,128,37399,6,0,B|256:64,1,60
192,64,37788,6,0,B|192:128,1,60
128,128,38178,2,0,B|128:64,1,60
64,64,38567,6,0,B|64:192,1,120
176,176,39347,6,0,B|176:112,1,60
176,48,39736,1,4
176,160,40126,5,0
176,256,40418,1,0
256,192,40905,12,4,42074
176,64,42463,5,0
288,64,42853,5,0
254,113,43048,5,0
178,205,43437,1,0
99,296,43827,5,0
158,298,44022,5,0
277,298,44411,5,0
224,192,44801,2,4,B|224:64,1,120
336,64,45580,5,0
224,64,45970,5,0
258,113,46165,5,0
334,205,46554,1,0
413,296,46944,5,0
354,298,47139,5,0
235,298,47528,5,0
288,192,47918,2,4,B|288:64,1,120
256,192,48697,5,0
135,192,49087,5,0
136,251,49281,5,0
256,252,49671,1,0
376,251,50061,5,0
377,190,50255,1,0
378,129,50450,5,0
257,130,50840,5,0
257,190,51035,5,0
137,191,51424,5,0
256,192,51814,1,4
257,131,52009,1,0
257,190,52203,5,0
136,188,52593,5,0
136,248,52788,5,0
255,248,53177,5,0
257,187,53372,5,4
377,188,53762,1,4
257,187,54151,1,4
136,188,54541,1,2
400,80,61164,5,0
368,128,61359,1,0
336,80,61554,1,0
304,128,61749,1,0
272,80,61943,1,0
208,80,62138,1,0
240,128,62333,1,0
176,128,62528,1,0
208,176,62723,1,0
240,128,62917,1,0
272,176,63112,1,0
304,128,63307,1,0
336,176,63502,2,4,B|384:112,2,60
256,272,64281,5,0
224,320,64476,1,0
192,272,64671,1,0
160,320,64865,1,0
128,272,65060,1,0
96,224,65255,1,0
64,272,65450,1,0
96,320,65645,1,0
128,272,65839,1,0
160,224,66034,1,0
192,272,66229,1,0
224,224,66424,1,0
256,272,66619,1,4
288,272,66716,1,4
320,272,66813,1,4
352,272,66911,1,4
384,272,67008,1,4
384,144,67398,6,0,B|256:144,1,120
144,144,68177,1,0
144,176,68274,1,0
144,208,68372,1,0
208,208,68567,1,0
208,176,68665,1,0
208,144,68761,1,0
272,144,68956,1,0
272,80,69151,2,0,B|208:96|208:176,1,120
160,208,69735,1,0
160,80,70125,1,4
160,192,70515,5,0
190,217,70644,1,0
222,192,70774,1,0
253,217,70904,5,0
284,191,71034,1,0
316,215,71164,1,0
348,191,71294,5,0
318,163,71424,1,0
287,188,71553,1,0
255,163,71683,5,0
224,189,71813,1,0
197,159,71943,1,0
224,128,72073,6,4,B|256:86|320:128|256:192|256:192|256:240,1,180
256,298,72852,1,4
224,64,73631,5,0
288,64,73826,1,0
256,112,74021,1,0
320,112,74216,1,0
288,160,74410,1,0
224,160,74605,1,0
256,208,74800,1,0
192,208,74995,1,0
224,256,75190,1,0
288,256,75384,1,0
256,304,75579,1,0
320,304,75774,1,0
384,304,75969,1,0
384,272,76066,1,0
384,240,76164,1,0
384,208,76261,1,0
384,176,76358,1,0
304,96,76748,6,0,B|240:96,1,60
192,96,77138,1,4
192,208,77527,6,0,B|320:208,1,120
304,80,78306,5,0
341,92,78436,1,0
375,111,78566,1,0
388,149,78697,5,0
394,188,78826,1,0
376,224,78956,1,0
346,251,79085,5,0
305,253,79216,1,0
270,233,79345,1,0
251,197,79476,1,0
257,157,79605,1,0
251,117,79735,1,0
225,86,79865,5,0
189,68,79995,1,0
151,81,80125,1,0
118,104,80254,5,0
105,141,80384,1,0
124,175,80514,1,0
160,192,80645,5,4
190,217,80774,1,4
197,256,80904,1,4
294,129,81423,6,0,B|294:81,2,40
256,144,81813,6,0,B|256:96,2,40
224,168,82202,6,0,B|224:120,2,40
189,189,82592,6,0,B|141:189,2,40
224,208,82982,6,0,B|222:261,2,40
259,188,83371,2,0,B|259:236,2,40
293,166,83761,6,0,B|341:166,6,40
192,96,84930,5,4
304,96,85319,5,0
304,160,85611,2,0,B|304:272,1,90
256,192,86098,12,4,87267
112,80,87657,1,0
163,188,88046,5,0
202,142,88241,5,0
304,204,88631,1,0
365,306,89020,5,0
408,264,89215,5,0
471,365,89605,5,0
256,192,89994,12,4,90384
400,80,90774,1,0
349,188,91163,5,0
310,142,91358,5,0
208,204,91748,1,0
147,306,92137,5,0
104,264,92332,5,0
41,365,92722,5,0
256,192,93111,12,4,93501
256,80,93890,5,0
258,200,94280,5,0
307,165,94475,5,0
391,249,94864,1,0
290,314,95254,5,0
240,348,95449,1,0
190,314,95644,5,0
126,212,96033,5,0
137,153,96228,5,0
238,88,96618,5,0
352,124,97007,1,4
388,171,97202,1,0
410,226,97397,5,0
336,320,97786,5,0
353,262,97981,5,0
303,152,98371,5,0
243,162,98566,5,4
132,208,98955,1,4
239,261,99345,5,4
131,313,99734,1,6
96,197,100124,5,0
182,113,100514,5,0
236,138,100708,5,0
115,141,101098,1,0
160,254,101488,5,0
173,195,101682,5,0
131,82,102072,5,0
224,144,102462,5,6
304,224,102851,5,6
416,187,103241,5,0
330,271,103631,5,0
276,246,103825,5,0
397,243,104215,1,0
352,130,104605,5,0
339,189,104799,5,0
381,302,105189,5,0
288,240,105579,5,6
208,160,105968,5,6
304,88,106358,5,0
186,63,106747,5,0
132,90,106942,5,0
83,199,107332,1,0
146,300,107721,5,0
133,241,107916,1,0
141,181,108111,5,0
227,97,108500,5,0
286,100,108695,5,0
336,209,109085,5,0
394,104,109474,5,6
415,160,109669,5,0
405,219,109864,5,0
317,301,110254,5,0
261,279,110448,5,0
154,224,110838,5,0
136,166,111033,5,4
251,196,111422,1,4
368,222,111812,1,4
381,102,112202,1,6
256,192,112591,12,0,114539
384,96,114929,5,6
384,96,115318,1,6
256,192,115708,12,0,117656
384,96,118046,1,6
384,96,118435,1,6
256,192,118825,12,0,121552
384,112,121942,5,6
256,192,122136,12,6,124669
