osu file format v9

[General]
AudioFilename: Tarkan - Dudu.MP3
AudioLeadIn: 0
PreviewTime: 65641
Countdown: 1
SampleSet: Normal
StackLeniency: 0.7
Mode: 0
LetterboxInBreaks: 1

[Editor]
Bookmarks: 43883
DistanceSpacing: 0.9
BeatDivisor: 4
GridSize: 8

[Metadata]
Title:Dudu
Artist:Tarkan
Creator:HellDawn
Version:Easy
Source:
Tags:turkish niva -kevincela-

[Difficulty]
HPDrainRate:2
CircleSize:3
OverallDifficulty:3
ApproachRate:3
SliderMultiplier:0.8
SliderTickRate:1

[Events]
//Background and Video events
0,0,"6dft.jpg"
//Break Periods
2,76391,81015
2,204302,213212
//Storyboard Layer 0 (Background)
//Storyboard Layer 1 (Fail)
//Storyboard Layer 2 (Pass)
//Storyboard Layer 3 (Foreground)
//Storyboard Sound Samples
//Background Colour Transformations
3,100,163,162,255

[TimingPoints]
1026,329.67032967033,4,1,1,45,1,0
22454,-100,4,2,1,45,0,0
43224,-100,4,1,1,60,0,1
64322,-100,4,1,1,45,0,0
65641,-100,4,2,1,45,0,0
70751,-100,4,2,1,45,0,0
100916,-100,4,2,0,25,0,0
102565,-100,4,1,1,45,0,1
118059,-100,4,2,0,45,0,1
120861,-100,4,1,1,45,0,1
123663,-100,4,1,1,45,0,0
145091,-100,4,2,0,50,0,0
156630,-100,4,1,1,45,0,1
167179,-100,4,1,1,45,0,0
167344,-100,4,2,1,30,0,0
167674,-100,4,1,1,30,0,0
168663,-100,4,1,1,18,0,0
168993,-100,4,1,1,33,0,0
183004,-100,4,1,1,45,0,1
204102,-100,4,1,1,45,0,0

[Colours]
Combo1 : 255,172,132
Combo2 : 145,145,255
Combo3 : 132,132,66
Combo4 : 192,196,203
SliderBorder : 255,255,255

[HitObjects]
40,40,11575,2,0,B|48:48|48:48|56:40|56:40|64:48|64:48|72:40|72:40|80:48|80:48|88:40|88:40|96:48|96:48|104:40|104:40|112:48|112:48|120:40|120:40|128:48|128:48|136:40|136:40|144:48|144:48|152:40|152:40,1,160,4|8
40,128,12894,2,0,B|48:136|48:136|56:128|56:128|64:136|64:136|72:128|72:128|80:136|80:136|88:128|88:128|96:136|96:136|104:128|104:128|112:136|112:136|120:128|120:128|128:136|128:136|136:128|136:128|144:136|144:136|152:128|152:128,1,160,0|8
232,224,14213,2,0,B|272:184|272:184|312:184,4,80,0|0|8|0|0
480,336,16850,6,0,B|472:344|472:344|464:336|464:336|456:344|456:344|448:336|448:336|440:344|440:344|432:336|432:336|424:344|424:344|416:336|416:336|408:344|408:344|400:336|400:336|392:344|392:344|384:336|384:336|376:344|376:344|368:336|368:336,1,160,0|8
480,248,18169,2,0,B|472:256|472:256|464:248|464:248|456:256|456:256|448:248|448:248|440:256|440:256|432:248|432:248|424:256|424:256|416:248|416:248|408:256|408:256|400:248|400:248|392:256|392:256|384:248|384:248|376:256|376:256|368:248|368:248|360:256|360:256,1,160,0|8
480,160,19488,1,0
336,160,20147,1,8
400,40,20806,2,0,B|416:48|416:48|400:64|400:64|416:80|416:80|400:96|400:96|416:104|416:104|400:120|400:120|416:136|416:136|400:152|400:152|416:168|416:168|400:184|400:184|416:200|416:200|400:216|400:216|416:232|416:232|400:248|400:248|416:264|416:264,1,320
280,216,22784,5,8
152,144,23444,1,2
240,32,24103,2,0,B|336:32|368:112,1,160,8|2
384,256,25422,1,8
256,312,26081,1,2
128,256,26740,1,8
256,184,27400,5,2
136,104,28059,1,12
256,184,28718,2,0,B|352:184|352:184|392:128,1,160,2|8
288,32,30037,1,2
148,259,31356,5,2
55,168,32015,1,8
160,88,32674,1,4
304,88,33334,1,2
304,248,33993,6,0,B|264:264|240:296|240:296|208:280|152:296,1,160,2|8
16,296,35312,1,2
16,152,35971,1,8
160,152,36630,2,0,B|256:152|256:152|320:200,1,160,6|8
312,336,37949,5,2
424,248,38608,2,0,B|488:248|488:136|416:136,1,160,8|2
280,136,39927,1,8
280,280,40586,1,6
160,208,41246,1,4
256,192,41905,12,0,43224
32,176,43883,6,0,B|32:72|144:72,1,160,8|0
32,176,45202,2,0,B|32:280|144:280,1,160,8|0
248,232,46521,1,8
208,48,47180,6,0,B|208:144|208:144|128:144,1,160,0|8
288,176,48499,1,0
208,312,49158,2,0,B|208:216|208:216|136:216,1,160,8|0
48,320,50477,1,8
144,216,51136,2,0,B|88:152|88:152|48:216,1,160,0|8
144,320,52455,1,0
48,216,53114,6,0,B|16:240|0:280|0:280|16:320|48:344,1,160,0|0
176,280,54433,1,8
312,328,55092,1,0
248,200,55751,2,0,B|344:200|344:200|392:240,1,160,8|0
456,112,57070,1,8
312,112,57729,6,0,B|312:64|312:64|352:40,4,80,0|0|8|0|0
168,176,59707,1,8
312,112,60367,1,0
456,184,61026,1,8
312,112,61685,2,0,B|328:152|352:176|352:176|328:200|312:256,1,160
256,192,63004,12,4,64322
200,160,65641,6,0,B|200:104|80:104|80:160,1,160,2|8
200,240,66960,2,0,B|200:296|80:296|80:240,1,160,2|8
200,160,68278,2,0,B|248:160|280:176,4,80,2|0|8|0|0
328,40,70916,5,2
328,104,71246,1,0
328,168,71576,1,8
208,168,72235,1,2
208,104,72565,1,0
208,40,72894,1,8
256,192,73554,12,4,76191
32,56,82455,6,0,B|32:128|144:128|144:264,1,240,2|8
256,344,84103,1,2
256,200,84762,1,8
392,256,85422,2,0,B|392:160|472:160|472:32,1,240,2|8
400,32,86740,5,2
256,56,87400,1,8
152,152,88059,2,0,B|120:240|187:307,1,160,2|8
56,368,89378,1,2
328,280,90696,6,0,B|400:240|392:328|480:296,1,160,2|8
392,184,92015,1,12
240,64,93334,5,2
160,184,93993,1,8
304,184,94652,2,0,B|320:224|344:248|344:248|320:272|304:328,2,160,2|8|2
160,184,96630,1,8
160,40,97290,6,0,B|280:40|280:40|280:88,2,160,2|8|2
160,184,99267,1,8
88,312,99927,1,4
8,184,100586,1,4
160,184,101246,2,0,B|200:184|200:184|240:216,4,80,2|0|2|0|4
232,328,103224,5,8
72,328,103883,1,0
160,192,104543,1,8
320,192,105202,2,0,B|392:128|392:128|328:80,1,160,0|8
320,248,106521,6,0,B|400:320|400:320|344:352,1,160,0|8
224,248,107839,1,4
224,88,108499,1,8
384,88,109158,1,0
384,248,109817,1,8
256,192,110477,12,4,111795
192,192,113114,5,4
192,48,113773,2,0,B|264:8|256:96|344:64,3,160,8|0|8|0
32,64,117070,5,0
104,64,117400,1,0
176,64,117729,1,8
264,152,118389,2,0,B|160:276|160:276|60:144,2,320,0|0|0
408,152,121685,1,0
256,192,122344,12,4,123663
48,48,124982,6,0,B|200:48|200:48|120:200,2,320,0|8|0
40,200,128279,1,8
40,328,128938,1,0
152,264,129597,1,8
280,256,130257,6,0,B|352:312|432:256,2,160,0|8|0
424,176,132235,1,8
280,176,132894,1,0
136,176,133554,1,8
136,320,134213,2,0,B|184:320|216:352|256:352|296:312,1,160,4|0
320,176,135532,6,0,B|320:120|200:120|200:176,1,160,0|8
320,256,136850,2,0,B|320:312|200:312|200:256,1,160,0|8
256,128,138169,5,0
112,128,138828,1,8
256,128,139488,2,0,B|320:128|320:16|248:16,3,160,0|8|0|8
384,80,142125,1,0
256,192,142784,12,4,144762
72,80,146081,5,2
139,78,146411,1,0
200,78,146740,1,0
208,184,147400,1,2
145,184,147729,1,0
80,184,148059,1,0
56,328,148718,6,0,B|134:376|223:315,1,160,2|0
328,248,150037,1,2
440,344,150696,1,0
480,208,151356,5,2
480,136,151685,1,0
480,64,152015,1,0
384,176,152674,1,2
384,104,153004,1,0
384,32,153334,1,0
240,40,153993,6,0,B|176:104|248:176|184:264|80:304,2,320,2|2|4
384,40,157290,5,8
504,120,157949,1,0
384,200,158608,1,8
424,336,159268,2,0,B|356:414|283:339,1,160,0|8
160,272,160586,1,0
160,128,161246,1,8
40,208,161905,6,0,B|40:125,3,80,0|0|8|0
112,128,163224,1,0
160,184,163554,1,0
232,176,163883,1,8
336,280,164543,2,0,B|392:280|392:352|440:352|480:352,4,160,0|8|0|8|0
264,280,167510,5,0
264,352,167839,1,8
192,352,168168,2,0,B|104:352,1,80
40,352,168828,1,0
40,280,169158,1,8
104,152,169817,6,0,B|32:96|40:8,2,160
176,152,171466,1,0
248,152,171795,1,8
320,152,172125,1,0
392,152,172454,6,0,B|464:96|456:8,1,160
312,8,173773,1,0
184,72,174433,1,8
192,216,175092,6,0,B|192:272|312:272|312:216,1,160
192,136,176410,2,0,B|192:80|312:80|312:136,1,160
256,264,177729,1,0
256,120,178388,1,8
128,192,179048,2,0,B|208:192,3,80
256,192,180366,12,4,183004
172,117,183663,5,8
316,116,184323,1,0
256,248,184982,1,8
316,116,185641,2,0,B|334:79|336:40,4,80,0|0|0|0|4
440,184,187619,5,8
440,328,188279,1,4
312,264,188938,1,8
176,328,189597,5,0
176,184,190256,1,8
216,48,190916,2,0,B|296:48,4,80,0|0|0|0|4
72,48,192894,5,8
72,192,193554,1,4
72,336,194213,1,8
216,336,194872,2,0,B|304:336,2,80,0|0|8
216,192,196191,2,0,B|304:192,2,80,0|0|8
112,296,197510,5,0
112,224,197839,1,0
112,152,198169,1,8
256,136,198828,2,8,B|256:301,2,160,8|0|8
112,136,200806,5,8
256,136,201466,1,0
400,136,202125,1,8
256,192,202784,12,4,204102
384,40,214652,5,0
512,112,215311,1,8
384,176,215970,1,0
384,304,216630,2,0,B|384:360|264:360|264:304,1,160,8|0
160,240,217948,5,8
160,112,218608,1,0
272,176,219268,1,8
392,216,219927,2,0,B|392:128,3,80,0|0|8|0
392,64,221246,5,0
320,64,221576,1,0
248,64,221905,1,8
128,144,222565,2,0,B|184:144|184:216|232:216|272:216,3,160,0|8|0|8
344,96,225202,6,0,B|344:40|224:40|224:96,1,160,0|8
344,176,226520,2,0,B|344:232|224:232|224:176,1,160,0|8
128,288,227839,1,0
272,288,228499,1,8
272,144,229158,1,0
128,144,229817,1,8
272,144,230477,6,0,B|288:112|288:112|344:112,3,80,0|0|8|0
400,112,231795,1,0
400,184,232125,1,0
400,256,232455,1,8
256,192,233114,12,4,235751
