osu file format v13

[General]
AudioFilename: Tarja Turunen - Until My Last Breath.mp3
AudioLeadIn: 0
PreviewTime: 68088
Countdown: 0
SampleSet: Soft
StackLeniency: 0.7
Mode: 0
LetterboxInBreaks: 0
WidescreenStoryboard: 1

[Editor]
DistanceSpacing: 1
BeatDivisor: 4
GridSize: 4
TimelineZoom: 1

[Metadata]
Title:Until My Last Breath
TitleUnicode:Until My Last Breath
Artist:Tarja
ArtistUnicode:Tarja
Creator:XavierJones
Version:Hard
Source:
Tags:nightwish turunen symphonic metal what lies beneath shiro odaril -Bakari-
BeatmapID:180602
BeatmapSetID:60404

[Difficulty]
HPDrainRate:6
CircleSize:4
OverallDifficulty:6
ApproachRate:7
SliderMultiplier:1.8
SliderTickRate:2

[Events]
//Background and Video events
0,0,"BG.jpg",0,0
//Break Periods
2,98996,105455
2,182145,195690
//Storyboard Layer 0 (Background)
Sprite,Background,Centre,"BG.jpg",320,240 F,0,68560,,1 S,0,68560,,0.625 M,0,68560,98796,320,240 F,0,96906,98796,1,0 F,0,136591,,0,1 S,0,136591,,1,0.625 M,0,136591,181945,320,240 F,0,180055,181945,1,0 S,0,196591,,1,0.625 F,0,196591,197063,0,1 M,0,196591,227299,320,240 F,0,225410,227299,1,0
//Storyboard Layer 1 (Fail)
//Storyboard Layer 2 (Pass)
//Storyboard Layer 3 (Foreground)
Sprite,Foreground,Centre,"BG_blackandwhite.jpg",320,240 S,0,13757,,0.89 F,0,13757,15647,0,1 M,0,13757,38560,320,240 F,0,38324,38560,1,0 S,0,38324,38560,0.89,1 S,0,105410,,1,0.89 F,0,105410,106362,0,1 M,0,105410,114150,320,240 F,0,113914,114150,1,0 S,0,113914,114150,0.89,1
Sprite,Foreground,Centre,"BG_tarja.jpg",320,240 S,0,38324,,0.89 F,0,38324,,0,1 M,0,38324,68678,320,240 M,0,68560,68678,320,240 F,0,68560,68678,1,0 S,0,68560,68678,0.89,1 F,0,113914,,0,1 S,0,113914,,1,0.89 M,0,113914,136709,320,240 F,0,136591,136709,1,0 S,0,136591,136709,0.89,1
//Storyboard Sound Samples
//Background Colour Transformations
3,100,163,162,255

[TimingPoints]
8088,472.44094488189,4,1,0,30,1,0
15647,-100,4,1,1,60,0,0
38324,-100,4,2,1,60,0,0
68560,-100,4,2,1,60,0,1
98796,-166.666666666667,4,2,1,60,0,0
106362,472.44094488189,4,2,1,30,1,0
113914,472.44094488189,4,2,1,60,1,0
136591,-100,4,2,1,60,0,1
166827,-100,4,2,1,60,0,0
197063,-100,4,2,1,60,0,1
227299,-100,4,2,1,60,0,0

[Colours]
Combo1 : 64,128,128
Combo2 : 192,192,192
Combo3 : 0,82,164
SliderBorder : 255,255,255

[HitObjects]
356,88,13756,6,0,B|292:152,1,90,0|0,0:0|0:0,0:0:0:0:
364,208,14228,2,0,B|300:272,1,90,0|0,0:0|0:0,0:0:0:0:
212,276,14701,2,0,B|148:212,1,90,0|0,0:0|0:0,0:0:0:0:
216,152,15173,2,0,B|152:88,1,90,0|0,0:0|0:0,0:0:0:0:
104,12,15647,6,0,B|93:59|36:60|36:60|41:119|-6:139,1,180,4|8,0:0|0:0,0:0:0:0:
88,164,16355,1,0,0:0:0:0:
20,224,16591,2,0,B|-8:264|8:312,1,90,2|0,0:0|0:0,0:0:0:0:
80,364,17064,2,0,B|108:324|92:276,1,90,8|2,0:0|0:0,0:0:0:0:
168,228,17536,6,0,B|256:276|340:220,1,180,4|8,0:0|0:0,0:0:0:0:
392,292,18245,1,0,0:0:0:0:
468,244,18481,2,0,P|480:296|472:336,2,90,2|0|8,0:0|0:0|0:0,0:0:0:0:
412,172,19190,1,2,0:0:0:0:
500,164,19426,6,0,P|464:100|364:96,1,180,4|8,0:0|0:0,0:0:0:0:
304,160,20135,1,0,0:0:0:0:
276,76,20371,2,0,L|196:28,2,90,2|0|8,0:0|0:0|0:0,0:0:0:0:
212,140,21080,1,2,0:0:0:0:
128,108,21316,6,0,P|124:156|144:200,1,90,2|0,0:0|0:0,0:0:0:0:
52,216,21788,2,0,P|76:256|116:280,1,90,8|0,0:0|0:0,0:0:0:0:
60,352,22261,2,0,P|103:367|150:361,1,90,2|2,0:0|0:0,0:0:0:0:
200,292,22733,1,8,0:0:0:0:
272,344,22969,1,0,0:0:0:0:
288,256,23206,6,0,B|376:256|376:256|444:188,1,180,4|8,0:0|0:0,0:0:0:0:
496,120,23914,1,0,0:0:0:0:
408,100,24150,2,0,P|432:56|468:36,2,90,2|8|0,0:0|0:0|0:0,0:0:0:0:
336,152,24859,1,2,0:0:0:0:
328,64,25095,6,0,P|264:100|260:200,1,180,4|8,0:0|0:0,0:0:0:0:
168,204,25804,1,0,0:0:0:0:
168,116,26040,2,0,P|180:72|212:36,2,90,2|0|8,0:0|0:0|0:0,0:0:0:0:
88,160,26749,1,2,0:0:0:0:
84,248,26985,6,0,B|164:288|164:288|252:256,1,180,4|8,0:0|0:0,0:0:0:0:
292,336,27694,1,0,0:0:0:0:
336,256,27930,2,0,L|428:292,2,90,2|0|8,0:0|0:0|0:0,0:0:0:0:
292,176,28639,1,2,0:0:0:0:
380,176,28875,6,0,L|464:144,1,90,2|0,0:0|0:0,0:0:0:0:
464,56,29347,2,0,L|380:88,1,90,8|0,0:0|0:0,0:0:0:0:
288,92,29820,2,0,L|204:60,1,90,2|2,0:0|0:0,0:0:0:0:
208,148,30292,2,8,L|296:180,1,90
336,256,30765,5,4,0:0:0:0:
420,288,31001,2,0,P|352:344|268:316,1,180,4|0,0:0|0:0,0:0:0:0:
204,260,31710,2,0,B|140:244|88:276|20:260,1,180,0|8,0:0|0:0,0:0:0:0:
68,184,32418,1,0,0:0:0:0:
24,104,32654,5,4,0:0:0:0:
116,104,32891,2,0,B|180:88|232:120|300:104,1,180,4|0,0:0|0:0,0:0:0:0:
368,52,33599,2,0,L|460:32,2,90,0|0|8,0:0|0:0|0:0,0:0:0:0:
484,192,34544,5,4,0:0:0:0:
416,136,34780,2,0,B|380:184|408:240|408:240|352:280,1,180,4|0,0:0|0:0,0:0:0:0:
300,356,35489,2,0,P|260:280|304:200,1,180,0|8,0:0|0:0,0:0:0:0:
224,156,36198,1,0,0:0:0:0:
136,156,36434,5,4,0:0:0:0:
178,233,36670,2,0,P|96:236|48:160,1,180,4|0,0:0|0:0,0:0:0:0:
96,84,37379,1,0,0:0:0:0:
184,84,37615,2,0,L|276:84,1,90,0|8,0:0|0:0,0:0:0:0:
364,84,38088,1,8,0:0:0:0:
384,92,38206,1,8,0:0:0:0:
404,100,38324,6,0,B|372:188|372:188|408:268,1,180,2|8,0:0|0:0,0:0:0:0:
352,340,39032,1,0,0:0:0:0:
312,260,39269,2,0,L|276:177,2,90,2|0|8,0:0|0:0|0:0,0:0:0:0:
256,328,39977,1,0,0:0:0:0:
224,244,40213,2,0,L|140:280,1,90,2|2,0:0|0:0,0:0:0:0:
72,224,40686,2,0,L|156:188,1,90,8|0,0:0|0:0,0:0:0:0:
156,100,41158,1,0,0:0:0:0:
236,140,41395,1,0,0:0:0:0:
232,52,41631,6,0,P|312:92|316:176,1,180,8|2,0:0|0:0,0:0:0:0:
400,204,42339,1,2,0:0:0:0:
492,204,42576,2,0,P|444:280|360:288,1,180,8|0,0:0|0:0,0:0:0:0:
292,348,43284,1,0,0:0:0:0:
268,260,43521,2,0,P|224:288|204:324,1,90,8|0,0:0|0:0,0:0:0:0:
120,352,43993,6,0,L|56:288,1,90,2|0,0:0|0:0,0:0:0:0:
144,260,44465,2,0,L|208:196,1,90,8|0,0:0|0:0,0:0:0:0:
120,168,44938,2,0,L|56:104,1,90,2|2,0:0|0:0,0:0:0:0:
144,80,45410,2,0,L|208:16,1,90,8|0,0:0|0:0,0:0:0:0:
256,92,45883,6,0,B|344:72|344:72|420:140,1,180,2|8,0:0|0:0,0:0:0:0:
476,192,46591,1,0,0:0:0:0:
410,252,46828,2,0,B|344:312|344:312|256:292,1,180,2|8,0:0|0:0,0:0:0:0:
256,204,47536,1,0,0:0:0:0:
176,248,47773,2,0,L|96:292,2,90,2|2|8,0:0|0:0|0:0,0:0:0:0:
176,160,48481,1,0,0:0:0:0:
88,164,48717,2,0,P|100:120|128:84,1,90
216,84,49190,6,0,P|304:64|384:20,1,180,8|2,0:0|0:0,0:0:0:0:
460,64,49899,1,2,0:0:0:0:
468,152,50135,2,0,L|488:240,1,90,8|0,0:0|0:0,0:0:0:0:
400,244,50607,2,0,L|368:332,2,90,2|2|8,0:0|0:0|0:0,0:0:0:0:
380,156,51316,1,0,0:0:0:0:
312,216,51552,6,0,P|276:252|232:260,1,90,2|0,0:0|0:0,0:0:0:0:
252,348,52025,2,0,P|208:344|168:316,1,90,8|0,0:0|0:0,0:0:0:0:
80,332,52497,2,0,P|84:288|112:248,1,90,2|2,0:0|0:0,0:0:0:0:
96,160,52969,2,0,P|140:164|180:192,1,90,8|8,0:0|0:0,0:0:0:0:
200,188,53324,1,8,0:0:0:0:
224,188,53442,6,0,P|312:168|376:108,1,180,2|8,0:0|0:0,0:0:0:0:
452,156,54150,1,0,0:0:0:0:
480,244,54387,2,0,L|504:332,2,90,2|2|8,0:0|0:0|0:0,0:0:0:0:
392,224,55095,1,0,0:0:0:0:
336,296,55332,6,0,B|294:320|254:279|254:279|214:322|176:300,1,180,2|8,0:0|0:0,0:0:0:0:
128,224,56040,1,0,0:0:0:0:
44,256,56276,2,0,L|28:344,2,90,2|2|8,0:0|0:0|0:0,0:0:0:0:
60,168,56985,1,0,0:0:0:0:
144,140,57221,6,0,B|232:128|232:128|264:40,1,180,2|8,0:0|0:0,0:0:0:0:
352,28,57930,1,0,0:0:0:0:
432,68,58166,2,0,L|468:152,1,90,2|0,0:0|0:0,0:0:0:0:
420,228,58639,2,0,L|404:316,1,90,8|0,0:0|0:0,0:0:0:0:
324,356,59111,5,2,0:0:0:0:
244,316,59347,1,0,0:0:0:0:
320,268,59584,2,0,L|304:180,1,90,8|0,0:0|0:0,0:0:0:0:
220,144,60056,1,2,0:0:0:0:
204,232,60292,1,2,0:0:0:0:
132,180,60528,2,0,P|116:224|124:268,1,90,8|0,0:0|0:0,0:0:0:0:
56,324,61001,6,0,P|32:240|52:152,1,180,2|8,0:0|0:0,0:0:0:0:
120,92,61710,1,0,0:0:0:0:
204,56,61946,2,0,L|220:148,1,90,2|0,0:0|0:0,0:0:0:0:
296,192,62418,2,0,L|312:104,1,90,8|0,0:0|0:0,0:0:0:0:
388,56,62891,5,2,0:0:0:0:
468,100,63127,2,0,L|484:188,1,90,0|8,0:0|0:0,0:0:0:0:
444,268,63599,1,0,0:0:0:0:
352,268,63836,1,2,0:0:0:0:
400,344,64072,2,0,L|308:344,1,90,2|8,0:0|0:0,0:0:0:0:
220,344,64544,1,0,0:0:0:0:
132,344,64780,6,0,P|144:296|176:268,1,90,2|0,0:0|0:0,0:0:0:0:
104,212,65253,2,0,L|184:168,1,90,8|0,0:0|0:0,0:0:0:0:
172,80,65725,2,0,L|92:124,2,90,2|0|8,0:0|0:0|0:0,0:0:0:0:
256,108,66434,1,0,0:0:0:0:
340,80,66670,6,0,L|420:124,1,90,2|0,0:0|0:0,0:0:0:0:
500,160,67143,1,0,0:0:0:0:
424,208,67379,2,0,L|472:288,1,90,2|8,0:0|0:0,0:0:0:0:
400,340,67851,1,0,0:0:0:0:
388,320,67969,1,0,0:0:0:0:
376,300,68088,1,8,0:0:0:0:
288,300,68324,1,8,0:0:0:0:
288,276,68442,1,8,0:0:0:0:
288,252,68560,6,0,P|208:216|152:144,1,180,4|8,0:0|0:0,0:0:0:0:
156,56,69269,1,0,0:0:0:0:
232,100,69505,2,0,P|320:100|408:68,1,180,2|8,0:0|0:0,0:0:0:0:
496,72,70213,1,0,0:0:0:0:
452,152,70450,2,0,B|428:240|428:240|464:324,1,180,2|8,0:0|0:0,0:0:0:0:
380,352,71158,1,0,0:0:0:0:
356,264,71395,2,0,B|298:282|289:344|289:344|219:325,1,180,2|8,0:0|0:0,0:0:0:0:
132,328,72103,2,0,L|44:352,1,90,4|4,0:3|0:3,0:0:0:0:
164,216,72812,6,0,L|228:152,1,90,8|0,0:0|0:0,0:0:0:0:
148,116,73284,2,0,L|212:52,1,90,2|0,0:0|0:0,0:0:0:0:
300,52,73757,2,0,L|363:115,1,90,8|0,0:0|0:0,0:0:0:0:
284,152,74229,2,0,L|348:216,1,90,2|0,0:0|0:0,0:0:0:0:
440,212,74702,2,0,L|476:300,2,90,8|0|2,0:0|0:0|0:0,0:0:0:0:
384,284,75410,6,0,L|372:328,2,45,0|0|8,0:0|0:0|0:0,0:0:0:0:
292,284,75883,1,8,0:0:0:0:
284,304,76001,1,8,0:0:0:0:
276,324,76119,6,0,P|192:300|100:308,1,180,4|8,0:0|0:0,0:0:0:0:
32,248,76828,1,0,0:0:0:0:
104,192,77064,2,0,P|188:216|280:208,1,180,2|8,0:0|0:0,0:0:0:0:
368,204,77773,1,0,0:0:0:0:
324,124,78009,2,0,P|420:132|456:200,1,180,2|8,0:0|0:0,0:0:0:0:
416,280,78717,1,0,0:0:0:0:
324,280,78954,2,0,B|268:348|268:348|188:304,1,180,2|8,0:0|0:0,0:0:0:0:
108,348,79662,2,0,L|60:268,1,90,4|4,0:3|0:3,0:0:0:0:
96,92,80371,6,0,L|144:172,1,90,8|0,0:0|0:0,0:0:0:0:
208,104,80843,2,0,L|208:12,1,90,2|0,0:0|0:0,0:0:0:0:
300,12,81316,2,0,L|300:104,1,90,8|0,0:0|0:0,0:0:0:0:
369,169,81788,2,0,L|416:92,1,90,2|0,0:0|0:0,0:0:0:0:
476,160,82261,2,0,L|504:248,2,90,8|0|2,0:0|0:0|0:0,0:0:0:0:
416,228,82969,2,0,L|408:276,4,45,8|8|8|8|8,0:0|0:0|0:0|0:0|0:0,0:0:0:0:
328,252,83678,6,0,L|312:340,1,90,4|0,0:0|0:0,0:0:0:0:
224,356,84150,2,0,L|240:268,1,90,8|0,0:0|0:0,0:0:0:0:
276,184,84623,2,0,B|248:168|216:200|188:184,1,90,0|0,0:0|0:0,0:0:0:0:
148,264,85095,2,0,B|120:248|88:280|60:264,1,90,8|0,0:0|0:0,0:0:0:0:
96,180,85568,6,0,L|48:104,1,90,2|0,0:0|0:0,0:0:0:0:
104,32,86040,2,0,L|152:108,1,90,8|0,0:0|0:0,0:0:0:0:
244,104,86513,2,0,B|272:88|304:120|332:104,1,90,0|0,0:0|0:0,0:0:0:0:
372,184,86985,2,0,B|400:168|432:200|460:184,1,90,8|0,0:0|0:0,0:0:0:0:
464,276,87458,6,0,B|392:332|392:332|312:288,1,180,2|8,0:0|0:0,0:0:0:0:
256,220,88166,1,0,0:0:0:0:
200,292,88402,2,0,B|124:336|124:336|49:278,1,180,2|8,0:0|0:0,0:0:0:0:
28,192,89111,1,0,0:0:0:0:
49,105,89347,2,0,B|120:48|120:48|200:92,1,180,2|8,0:0|0:0,0:0:0:0:
256,160,90056,1,0,0:0:0:0:
312,88,90292,2,0,L|388:40,2,90,2|8|0,0:0|0:0|0:0,0:0:0:0:
348,172,91001,1,8,0:0:0:0:
368,184,91119,1,8,0:0:0:0:
388,196,91237,6,0,L|464:244,1,90,4|0,0:0|0:0,0:0:0:0:
452,332,91710,2,0,L|376:284,1,90,8|0,0:0|0:0,0:0:0:0:
288,292,92182,2,0,B|260:308|228:276|200:292,1,90,0|0,0:0|0:0,0:0:0:0:
160,212,92654,2,0,B|132:228|100:196|72:212,1,90,8|0,0:0|0:0,0:0:0:0:
72,120,93127,6,0,L|156:88,1,90,2|0,0:0|0:0,0:0:0:0:
224,148,93599,1,8,0:0:0:0:
248,60,93836,1,0,0:0:0:0:
336,60,94072,2,0,B|364:44|396:76|424:60,1,90,0|0,0:0|0:0,0:0:0:0:
408,148,94544,2,0,B|436:132|468:164|496:148,1,90,8|0,0:0|0:0,0:0:0:0:
500,240,95017,6,0,L|416:272,1,90,2|0,0:0|0:0,0:0:0:0:
348,212,95489,2,0,L|256:200,1,90,8|0,0:0|0:0,0:0:0:0:
260,292,95962,2,0,L|176:324,1,90,2|0,0:0|0:0,0:0:0:0:
172,236,96434,2,0,L|80:228,2,90,8|0|2,0:0|0:0|0:0,0:0:0:0:
160,148,97143,6,0,L|140:104,2,45,0|0|8,0:0|0:0|0:0,0:0:0:0:
244,116,97615,1,0,0:0:0:0:
300,44,97851,1,2,0:0:0:0:
336,128,98088,2,0,L|368:160,2,45,0|0|8,0:0|0:0|0:0,0:0:0:0:
280,196,98560,1,8,0:0:0:0:
280,216,98678,1,8,0:0:0:0:
280,236,98796,1,4,0:0:0:0:
152,156,106362,6,0,P|156:84|212:132,1,180,2|0,0:0|0:0,0:0:0:0:
256,208,107070,1,0,0:0:0:0:
299,131,107306,2,0,P|356:84|360:156,1,180,2|0,0:0|0:0,0:0:0:0:
388,244,108015,2,0,L|300:268,1,90,0|2,0:0|0:0,0:0:0:0:
210,267,108487,2,0,L|124:244,1,90,2|0,0:0|0:0,0:0:0:0:
148,64,109197,5,0,0:0:0:0:
256,208,109668,1,2,0:0:0:0:
364,64,110141,2,0,P|408:88|424:128,1,90
344,140,110613,2,0,B|256:120|256:120|168:140,1,180,2|0,0:0|0:0,0:0:0:0:
88,122,111322,2,0,P|112:80|148:64,1,90
184,240,112031,6,0,B|140:252|140:252|116:292,2,90,2|0|0,0:0|0:0|0:0,0:0:0:0:
256,296,112739,1,0,0:0:0:0:
328,240,112976,2,0,B|372:252|372:252|396:292,2,90,2|0|0,0:0|0:0|0:0,0:0:0:0:
256,188,113684,1,0,0:0:0:0:
328,132,113914,6,0,B|376:56|376:56|296:12,1,180,2|8,0:0|0:0,0:0:0:0:
256,92,114622,1,0,0:0:0:0:
214,12,114858,2,0,B|136:56|136:56|184:132,1,180,2|0,0:0|0:0,0:0:0:0:
256,188,115567,1,0,0:0:0:0:
172,216,115803,2,0,L|80:192,2,90,2|0|8,0:0|0:0|0:0,0:0:0:0:
240,272,116512,1,0,0:0:0:0:
308,332,116748,2,0,P|324:292|324:240,1,90,4|4,0:3|0:3,0:0:0:0:
400,292,117221,6,0,P|388:200|348:120,1,180,8|2,0:0|0:0,0:0:0:0:
348,32,117929,1,0,0:0:0:0:
268,76,118165,2,0,B|176:72|176:72|92:32,1,180,8|2,0:0|0:0,0:0:0:0:
8,36,118874,1,0,0:0:0:0:
56,112,119110,2,0,L|144:152,1,90,8|0,0:0|0:0,0:0:0:0:
184,228,119583,6,0,P|228:248|272:244,1,90,2|0,0:0|0:0,0:0:0:0:
288,332,120055,2,0,P|332:312|352:276,1,90,8|0,0:0|0:0,0:0:0:0:
440,260,120528,2,0,P|420:216|384:196,1,90,4|4,0:3|0:3,0:0:0:0:
368,108,121000,2,0,P|324:128|304:164,1,90,8|0,0:0|0:0,0:0:0:0:
256,88,121473,6,0,B|192:148|192:148|100:120,1,180,2|8,0:0|0:0,0:0:0:0:
48,192,122181,1,0,0:0:0:0:
103,262,122417,2,0,B|192:236|192:236|256:296,1,180,2|8,0:0|0:0,0:0:0:0:
348,292,123126,1,0,0:0:0:0:
304,212,123362,2,0,B|364:188|408:224|408:224|464:176,1,180,2|8,0:0|0:0,0:0:0:0:
460,88,124071,1,0,0:0:0:0:
376,124,124307,2,0,L|292:88,1,90,2|4,0:0|0:3,0:0:0:0:
218,88,124780,2,0,L|136:124,1,90,8|0,0:0|0:0,0:0:0:0:
64,72,125252,6,0,P|60:160|128:212,1,180,2|8,0:0|0:0,0:0:0:0:
96,296,125961,1,0,0:0:0:0:
184,276,126197,2,0,P|256:320|332:272,1,180,2|8,0:0|0:0,0:0:0:0:
416,296,126906,1,0,0:0:0:0:
384,211,127142,2,0,P|456:152|448:72,1,180,2|8,0:0|0:0,0:0:0:0:
376,124,127851,1,0,0:0:0:0:
292,88,128087,1,4,0:3:0:0:
204,76,128323,2,0,L|192:32,2,45,4|0|8,0:3|0:0|0:0,0:0:0:0:
124,112,128795,1,8,0:0:0:0:
132,132,128914,1,8,0:0:0:0:
140,152,129032,6,0,P|168:232|168:328,1,180,2|8,0:0|0:0,0:0:0:0:
256,352,129740,1,0,0:0:0:0:
343,326,129976,2,0,P|344:232|372:152,1,180,2|8,0:0|0:0,0:0:0:0:
464,152,130685,1,0,0:0:0:0:
416,76,130921,2,0,B|340:28|340:28|300:112,1,180,2|8,0:0|0:0,0:0:0:0:
256,188,131630,1,0,0:0:0:0:
210,109,131866,2,0,B|172:28|172:28|96:76,1,180,2|8,0:0|0:0,0:0:0:0:
48,152,132575,1,0,0:0:0:0:
136,152,132811,6,0,L|160:240,1,90,2|0,0:0|0:0,0:0:0:0:
128,324,133284,2,0,L|216:360,1,90,8|0,0:0|0:0,0:0:0:0:
300,360,133756,2,0,L|387:325,1,90,2|2,0:0|0:0,0:0:0:0:
352,238,134228,2,0,L|376:152,1,90,8|0,0:0|0:0,0:0:0:0:
468,152,134701,6,0,L|444:64,1,90,2|8,0:0|0:0,0:0:0:0:
356,56,135173,1,4,0:3:0:0:
284,112,135410,1,4,0:3:0:0:
268,24,135646,2,0,P|228:40|200:80,1,90,8|4,0:0|0:3,0:0:0:0:
116,112,136118,1,8,0:0:0:0:
200,148,136354,1,8,0:0:0:0:
188,168,136473,1,8,0:0:0:0:
176,188,136591,6,0,B|140:268|140:268|188:348,1,180,4|8,0:0|0:0,0:0:0:0:
256,288,137299,1,0,0:0:0:0:
332,336,137536,2,0,P|396:276|492:264,1,180,2|8,0:0|0:0,0:0:0:0:
492,172,138244,1,0,0:0:0:0:
404,156,138480,2,0,P|324:120|276:44,1,180,2|8,0:0|0:0,0:0:0:0:
184,48,139189,1,0,0:0:0:0:
224,128,139425,2,0,P|144:128|96:48,1,180,2|8,0:0|0:0,0:0:0:0:
4,52,140134,2,0,P|8:96|36:152,1,90,4|4,0:3|0:3,0:0:0:0:
40,316,140843,6,0,L|108:252,1,90,8|0,0:0|0:0,0:0:0:0:
124,344,141315,2,0,L|212:316,1,90,2|0,0:0|0:0,0:0:0:0:
300,316,141788,2,0,L|385:343,1,90,8|0,0:0|0:0,0:0:0:0:
406,254,142260,2,2,L|472:316,1,90,2|0,0:0|0:0,0:0:0:0:
496,228,142732,2,0,L|464:144,1,90,8|0,0:0|0:0,0:0:0:0:
436,60,143205,5,2,0:0:0:0:
372,124,143441,2,0,L|328:140,2,45,4|4|8,0:3|0:3|0:0,0:0:0:0:
340,40,143914,1,0,0:0:0:0:
264,84,144150,6,0,P|168:84|100:136,1,180,4|8,0:0|0:0,0:0:0:0:
172,192,144858,1,0,0:0:0:0:
88,224,145095,2,0,B|116:312|116:312|208:352,1,180,2|8,0:0|0:0,0:0:0:0:
256,280,145803,1,0,0:0:0:0:
315,346,146039,2,0,B|396:312|396:312|424:224,1,180,2|8,0:0|0:0,0:0:0:0:
340,192,146748,1,0,0:0:0:0:
409,132,146984,2,0,P|332:80|248:84,1,180,2|8,0:0|0:0,0:0:0:0:
256,172,147693,2,0,P|208:160|176:132,1,90,4|4,0:3|0:3,0:0:0:0:
40,252,148402,6,0,L|104:316,1,90,8|0,0:0|0:0,0:0:0:0:
176,260,148874,2,0,L|216:348,1,90,2|0,0:0|0:0,0:0:0:0:
304,340,149347,2,0,L|341:258,1,90,8|0,0:0|0:0,0:0:0:0:
408,315,149819,2,0,L|472:252,1,90,2|0,0:0|0:0,0:0:0:0:
404,192,150291,2,0,L|412:100,2,90,8|0|8,0:0|0:0|0:0,0:0:0:0:
320,164,151000,2,0,L|304:76,1,90,0|8,0:0|0:0,0:0:0:0:
224,36,151473,1,8,0:0:0:0:
220,56,151591,1,8,0:0:0:0:
216,76,151709,6,0,L|200:164,1,90,4|0,0:0|0:0,0:0:0:0:
112,168,152181,1,8,0:0:0:0:
156,248,152417,1,0,0:0:0:0:
248,244,152654,2,0,B|276:228|308:260|336:244,1,90,0|0,0:0|0:0,0:0:0:0:
376,324,153126,2,0,B|404:308|436:340|464:324,1,90,8|0,0:0|0:0,0:0:0:0:
448,236,153599,6,0,L|464:148,1,90,2|0,0:0|0:0,0:0:0:0:
376,160,154071,2,0,L|356:72,1,90,8|0,0:0|0:0,0:0:0:0:
268,72,154543,2,0,B|240:56|208:88|180:72,1,90,0|0,0:0|0:0,0:0:0:0:
140,152,155015,2,0,B|112:136|80:168|52:152,1,90,8|0,0:0|0:0,0:0:0:0:
88,236,155488,6,0,P|136:320|176:284,1,180,2|8,0:0|0:0,0:0:0:0:
256,244,156197,1,0,0:0:0:0:
337,286,156433,2,0,P|376:320|424:236,1,180,2|8,0:0|0:0,0:0:0:0:
504,192,157142,1,0,0:0:0:0:
424,147,157378,2,0,P|376:64|336:100,1,180,2|8,0:0|0:0,0:0:0:0:
256,140,158087,1,0,0:0:0:0:
176,100,158323,1,0,0:0:0:0:
96,60,158559,2,0,L|96:12,2,45,0|0|8,0:0|0:0|0:0,0:0:0:0:
92,152,159032,1,8,0:0:0:0:
80,172,159150,1,8,0:0:0:0:
68,188,159268,6,0,L|16:264,1,90,4|0,0:0|0:0,0:0:0:0:
72,336,159740,2,0,L|124:260,1,90,8|0,0:0|0:0,0:0:0:0:
212,260,160213,2,0,B|240:244|272:276|300:260,1,90,0|0,0:0|0:0,0:0:0:0:
340,340,160685,2,0,B|368:324|400:356|428:340,1,90,8|0,0:0|0:0,0:0:0:0:
408,252,161158,6,0,L|452:172,1,90,2|0,0:0|0:0,0:0:0:0:
372,128,161630,1,8,0:0:0:0:
452,84,161866,1,0,0:0:0:0:
372,44,162102,2,0,B|344:28|312:60|284:44,1,90,0|0,0:0|0:0,0:0:0:0:
244,124,162574,2,0,B|216:108|184:140|156:124,1,90,8|0,0:0|0:0,0:0:0:0:
168,36,163047,6,0,P|120:40|88:68,1,90,2|0,0:0|0:0,0:0:0:0:
40,144,163520,1,8,0:0:0:0:
108,200,163756,1,0,0:0:0:0:
24,228,163992,2,0,L|52:320,1,90,2|0,0:0|0:0,0:0:0:0:
136,288,164465,2,8,L|216:332,1,90,8|0,0:0|0:0,0:0:0:0:
284,276,164937,5,2,0:0:0:0:
304,364,165173,1,8,0:0:0:0:
372,304,165410,2,0,L|464:304,2,90,4|4|8,0:3|0:3|0:0,0:0:0:0:
348,216,166118,1,8,0:0:0:0:
340,196,166236,1,8,0:0:0:0:
332,176,166354,1,8,0:0:0:0:
324,156,166473,1,8,0:0:0:0:
316,136,166591,1,8,0:0:0:0:
308,116,166709,1,8,0:0:0:0:
300,96,166827,6,0,L|228:36,1,90,4|0,0:0|0:0,0:0:0:0:
140,40,167299,1,8,0:0:0:0:
184,120,167536,2,0,L|204:180,2,45,2|0|0,0:0|0:0|0:0,0:0:0:0:
96,116,168008,1,0,0:0:0:0:
116,204,168244,1,8,0:0:0:0:
28,180,168480,1,0,0:0:0:0:
52,268,168717,6,0,P|148:288|200:232,1,180,2|8,0:0|0:0,0:0:0:0:
256,304,169425,1,0,0:0:0:0:
312,232,169662,2,0,L|396:288,2,90,2|0|8,0:0|0:0|0:0,0:0:0:0:
256,160,170370,1,0,0:0:0:0:
344,152,170606,6,0,L|432:136,1,90,2|0,0:0|0:0,0:0:0:0:
500,76,171079,1,8,0:0:0:0:
412,52,171315,2,0,L|384:12,2,45,2|0|0,0:0|0:0|0:0,0:0:0:0:
324,72,171788,1,0,0:0:0:0:
244,32,172024,2,0,L|164:72,1,90,8|0,0:0|0:0,0:0:0:0:
84,32,172496,5,4,0:3:0:0:
84,120,172732,1,0,0:0:0:0:
84,144,172851,1,4,0:3:0:0:
84,168,172969,1,8,0:0:0:0:
172,192,173205,1,0,0:0:0:0:
100,248,173441,1,4,0:3:0:0:
184,276,173677,2,0,L|184:320,2,45,4|4|8,0:3|0:3|0:0,0:0:0:0:
252,216,174150,1,0,0:0:0:0:
284,300,174386,6,0,L|364:344,1,90,4|0,0:0|0:0,0:0:0:0:
452,340,174858,1,8,0:0:0:0:
408,260,175095,1,0,0:0:0:0:
496,264,175331,2,0,L|508:172,1,90,2|4,0:0|0:3,0:0:0:0:
420,168,175803,2,0,L|396:80,1,90,8|0,0:0|0:0,0:0:0:0:
328,140,176276,6,0,B|304:52|304:52|216:32,1,180,2|8,0:0|0:0,0:0:0:0:
192,120,176984,1,2,0:0:0:0:
128,56,177221,1,0,0:0:0:0:
100,140,177457,1,0,0:0:0:0:
164,204,177693,2,0,L|176:256,2,45,8|0|0,0:0|0:0|0:0,0:0:0:0:
76,220,178165,6,0,L|112:352,1,135,2|0,0:0|0:0,0:0:0:0:
156,348,178638,2,0,P|232:352|296:328,1,135,8|0,0:0|0:0,0:0:0:0:
328,348,179110,1,2,0:0:0:0:
328,256,179347,1,0,0:0:0:0:
404,304,179583,2,0,L|492:272,1,90,8|0,0:0|0:0,0:0:0:0:
492,184,180055,6,0,L|472:88,1,90,4|2,0:3|0:0,0:0:0:0:
396,144,180528,2,0,L|328:76,1,90,4|4,0:3|0:3,0:0:0:0:
256,128,181000,1,4,0:3:0:0:
179,80,181236,2,0,L|116:144,1,90,4|2,0:3|0:0,0:0:0:0:
38,95,181709,2,0,L|20:184,1,90,8|0,0:0|0:0,0:0:0:0:
36,252,197063,6,0,B|124:272|124:272|180:348,1,180,4|8,0:0|0:0,0:0:0:0:
256,300,197772,1,0,0:0:0:0:
334,344,198008,2,0,B|388:272|388:272|476:252,1,180,2|8,0:0|0:0,0:0:0:0:
476,160,198717,1,0,0:0:0:0:
464,72,198953,2,0,B|412:80|392:128|392:128|308:88,1,180,2|8,0:0|0:0,0:0:0:0:
232,56,199662,1,0,0:0:0:0:
240,144,199898,2,0,P|164:116|152:24,1,180,2|8,0:0|0:0,0:0:0:0:
60,28,200606,2,0,P|56:72|72:124,1,90,4|4,0:3|0:3,0:0:0:0:
36,292,201315,6,0,L|104:220,1,90,8|0,0:0|0:0,0:0:0:0:
132,308,201788,2,0,L|212:268,1,90,2|0,0:0|0:0,0:0:0:0:
304,268,202260,2,0,L|384:308,1,90,8|0,0:0|0:0,0:0:0:0:
414,226,202732,2,0,L|476:292,2,90,2|0|8,0:0|0:0|0:0,0:0:0:0:
480,164,203441,1,0,0:0:0:0:
392,140,203677,5,4,0:3:0:0:
456,76,203914,1,0,0:0:0:0:
448,56,204032,1,0,0:0:0:0:
440,36,204150,1,8,0:0:0:0:
352,56,204386,1,0,0:0:0:0:
300,132,204622,6,0,P|240:48|160:48,1,180,4|8,0:0|0:0,0:0:0:0:
80,48,205331,1,0,0:0:0:0:
128,124,205567,2,0,B|104:212|104:212|24:264,1,180,2|8,0:0|0:0,0:0:0:0:
32,352,206276,1,0,0:0:0:0:
116,320,206512,2,0,P|188:272|208:184,1,180,2|8,0:0|0:0,0:0:0:0:
256,108,207221,1,0,0:0:0:0:
303,185,207457,2,0,P|324:272|396:320,1,180,2|8,0:0|0:0,0:0:0:0:
484,312,208165,2,0,P|468:272|428:240,1,90
440,56,208874,6,0,B|424:100|424:100|384:124,1,90,8|0,0:0|0:0,0:0:0:0:
328,56,209347,2,0,B|300:96|300:96|300:140,1,90,2|0,0:0|0:0,0:0:0:0:
212,136,209819,2,0,B|212:94|212:94|184:54,1,90,8|0,0:0|0:0,0:0:0:0:
125,122,210291,2,0,B|88:100|88:100|72:56,1,90,2|0,0:0|0:0,0:0:0:0:
8,120,210764,2,0,L|44:208,1,90,8|0,0:0|0:0,0:0:0:0:
132,208,211236,1,8,0:0:0:0:
80,280,211473,5,8,0:0:0:0:
100,292,211591,1,8,0:0:0:0:
120,304,211709,1,8,0:0:0:0:
140,316,211827,1,8,0:0:0:0:
160,328,211945,1,8,0:0:0:0:
180,340,212063,1,8,0:0:0:0:
204,340,212181,6,0,L|296:340,1,90,4|0,0:0|0:0,0:0:0:0:
348,268,212654,2,0,L|440:268,1,90,8|0,0:0|0:0,0:0:0:0:
432,180,213126,2,0,B|404:196|372:164|344:180,1,90,0|0,0:0|0:0,0:0:0:0:
304,100,213598,2,0,B|276:116|244:84|216:100,1,90,8|0,0:0|0:0,0:0:0:0:
128,104,214071,5,2,0:0:0:0:
172,184,214307,1,0,0:0:0:0:
84,184,214543,2,0,L|84:276,1,90,8|0,0:0|0:0,0:0:0:0:
176,272,215016,2,0,B|204:256|236:288|264:272,1,90,0|0,0:0|0:0,0:0:0:0:
304,352,215488,2,0,B|332:336|364:368|392:352,1,90,8|0,0:0|0:0,0:0:0:0:
436,272,215961,6,0,B|496:204|496:204|496:112,1,180,2|8,0:0|0:0,0:0:0:0:
496,24,216669,1,0,0:0:0:0:
416,68,216906,2,0,P|328:72|248:28,1,180,2|8,0:0|0:0,0:0:0:0:
160,32,217614,1,0,0:0:0:0:
200,112,217851,2,0,B|144:136|104:100|104:100|48:156,1,180,2|8,0:0|0:0,0:0:0:0:
112,220,218559,1,0,0:0:0:0:
24,240,218795,1,0,0:0:0:0:
84,308,219032,2,0,L|96:352,2,45,4|4|8,0:3|0:3|0:0,0:0:0:0:
172,284,219504,1,0,0:0:0:0:
240,340,219740,6,0,L|280:256,1,90,4|0,0:0|0:0,0:0:0:0:
340,324,220213,2,0,L|380:240,1,90,8|0,0:0|0:0,0:0:0:0:
384,152,220685,2,0,B|356:168|324:136|296:152,1,90,0|0,0:0|0:0,0:0:0:0:
256,72,221157,2,0,B|228:88|196:56|168:72,1,90,8|0,0:0|0:0,0:0:0:0:
92,120,221630,6,0,L|0:120,2,90,2|0|8,0:0|0:0|0:0,0:0:0:0:
148,192,222339,1,0,0:0:0:0:
204,260,222575,2,0,B|232:244|264:276|292:260,1,90,0|0,0:0|0:0,0:0:0:0:
332,340,223047,2,0,B|360:324|392:356|420:340,1,90,8|0,0:0|0:0,0:0:0:0:
256,192,223520,12,4,227299,0:0:0:0:
