osu file format v13

[General]
AudioFilename: Tarja Turunen - Until My Last Breath.mp3
AudioLeadIn: 0
PreviewTime: 68088
Countdown: 0
SampleSet: Soft
StackLeniency: 0.7
Mode: 0
LetterboxInBreaks: 0
WidescreenStoryboard: 1

[Editor]
DistanceSpacing: 1
BeatDivisor: 4
GridSize: 4
TimelineZoom: 1

[Metadata]
Title:Until My Last Breath
TitleUnicode:Until My Last Breath
Artist:Tarja
ArtistUnicode:Tarja
Creator:XavierJones
Version:Easy
Source:
Tags:nightwish turunen symphonic metal what lies beneath shiro odaril -Bakari-
BeatmapID:449145
BeatmapSetID:60404

[Difficulty]
HPDrainRate:2
CircleSize:3
OverallDifficulty:2
ApproachRate:3
SliderMultiplier:1
SliderTickRate:1

[Events]
//Background and Video events
0,0,"BG.jpg",0,0
//Break Periods
2,98996,104922
2,182145,195623
//Storyboard Layer 0 (Background)
Sprite,Background,Centre,"BG.jpg",320,240 F,0,68560,,1 S,0,68560,,0.625 M,0,68560,98796,320,240 F,0,96906,98796,1,0 F,0,136591,,0,1 S,0,136591,,1,0.625 M,0,136591,181945,320,240 F,0,180055,181945,1,0 S,0,196591,,1,0.625 F,0,196591,197063,0,1 M,0,196591,227299,320,240 F,0,225410,227299,1,0
//Storyboard Layer 1 (Fail)
//Storyboard Layer 2 (Pass)
//Storyboard Layer 3 (Foreground)
Sprite,Foreground,Centre,"BG_blackandwhite.jpg",320,240 S,0,13757,,0.89 F,0,13757,15647,0,1 M,0,13757,38560,320,240 F,0,38324,38560,1,0 S,0,38324,38560,0.89,1 S,0,105410,,1,0.89 F,0,105410,106362,0,1 M,0,105410,114150,320,240 F,0,113914,114150,1,0 S,0,113914,114150,0.89,1
Sprite,Foreground,Centre,"BG_tarja.jpg",320,240 F,0,38324,,0,1 S,0,38324,,0.89 M,0,38324,68678,320,240 M,0,68560,68678,320,240 F,0,68560,68678,1,0 S,0,68560,68678,0.89,1 F,0,113914,,0,1 S,0,113914,,1,0.89 M,0,113914,136709,320,240 F,0,136591,136709,1,0 S,0,136591,136709,0.89,1
//Storyboard Sound Samples
//Background Colour Transformations
3,100,163,162,255

[TimingPoints]
8088,472.44094488189,4,1,0,30,1,0
15647,-100,4,1,1,60,0,0
38324,-100,4,2,1,60,0,0
68560,-100,4,2,1,60,0,1
98796,-100,4,2,1,60,0,0
106362,472.44094488189,4,2,1,30,1,0
113914,472.44094488189,4,2,1,60,1,0
136591,-100,4,2,1,60,0,1
166827,-100,4,2,1,60,0,0
197063,-100,4,2,1,60,0,1
227299,-100,4,2,1,60,0,0

[Colours]
Combo1 : 64,128,128
Combo2 : 192,192,192
Combo3 : 0,82,164
SliderBorder : 255,255,255

[HitObjects]
364,168,13757,6,0,L|304:84,1,100,0|0,0:0|0:0,0:0:0:0:
204,88,14702,2,0,L|144:172,1,100,0|0,0:0|0:0,0:0:0:0:
56,212,15647,6,0,P|132:268|224:232,1,200,4|2,0:0|0:0,0:0:0:0:
316,268,17064,1,8,0:0:0:0:
364,356,17536,2,0,B|424:324|416:256|416:256|472:192,1,200,4|2,0:0|0:0,0:0:0:0:
492,100,18954,1,8,0:0:0:0:
396,132,19426,2,0,B|300:104|300:104|208:144,1,200,4|2,0:0|0:0,0:0:0:0:
124,88,20843,1,8,0:0:0:0:
116,188,21316,6,0,L|72:280,1,100,2|8,0:0|0:0,0:0:0:0:
144,352,22261,2,0,L|188:260,1,100,2|8,0:0|0:0,0:0:0:0:
288,276,23206,6,0,B|332:184|332:184|432:164,1,200,4|2,0:0|0:0,0:0:0:0:
472,76,24623,1,8,0:0:0:0:
372,76,25095,2,0,B|272:100|272:100|196:40,1,200,4|2,0:0|0:0,0:0:0:0:
96,40,26513,1,8,0:0:0:0:
144,128,26985,2,0,B|88:160|40:124|40:124|40:212,1,200,4|2,0:0|0:0,0:0:0:0:
52,312,28402,1,8,0:0:0:0:
128,248,28875,6,0,L|232:292,1,100,2|8,0:0|0:0,0:0:0:0:
228,184,29820,2,0,L|332:228,1,100,2|8,0:0|0:0,0:0:0:0:
296,320,30765,6,0,P|392:292|416:204,1,200,4|0,0:0|0:0,0:0:0:0:
324,168,32182,1,8,0:0:0:0:
404,108,32654,2,0,B|336:40|336:40|232:40,1,200,4|0,0:0|0:0,0:0:0:0:
156,108,34072,1,8,0:0:0:0:
252,136,34544,6,0,P|196:200|88:184,1,200,4|0,0:0|0:0,0:0:0:0:
32,268,35962,1,8,0:0:0:0:
124,308,36434,2,0,P|228:292|308:240,1,200,4|0,0:0|0:0,0:0:0:0:
356,328,37851,1,8,0:0:0:0:
408,244,38324,6,0,B|432:148|432:148|508:72,1,200,2|0,0:0|0:0,0:0:0:0:
416,32,39741,1,8,0:0:0:0:
345,102,40213,1,2,0:0:0:0:
256,56,40686,2,0,L|168:104,1,100,8|0,0:0|0:0,0:0:0:0:
80,52,41631,6,0,P|68:108|80:152,1,100,8|2,0:0|0:0,0:0:0:0:
168,192,42576,1,8,0:0:0:0:
78,235,43048,2,0,P|68:276|80:332,1,100,0|8,0:0|0:0,0:0:0:0:
168,280,43993,2,0,P|264:280|360:332,1,200,2|0,0:0|0:0,0:0:0:0:
456,324,45410,1,8,0:0:0:0:
412,232,45883,6,0,L|484:160,1,100,2|8,0:0|0:0,0:0:0:0:
444,68,46828,2,0,L|372:140,1,100,2|8,0:0|0:0,0:0:0:0:
304,68,47773,2,0,P|256:56|204:72,1,100,2|8,0:0|0:0,0:0:0:0:
256,156,48717,1,0,0:0:0:0:
208,244,49190,6,0,P|256:256|308:240,2,100,8|2|8,0:0|0:0|0:0,0:0:0:0:
152,164,50607,1,0,0:0:0:0:
104,252,51080,1,8,0:0:0:0:
160,336,51552,2,0,P|256:352|360:332,1,200,2|0,0:0|0:0,0:0:0:0:
408,252,52969,1,8,0:0:0:0:
500,216,53442,6,0,P|468:176|424:156,1,100,4|8,0:0|0:0,0:0:0:0:
404,60,54387,2,0,L|304:84,1,100,2|8,0:0|0:0,0:0:0:0:
208,84,55332,2,0,L|110:60,2,100,2|8|2,0:0|0:0|0:0,0:0:0:0:
256,172,56749,1,8,0:0:0:0:
352,192,57221,6,0,P|296:264|196:256,1,200,2|0,0:0|0:0,0:0:0:0:
140,340,58639,2,0,L|72:260,1,100,8|0,0:0|0:0,0:0:0:0:
4,192,59584,1,8,0:0:0:0:
75,120,60056,2,0,L|140:44,1,100,0|8,0:0|0:0,0:0:0:0:
204,120,61001,6,0,B|264:40|264:40|360:84,1,200,2|0,0:0|0:0,0:0:0:0:
396,176,62418,2,0,P|436:144|456:96,2,100,8|2|8,0:0|0:0|0:0,0:0:0:0:
484,224,63836,2,0,P|448:256|400:276,1,100,2|8,0:0|0:0,0:0:0:0:
308,244,64780,6,0,P|308:296|332:344,2,100,2|8|2,0:0|0:0|0:0,0:0:0:0:
256,156,66198,1,8,0:0:0:0:
184,88,66670,2,0,L|136:72,1,50,2|8,0:0|0:0,0:0:0:0:
156,172,67379,2,0,L|108:156,1,50,2|8,0:0|0:0,0:0:0:0:
72,248,68088,1,8,0:0:0:0:
168,268,68560,6,0,B|252:324|252:324|356:304,1,200,4|0,0:0|0:0,0:0:0:0:
448,304,69977,1,8,0:0:0:0:
396,216,70450,2,0,B|348:128|348:128|416:56,1,200,2|0,0:0|0:0,0:0:0:0:
320,32,71867,2,0,L|251:104,1,100,8|0,0:0|0:0,0:0:0:0:
164,52,72812,6,0,P|152:116|168:160,1,100,8|2,0:0|0:0,0:0:0:0:
76,196,73757,2,0,P|112:236|160:248,1,100,8|0,0:0|0:0,0:0:0:0:
244,200,74702,1,8,0:0:0:0:
248,300,75174,2,0,L|352:312,1,100,0|8,0:0|0:0,0:0:0:0:
440,348,76119,6,0,B|432:244|432:244|340:220,1,200,4|0,0:0|0:0,0:0:0:0:
360,120,77536,1,8,0:0:0:0:
456,140,78009,2,0,P|436:52|336:20,1,200,2|0,0:0|0:0,0:0:0:0:
264,84,79426,2,0,L|164:64,1,100,8|0,0:0|0:0,0:0:0:0:
108,148,80371,6,0,L|208:168,1,100,8|2,0:0|0:0,0:0:0:0:
308,168,81316,1,8,0:0:0:0:
260,256,81788,2,0,P|312:264|364:252,1,100,0|8,0:0|0:0,0:0:0:0:
416,172,82733,2,0,L|464:84,1,100,0|8,0:0|0:0,0:0:0:0:
364,76,83678,6,0,L|268:36,1,100,4|8,0:0|0:0,0:0:0:0:
176,68,84623,2,0,L|72:80,1,100,0|8,0:0|0:0,0:0:0:0:
28,168,85568,1,2,0:0:0:0:
128,168,86040,2,0,P|116:220|72:260,2,100,8|0|8,0:0|0:0|0:0,0:0:0:0:
228,168,87458,6,0,P|240:220|284:260,2,100,2|8|0,0:0|0:0|0:0,0:0:0:0:
328,168,88875,1,8,0:0:0:0:
276,84,89347,2,0,P|372:80|424:160,1,200,2|0,0:0|0:0,0:0:0:0:
504,220,90765,1,8,0:0:0:0:
412,264,91237,6,0,L|444:364,2,100,4|8|0,0:0|0:0|0:0,0:0:0:0:
312,264,92654,1,8,0:0:0:0:
364,176,93127,2,0,P|300:164|208:264,1,200,2|0,0:0|0:0,0:0:0:0:
252,340,94544,1,8,0:0:0:0:
256,192,95017,12,4,98796,0:0:0:0:
120,124,106362,6,0,B|168:108|168:108|200:60,1,100,2|0,0:0|0:0,0:0:0:0:
256,148,107306,1,2,0:0:0:0:
316,68,107779,2,0,B|343:109|343:109|391:125,2,100,0|2|0,0:0|0:0|0:0,0:0:0:0:
116,48,109669,6,0,L|76:140,1,100,2|0,0:0|0:0,0:0:0:0:
172,172,110613,2,0,P|256:128|344:172,1,200,2|0,0:0|0:0,0:0:0:0:
384,264,112031,2,0,B|345:294|294:285|256:228|256:228|220:285|169:294|132:264,1,300,2|0,0:0|0:0,0:0:0:0:
72,340,113914,5,4,0:0:0:0:
36,248,114386,1,8,0:0:0:0:
100,172,114858,2,0,L|140:76,1,100,2|8,0:0|0:0,0:0:0:0:
240,84,115803,2,0,L|200:180,2,100,2|8|0,0:0|0:0|0:0,0:0:0:0:
324,28,117221,5,8,0:0:0:0:
333,124,117693,2,0,L|436:128,1,100,2|8,0:0|0:0,0:0:0:0:
408,225,118638,1,2,0:0:0:0:
308,220,119110,1,8,0:0:0:0:
356,308,119583,2,0,P|264:304|208:216,1,200,2|0,0:0|0:0,0:0:0:0:
108,224,121000,1,8,0:0:0:0:
144,132,121473,6,0,P|92:128|44:152,2,100,2|8|0,0:0|0:0|0:0,0:0:0:0:
240,160,122890,1,8,0:0:0:0:
300,80,123362,2,0,P|351:72|400:88,2,100,2|8|0,0:0|0:0|0:0,0:0:0:0:
240,160,124780,1,8,0:0:0:0:
340,176,125252,6,0,B|304:236|304:236|356:356,1,200,2|0,0:0|0:0,0:0:0:0:
256,348,126669,1,8,0:0:0:0:
156,355,127142,2,0,B|208:236|208:236|172:176,1,200,2|0,0:0|0:0,0:0:0:0:
348,84,129032,6,0,L|448:72,2,100,4|8|0,0:0|0:0|0:0,0:0:0:0:
256,40,130449,1,8,0:0:0:0:
164,84,130921,2,0,L|64:72,2,100,2|8|0,0:0|0:0|0:0,0:0:0:0:
256,124,132339,1,8,0:0:0:0:
348,160,132811,6,0,L|404:244,1,100,2|8,0:0|0:0,0:0:0:0:
360,332,133756,2,0,L|304:248,1,100,0|8,0:0|0:0,0:0:0:0:
212,288,134701,2,0,L|160:288,1,50,2|8,0:0|0:0,0:0:0:0:
212,200,135410,2,0,L|156:200,1,50,0|8,0:0|0:0,0:0:0:0:
64,200,136118,1,8,0:0:0:0:
116,116,136591,6,0,B|196:56|196:56|292:92,1,200,4|0,0:0|0:0,0:0:0:0:
376,40,138008,1,8,0:0:0:0:
380,140,138480,2,0,B|440:220|440:220|416:320,1,200,2|0,0:0|0:0,0:0:0:0:
320,340,139898,2,0,L|343:238,1,100,8|0,0:0|0:0,0:0:0:0:
280,164,140843,6,0,L|192:212,1,100,8|2,0:0|0:0,0:0:0:0:
112,152,141788,2,0,L|200:104,1,100,8|0,0:0|0:0,0:0:0:0:
292,72,142732,1,8,0:0:0:0:
392,68,143205,2,0,B|444:68|444:68|480:104,1,100,2|8,0:0|0:0,0:0:0:0:
400,164,144150,6,0,P|432:260|380:336,1,200,4|0,0:0|0:0,0:0:0:0:
336,244,145567,1,8,0:0:0:0:
272,320,146039,2,0,P|240:224|296:152,1,200,2|0,0:0|0:0,0:0:0:0:
228,76,147457,2,0,P|188:112|160:152,1,100,8|0,0:0|0:0,0:0:0:0:
72,192,148402,6,0,L|56:292,1,100,8|2,0:0|0:0,0:0:0:0:
144,340,149347,2,0,L|160:240,1,100,8|0,0:0|0:0,0:0:0:0:
256,260,150291,1,8,0:0:0:0:
352,241,150764,2,0,L|368:340,1,100,8|2,0:0|0:0,0:0:0:0:
455,290,151709,6,0,L|440:192,1,100,4|8,0:0|0:0,0:0:0:0:
472,96,152654,2,0,B|455:64|417:76|391:37,1,100,0|8,0:0|0:0,0:0:0:0:
344,124,153599,2,0,B|304:92|304:92|304:40,1,100,2|8,0:0|0:0,0:0:0:0:
204,44,154543,2,0,B|187:76|149:64|123:103,1,100,0|8,0:0|0:0,0:0:0:0:
80,192,155488,6,0,L|48:288,1,100,2|8,0:0|0:0,0:0:0:0:
148,276,156433,2,0,L|176:380,2,100,2|8|0,0:0|0:0|0:0,0:0:0:0:
180,180,157851,1,8,0:0:0:0:
268,132,158323,2,0,B|284:184|284:184|268:228,1,100,2|8,0:0|0:0,0:0:0:0:
276,328,159268,6,0,L|368:288,1,100,4|8,0:0|0:0,0:0:0:0:
468,280,160213,2,0,B|455:245|489:225|478:180,1,100,0|8,0:0|0:0,0:0:0:0:
380,200,161158,2,0,L|408:100,1,100,2|8,0:0|0:0,0:0:0:0:
320,56,162102,2,0,B|284:64|268:27|222:33,1,100,0|8,0:0|0:0,0:0:0:0:
128,60,163047,6,0,B|144:160|144:160|76:240,1,200,2|0,0:0|0:0,0:0:0:0:
80,336,164465,1,8,0:0:0:0:
172,296,164937,2,0,L|212:336,1,50,0|8,0:0|0:0,0:0:0:0:
308,332,165646,2,0,L|348:292,1,50,0|8,0:0|0:0,0:0:0:0:
432,248,166354,1,8,0:0:0:0:
348,200,166827,6,0,B|304:228|256:192|256:192|208:228|156:196,1,200,4|2,0:0|0:0,0:0:0:0:
80,144,168244,1,8,0:0:0:0:
164,88,168717,2,0,B|208:60|256:96|256:96|304:60|356:92,1,200,2|0,0:0|0:0,0:0:0:0:
432,144,170134,1,8,0:0:0:0:
424,244,170606,6,0,B|388:336|388:336|344:352|300:300,1,200,4|0,0:0|0:0,0:0:0:0:
256,212,172024,1,8,0:0:0:0:
211,300,172496,2,0,B|164:352|124:336|124:336|88:244,1,200,2|0,0:0|0:0,0:0:0:0:
160,176,173914,1,8,0:0:0:0:
116,84,174386,6,0,L|208:40,1,100,4|8,0:0|0:0,0:0:0:0:
308,40,175331,2,0,L|398:83,1,100,0|8,0:0|0:0,0:0:0:0:
440,176,176276,2,0,B|340:196|340:196|356:296,1,200,2|0,0:0|0:0,0:0:0:0:
256,316,177693,1,8,0:0:0:0:
156,292,178165,2,0,B|172:196|172:196|72:176,1,200,2|0,0:0|0:0,0:0:0:0:
256,192,179583,12,4,181945,0:0:0:0:
56,192,197063,6,0,B|156:164|156:164|184:120|188:64,1,200,4|0,0:0|0:0,0:0:0:0:
256,148,198480,1,8,0:0:0:0:
324,73,198953,2,0,B|328:120|356:164|356:164|456:192,1,200,2|0,0:0|0:0,0:0:0:0:
484,288,200370,2,0,L|384:264,1,100,8|0,0:0|0:0,0:0:0:0:
324,344,201315,5,8,0:0:0:0:
284,252,201788,2,0,L|284:152,2,100,2|8|0,0:0|0:0|0:0,0:0:0:0:
220,328,203205,1,8,0:0:0:0:
120,336,203677,2,0,B|124:288|124:288|164:240,1,100,2|8,0:0|0:0,0:0:0:0:
76,192,204622,6,0,B|116:100|116:100|208:64,1,200,4|0,0:0|0:0,0:0:0:0:
256,152,206039,1,8,0:0:0:0:
303,63,206512,2,0,B|396:100|396:100|436:192,1,200,2|0,0:0|0:0,0:0:0:0:
340,216,207929,2,0,L|332:316,1,100,8|0,0:0|0:0,0:0:0:0:
236,348,208874,6,0,L|244:248,1,100,8|2,0:0|0:0,0:0:0:0:
152,208,209819,1,8,0:0:0:0:
64,252,210291,2,0,L|72:352,2,100,0|8|8,0:0|0:0|0:0,0:0:0:0:
64,152,211709,1,8,0:0:0:0:
28,60,212181,6,0,B|96:44|144:96|144:96|208:52,1,200,4|0,0:0|0:0,0:0:0:0:
256,140,213599,1,8,0:0:0:0:
308,55,214071,2,0,B|368:96|368:96|416:44|484:60,1,200,2|0,0:0|0:0,0:0:0:0:
448,152,215488,1,8,0:0:0:0:
464,252,215961,6,0,P|432:332|356:284,1,200,2|0,0:0|0:0,0:0:0:0:
256,296,217378,1,8,0:0:0:0:
155,284,217851,2,0,P|80:332|48:252,1,200,2|0,0:0|0:0,0:0:0:0:
32,152,219268,1,8,0:0:0:0:
124,188,219740,6,0,L|160:88,1,100,4|8,0:0|0:0,0:0:0:0:
224,180,220685,2,0,L|260:80,1,100,0|8,0:0|0:0,0:0:0:0:
348,44,221630,2,0,L|392:140,1,100,2|8,0:0|0:0,0:0:0:0:
472,192,222575,2,0,L|436:288,1,100,0|8,0:0|0:0,0:0:0:0:
256,192,223520,12,4,227299,0:0:0:0:
