osu file format v5

[General]
AudioFilename: Taqumi - Crystal Lattice.mp3
AudioLeadIn: 0
PreviewTime: -1
Countdown: 1
SampleSet: Normal
StackLeniency: 0.7
Mode: 0
LetterboxInBreaks: 1
EditorBookmarks: 10967,23672,34967,46437,58261,69555,81202,91084,102731,113496

[Metadata]
Title:Crystal Lattice
Artist:Taqumi
Creator:Gens
Version:Normal
Source:http://www.red-circle.org/
Tags:crystal lattice metal taqumi

[Difficulty]
HPDrainRate:5
CircleSize:5
OverallDifficulty:5
SliderMultiplier:1.5
SliderTickRate:2

[Events]
//Background and Video events
0,0,"load.jpg"
1,-1600,"DTXManiaGR.avi"
//Break Periods
2,22637,22825
2,58082,69158
2,102729,112923
//Storyboard Layer 0 (Background)
//Storyboard Layer 1 (Failing)
//Storyboard Layer 2 (Passing)
//Storyboard Layer 3 (Foreground)
//Storyboard Sound Samples
//Background Colour Transformations
3,100,134,133,210

[TimingPoints]
11320,352.941176470588,4,1,0,60,1

[Colours]
Combo1 : 147,88,0
Combo2 : 20,181,2
Combo3 : 12,0,149
Combo4 : 156,3,3

[HitObjects]
192,144,11319,5,0
240,112,11496,1,0
280,176,11849,1,0
232,208,12025,1,2
296,248,12378,1,8
376,192,12908,5,0
376,192,13084,1,0
456,192,13437,1,2
456,192,13614,1,0
456,192,13790,1,0
456,248,13967,1,8
392,272,14143,5,0
344,272,14319,1,0
272,304,14672,1,0
224,304,14849,1,2
160,256,15202,1,8
128,192,15731,5,0
128,192,15908,1,0
48,192,16261,1,2
48,192,16437,1,0
48,192,16614,1,0
48,136,16790,1,8
112,104,16967,5,0
112,152,17143,1,0
216,168,17496,1,0
216,216,17672,1,2
160,272,18025,1,8
288,208,18555,5,0
288,208,18731,1,0
288,136,19084,1,2
288,136,19261,1,0
288,136,19437,1,0
232,136,19614,1,8
176,120,19790,5,0
208,80,19967,1,0
280,16,20319,1,0
312,56,20496,1,2
360,120,20849,1,8
256,240,21378,5,0
256,240,21555,1,0
256,320,21908,1,6
256,320,22084,1,4
256,320,22261,1,4
256,376,22437,1,12
88,80,24025,6,2,B|400:80,2,300
88,136,25790,1,8
160,136,26143,1,8
232,136,26496,1,4
264,136,26672,1,6
296,136,26849,6,2,L|296:296|152:296,2,300
368,136,28614,1,8
368,208,28967,1,8
368,280,29319,1,4
368,312,29496,1,6
336,312,29672,6,2,L|168:312|168:176,2,300
336,248,31437,1,8
336,176,31790,1,8
336,104,32143,1,4
336,72,32319,1,6
256,192,32496,12,6,34261
256,48,35319,5,4
256,120,35672,1,8
256,120,36025,1,8
328,120,36378,1,12
400,120,36731,5,4
400,192,37084,1,12
400,192,37437,1,12
400,264,37790,1,14
328,264,38143,5,4
256,264,38496,1,8
256,264,38849,1,8
184,264,39202,1,12
112,264,39555,5,4
112,192,39908,1,12
112,192,40261,1,12
184,192,40614,1,14
184,120,40967,5,4
184,48,41320,1,8
184,48,41672,1,8
256,48,42025,1,8
328,48,42378,5,4
328,120,42731,1,12
328,120,43084,1,12
328,192,43437,1,14
256,192,43790,5,4
184,192,44143,1,8
184,192,44496,1,8
112,192,44849,1,12
112,120,45202,5,4
112,48,45555,1,12
112,48,45908,1,12
184,48,46261,1,14
192,144,46614,5,0
240,112,46791,1,0
280,176,47144,1,0
232,208,47320,1,2
296,248,47673,1,8
376,192,48203,5,0
376,192,48379,1,0
456,192,48732,1,2
456,192,48909,1,0
456,192,49085,1,0
456,248,49262,1,8
392,272,49438,5,0
344,272,49614,1,0
272,304,49967,1,0
224,304,50144,1,2
160,256,50497,1,8
128,192,51026,5,0
128,192,51203,1,0
48,192,51556,1,2
48,192,51732,1,0
48,192,51909,1,0
48,136,52085,1,8
112,104,52262,5,0
112,152,52438,1,0
216,168,52791,1,0
216,216,52967,1,2
160,272,53320,1,8
288,208,53850,5,0
288,208,54026,1,0
288,136,54379,1,2
288,136,54556,1,0
288,136,54732,1,0
232,136,54909,1,8
176,120,55085,5,0
208,80,55262,1,0
280,16,55614,1,0
312,56,55791,1,2
360,120,56144,1,8
256,240,56673,5,0
256,240,56850,1,0
256,320,57203,1,6
256,320,57379,1,4
256,320,57556,1,4
256,376,57732,1,12
312,376,57908,5,4
32,192,70084,6,0,L|32:144,2,37.5,2|0|8
96,192,70437,2,0,L|96:240,2,37.5,2|0|8
160,192,70790,2,0,L|160:144,2,37.5,2|0|8
224,192,71143,2,0,L|224:240,2,37.5,2|0|8
288,192,71496,2,0,L|288:144,2,37.5,2|0|8
352,192,71849,2,0,L|352:240,2,37.5,2|0|8
416,192,72202,2,0,L|416:144,2,37.5,2|0|8
480,192,72555,2,0,L|480:240,2,37.5,2|0|8
456,120,72908,6,2,L|352:120,1,75,6|8
320,120,73261,2,2,L|232:120,1,75,2|8
184,120,73614,2,2,L|96:120,1,75,2|8
48,120,73967,2,0,L|48:80,2,37.5,2|0|8
48,184,74319,2,2,L|152:184,1,75,2|8
184,184,74672,2,2,L|272:184,1,75,2|8
320,184,75025,2,2,L|408:184,1,75,2|8
456,184,75378,2,0,L|456:144,2,37.5,2|0|8
480,248,75731,6,0,L|448:216,2,37.5,2|0|8
416,248,76084,2,0,L|384:216,2,37.5,2|0|8
352,248,76437,2,0,L|320:216,2,37.5,2|0|8
288,248,76790,2,0,L|256:216,2,37.5,2|0|8
224,248,77143,2,0,L|192:216,2,37.5,2|0|8
160,248,77496,2,0,L|128:216,2,37.5,2|0|8
96,248,77849,2,0,L|64:216,2,37.5,2|0|8
32,248,78202,2,0,L|0:216,2,37.5,2|0|8
32,304,78555,6,2,L|120:304,1,75,2|8
112,248,78908,2,2,L|192:248,1,75,2|8
192,192,79261,2,2,L|288:192,1,75,2|8
272,248,79614,2,0,L|328:248,2,37.5,2|0|8
272,304,79967,2,2,L|192:304,1,75,2|8
192,248,80319,2,2,L|112:248,1,75,2|8
112,192,80672,2,2,L|32:192,1,75,2|8
40,136,81025,2,0,L|0:136,2,37.5,2|0|8
56,112,81376,5,4
128,112,81729,1,8
200,112,82082,2,12,L|280:112,1,75
275,112,82435,1,4
344,112,82612,5,4
344,184,82965,1,12
344,256,83318,2,14,L|344:352,1,75
344,331,83670,1,14
272,336,83847,5,4
200,336,84200,1,0
128,336,84553,2,12,L|40:336,1,75
53,336,84906,1,4
56,264,85082,5,4
56,192,85435,1,12
56,120,85788,2,14,L|56:40,1,75
56,45,86141,1,14
128,32,86318,5,4
200,32,86670,1,8
272,32,87023,2,12,L|352:32,1,75
347,32,87376,1,4
352,104,87553,5,4
352,176,87906,1,12
352,248,88259,2,14,L|352:336,1,75
352,323,88612,1,14
280,328,88788,5,4
208,328,89141,1,8
136,328,89494,2,12,L|32:328,1,75
61,328,89847,1,4
56,256,90023,5,4
56,184,90376,1,12
56,112,90729,2,14,L|56:32,1,75
56,37,91082,1,14
128,32,91259,5,4
200,32,91612,2,2,L|200:144,5,75,2|10|2|10|2|6
200,256,93023,1,14
128,328,93376,1,14
200,328,93729,1,14
272,328,94082,5,4
344,328,94435,2,2,L|344:216,5,75,2|10|2|10|2|6
344,112,95847,1,10
264,32,96200,1,14
344,32,96553,1,12
416,32,96906,5,4
416,96,97259,2,2,L|416:256,2,150,2|10|2
416,96,98141,1,4
416,192,98670,2,14,L|416:272,1,75,6|8
416,328,99023,2,14,L|304:328,1,75,6|8
336,264,99376,2,14,L|256:264,1,75,6|8
192,264,99729,5,4
128,264,100082,2,2,L|128:152,3,75,2|10|2|10
192,184,100788,2,4,L|192:80,1,75
304,192,101494,5,6
208,192,101847,5,6
304,192,102200,5,6
208,192,102553,5,4
320,144,113849,5,0
272,112,114026,1,0
232,176,114379,1,0
280,208,114555,1,2
216,248,114908,1,8
136,192,115438,5,0
136,192,115614,1,0
56,192,115967,1,2
56,192,116144,1,0
56,192,116320,1,0
56,248,116497,1,8
120,272,116673,5,0
168,272,116849,1,0
240,304,117202,1,0
288,304,117379,1,2
352,256,117732,1,8
384,192,118261,5,0
384,192,118438,1,0
464,192,118791,1,2
464,192,118967,1,0
464,192,119144,1,0
464,136,119320,1,8
400,104,119497,5,0
400,152,119673,1,0
296,168,120026,1,0
296,216,120202,1,2
352,272,120555,1,8
224,208,121085,5,0
224,208,121261,1,0
224,136,121614,1,2
224,136,121791,1,0
224,136,121967,1,0
280,136,122144,1,8
256,192,122319,12,4,125143
