osu file format v5

[General]
AudioFilename: Taqumi - Crystal Lattice.mp3
AudioLeadIn: 0
PreviewTime: -1
Countdown: 1
SampleSet: Normal
StackLeniency: 0.7
Mode: 0
LetterboxInBreaks: 1
EditorBookmarks: 10967,23672,34967,46437,58261,69555,81202,91084,102731,113496

[Metadata]
Title:Crystal Lattice
Artist:Taqumi
Creator:Gens
Version:Easy
Source:http://www.red-circle.org/
Tags:crystal lattice metal taqumi

[Difficulty]
HPDrainRate:3
CircleSize:3
OverallDifficulty:3
SliderMultiplier:1.2
SliderTickRate:2

[Events]
//Background and Video events
0,0,"load.jpg"
1,-1600,"DTXManiaGR.avi"
//Break Periods
2,22461,22585
2,58082,69158
2,102729,112923
//Storyboard Layer 0 (Background)
//Storyboard Layer 1 (Failing)
//Storyboard Layer 2 (Passing)
//Storyboard Layer 3 (Foreground)
//Storyboard Sound Samples
//Background Colour Transformations
3,100,0,0,0

[TimingPoints]
11320,352.941176470588,4,1,0,60,1

[Colours]
Combo1 : 147,88,0
Combo2 : 20,181,2
Combo3 : 12,0,149
Combo4 : 156,3,3

[HitObjects]
144,192,11319,5,0
256,192,12025,1,2
368,192,12731,1,4
256,96,13437,1,2
256,96,13790,1,8
256,288,14143,5,0
256,192,14849,1,2
256,96,15555,1,0
152,192,16261,1,2
152,192,16614,1,8
216,120,16967,5,0
296,192,17672,1,2
216,264,18378,1,4
256,192,19084,1,2
256,192,19437,1,8
144,128,19790,5,0
256,128,20496,1,2
368,128,21202,1,4
256,192,21908,1,6
256,192,22261,1,12
48,48,24025,6,2,B|448:336,3,480
440,264,28614,1,4
440,192,28967,1,12
440,120,29319,1,4
440,48,29672,6,2,B|40:336,1,480
256,192,31172,12,6,33908
312,80,35320,5,4
312,192,36025,1,8
424,192,36731,5,4
424,304,37437,1,12
312,304,38143,5,4
200,304,38849,1,8
88,304,39555,5,4
88,192,40261,1,12
144,192,40614,1,14
200,192,40967,5,4
200,80,41672,1,8
312,80,42378,5,4
312,192,43084,1,12
312,304,43790,5,4
200,304,44496,1,8
200,192,45202,5,4
200,80,45908,1,12
176,136,46261,1,14
144,192,46614,5,0
256,192,47320,1,2
368,192,48025,1,4
256,96,48731,1,2
256,96,49084,1,8
256,288,49437,5,0
256,192,50143,1,2
256,96,50849,1,0
152,192,51555,1,2
152,192,51908,1,8
216,120,52261,5,0
296,192,52967,1,2
216,264,53672,1,4
256,192,54378,1,2
256,192,54731,1,8
144,128,55084,5,0
256,128,55790,1,2
368,128,56496,1,4
256,192,57202,1,6
256,192,57555,1,12
256,192,57908,5,4
208,144,70084,5,6
272,144,70437,1,2
336,144,70790,1,2
400,144,71143,1,2
400,208,71496,1,10
336,208,71849,1,2
272,208,72202,1,2
208,208,72555,1,2
208,144,72908,5,6
144,144,73261,1,2
144,208,73614,1,2
208,208,73967,1,2
208,144,74319,1,10
272,144,74672,1,2
272,208,75025,1,2
208,208,75378,1,2
208,144,75731,5,6
272,144,76084,1,2
336,144,76437,1,2
400,144,76790,1,2
400,80,77143,1,10
336,80,77496,1,2
272,80,77849,1,2
208,80,78202,1,2
208,144,78555,5,6
272,144,78908,1,2
272,80,79261,1,2
208,80,79614,1,2
144,80,79967,1,10
144,16,80319,1,2
208,16,80672,1,2
272,16,81025,1,2
352,16,81378,5,4
352,96,81731,1,8
352,176,82084,1,4
352,288,82614,5,4
272,288,82967,1,12
192,288,83320,1,4
80,288,83849,5,4
80,208,84202,1,12
80,128,84555,1,4
192,128,85084,5,4
272,128,85437,1,12
352,128,85790,1,4
464,128,86320,5,4
464,208,86672,1,8
464,288,87025,1,4
352,288,87555,5,4
272,288,87908,1,12
192,288,88261,1,4
80,288,88790,5,4
80,208,89143,1,8
80,128,89496,1,4
192,128,90025,5,4
272,128,90378,1,12
352,128,90731,1,4
464,128,91261,5,4
464,208,91614,2,4,L|216:208|216:288,1,300
88,264,93025,1,14
88,184,93378,1,14
88,104,93731,1,14
168,104,94084,5,4
248,104,94437,2,2,L|248:368|192:368,1,300
344,368,95849,1,10
344,288,96202,1,14
344,208,96555,1,12
344,128,96908,5,4
424,128,97261,2,0,L|424:368|336:368,1,300
360,264,98672,2,14,L|104:264,1,240
40,264,99731,5,4
40,184,100084,2,6,L|40:40|208:40,1,300
256,192,101496,5,4
256,192,101849,5,4
256,192,102202,5,4
256,192,102555,5,4
368,192,113849,5,0
256,192,114555,1,2
144,192,115261,1,4
256,96,115967,1,2
256,96,116320,1,8
256,288,116672,5,0
256,192,117378,1,2
256,96,118084,1,0
360,192,118790,1,2
360,192,119143,1,8
296,120,119496,5,0
216,192,120202,1,2
296,264,120908,1,4
256,192,121614,1,2
256,192,121967,1,8
256,192,122320,12,4,125143
