osu file format v6

[General]
AudioFilename: Tank-(kala).mp3
AudioLeadIn: 0
PreviewTime: -1
Countdown: 1
SampleSet: Soft
StackLeniency: 0.7
Mode: 0
LetterboxInBreaks: 1

[Editor]
DistanceSpacing: 0.800000011920929
BeatDivisor: 1
GridSize: 32

[Metadata]
Title:Give me your love
Artist:Tank
Creator:Sirijie
Version:
Source:
Tags:

[Difficulty]
HPDrainRate:0
CircleSize:5
OverallDifficulty:3
SliderMultiplier:1.4
SliderTickRate:1

[Events]
//Background and Video events
//Break Periods
2,14483,25843
2,33483,37843
//Storyboard Layer 0 (Background)
//Storyboard Layer 1 (Fail)
//Storyboard Layer 2 (Pass)
//Storyboard Layer 3 (Foreground)
//Storyboard Sound Samples
//Background Colour Transformations
3,100,163,162,255

[TimingPoints]
11283.9592418671,1000,4,2,0,100,1,0

[HitObjects]
181,142,12283,1,0
328,144,14283,5,0
190,144,27283,5,0
222,143,28283,1,0
257,143,29283,1,0
137,118,32283,5,2
317,210,33283,1,2
122,131,39283,5,2
328,132,40283,1,2
187,142,41283,1,2
273,140,42283,1,2
204,131,43283,5,2
211,200,44283,1,2
272,184,45283,1,2
272,184,46283,1,2
343,88,49283,1,2
212,129,50283,1,2
282,184,51283,1,2
398,85,52283,1,2
134,219,53283,1,2
318,111,56283,1,2
185,219,57283,1,2
305,110,58283,1,2
249,126,60283,1,2
246,244,61283,1,2
146,85,64283,1,2
266,84,65283,1,2
354,84,66283,1,2
162,114,68283,5,2
179,161,69283,1,2
189,246,70283,1,2
157,109,72283,1,2
186,109,73283,1,2
269,112,74283,1,2
394,112,75283,1,2
465,140,76283,1,2
467,200,77283,1,2
460,232,78283,1,2
96,136,80283,5,2
122,246,81283,1,2
248,114,82283,1,2
100,152,83283,5,2
159,242,84283,1,2
343,240,85283,1,2
385,121,86283,1,2
125,127,87283,1,2
227,105,88283,5,2
353,102,89283,1,2
393,106,90283,1,2
393,106,92283,1,2
393,106,93283,1,2
221,201,94283,1,2
170,216,96283,1,2
235,132,97283,1,2
356,215,98283,1,2
415,119,99283,1,2
347,84,100283,1,2
368,179,101283,1,2
89,107,102283,6,0,B|144:210|253:176|253:176|216:323|144:254|144:254,1,420
323,139,107283,1,0
338,253,108283,1,0
334,129,109283,1,0
210,97,110283,1,0
247,92,111283,1,0
149,107,112283,1,0
242,128,113283,1,0
328,100,114283,1,0
255,236,115283,1,0
256,208,116283,12,0,119283
169,101,121283,5,0
248,101,122283,1,0
316,143,123283,1,0
258,210,124283,1,0
154,193,125283,1,0
200,175,126283,1,0
119,114,128283,1,0
261,111,129283,1,0
371,125,130283,1,0
164,144,131283,5,0
269,143,132283,1,0
289,230,133283,1,0
65,123,136283,6,0,L|210:181|196:314|204:298|310:300|363:301,1,420
99,114,140283,1,0
240,114,141283,1,0
157,146,144283,1,0
157,146,145283,1,0
157,146,146283,1,0
166,134,148283,5,0
289,194,149283,1,0
137,173,150283,1,0
92,111,152283,2,0,L|114:271|259:221|257:212,3,280
137,120,160283,1,0
136,237,161283,1,0
258,122,162283,1,0
93,121,163283,1,0
378,154,164283,1,0
373,275,165283,1,0
179,287,166283,1,0
67,273,167283,1,0
404,62,168283,1,0
149,193,169283,1,0
241,254,170283,1,0
191,128,172283,1,0
253,127,173283,1,0
386,118,174283,1,0
446,121,175283,1,0
142,174,176283,5,0
243,155,177283,1,0
360,56,178283,1,0
351,207,179283,1,0
120,162,180283,1,0
121,203,181283,1,0
237,247,182283,1,0
305,247,183283,1,0
305,247,184283,1,0
239,184,189283,1,0
318,184,190283,1,0
321,151,191283,1,0
242,100,192283,1,0
254,187,193283,1,0
181,246,194283,1,0
142,157,195283,1,0
169,94,196283,5,0
169,219,197283,1,0
254,139,198283,1,0
241,262,199283,1,0
75,276,200283,1,0
244,207,201283,1,0
144,204,202283,1,0
35,141,203283,1,0
126,113,204283,6,0,L|128:264|129:264|129:264|384:264|414:264|414:264|411:77|411:77|175:77,1,840
116,98,212283,1,0
150,215,213283,1,0
264,138,214283,1,0
258,250,215283,1,0
168,242,216283,1,0
127,137,217283,1,0
235,207,218283,1,0
358,205,219283,1,0
94,152,220283,1,0
196,112,221283,5,0
421,212,222283,1,0
216,231,223283,1,0
161,107,224283,1,0
230,95,225283,1,0
230,95,226283,1,0
230,95,227283,1,0
294,163,228283,1,0
341,264,229283,1,0
338,150,230283,1,0
48,172,232283,1,0
47,214,233283,1,0
95,265,234283,1,0
206,264,235283,1,0
256,208,236283,12,0,239283
90,121,240283,5,0
213,123,241283,1,0
351,146,242283,1,0
298,267,243283,1,0
182,136,244283,1,0
359,198,245283,1,0
359,198,246283,1,0
189,215,248283,5,0
322,144,249283,1,0
156,161,250283,1,0
237,115,251283,1,0
366,286,252283,1,0
193,301,253283,1,0
260,203,254283,1,0
326,126,255283,1,0
353,172,256283,1,0
338,257,257283,1,0
156,214,258283,1,0
290,224,259283,1,0
188,224,260283,1,0
323,238,261283,1,0
316,98,262283,1,0
171,229,263283,1,0
353,144,266283,1,0
353,144,267283,1,0
117,144,268283,1,0
114,231,269283,1,0
114,286,270283,1,0
257,192,272283,5,0
101,191,273283,1,0
398,197,274283,1,0
166,154,276283,1,0
351,156,277283,1,0
