osu file format v13

[General]
AudioFilename: tanizawa-tomofumi---sawakaze-(tv-version)-(a.-ivachyov).mp3
AudioLeadIn: 0
PreviewTime: 33590
Countdown: 0
SampleSet: None
StackLeniency: 0.7
Mode: 1
LetterboxInBreaks: 0
WidescreenStoryboard: 0

[Editor]
Bookmarks: 14259,27781,34541,48062
DistanceSpacing: 0.8
BeatDivisor: 2
GridSize: 32
TimelineZoom: 1.3

[Metadata]
Title:Sawakaze (TV Version)
TitleUnicode:爽風 (TV Version)
Artist:Tanizawa Tomofumi
ArtistUnicode:タニザワトモフミ
Creator:mingmichael
Version:Muzukashii
Source:君に届け 2nd Season
Tags:Kimi ni Todoke opening op
BeatmapID:444621
BeatmapSetID:186053

[Difficulty]
HPDrainRate:5
CircleSize:3
OverallDifficulty:4
ApproachRate:5
SliderMultiplier:1.4
SliderTickRate:1

[Events]
//Background and Video events
0,0,"kimi ni todoke 2.jpg",0,55
//Break Periods
//Storyboard Layer 0 (Background)
//Storyboard Layer 1 (Fail)
//Storyboard Layer 2 (Pass)
//Storyboard Layer 3 (Foreground)
//Storyboard Sound Samples
//Background Colour Transformations
3,100,163,162,255

[TimingPoints]
738.808510638298,422.535211267606,4,1,0,30,1,0
13626,-100,4,1,0,40,0,0
14048,-100,4,1,0,50,0,0
32745,-100,4,1,0,60,0,0
34541,-100,4,1,0,70,0,1
58097,-100,4,1,0,70,0,0

[HitObjects]
192,96,738,5,0,0:0:0:0:
192,96,1583,5,8,0:0:0:0:
192,96,2428,5,0,0:0:0:0:
192,96,3273,5,8,0:0:0:0:
192,96,3695,1,8,0:0:0:0:
192,96,3907,5,0,0:0:0:0:
192,96,4118,1,0,0:0:0:0:
192,96,4963,5,8,0:0:0:0:
192,96,5808,5,0,0:0:0:0:
192,96,6653,5,8,0:0:0:0:
192,96,7076,5,0,0:0:0:0:
192,96,7287,5,8,0:0:0:0:
192,96,7498,5,0,0:0:0:0:
192,96,7921,1,0,0:0:0:0:
192,96,8343,5,8,0:0:0:0:
192,96,8766,1,8,0:0:0:0:
192,96,8977,1,8,0:0:0:0:
192,96,9188,5,0,0:0:0:0:
192,96,10033,5,8,0:0:0:0:
192,96,10456,5,0,0:0:0:0:
192,96,10667,1,0,0:0:0:0:
192,96,10878,1,0,0:0:0:0:
192,96,11302,1,0,0:0:0:0:
192,96,11723,5,8,0:0:0:0:
192,96,12146,5,0,0:0:0:0:
192,96,12568,1,0,0:0:0:0:
192,96,13414,1,0,0:0:0:0:
192,96,13836,5,8,0:0:0:0:
192,96,14259,5,0,0:0:0:0:
192,96,14470,1,0,0:0:0:0:
192,96,14681,5,8,0:0:0:0:
192,96,15315,5,0,0:0:0:0:
192,96,15526,5,8,0:0:0:0:
192,96,15738,5,0,0:0:0:0:
192,96,15950,1,0,0:0:0:0:
192,96,16371,5,8,0:0:0:0:
192,96,16583,5,0,0:0:0:0:
192,96,17005,1,0,0:0:0:0:
192,96,17217,5,8,0:0:0:0:
192,96,17639,5,0,0:0:0:0:
192,96,17850,1,0,0:0:0:0:
192,96,18061,5,8,0:0:0:0:
192,96,18696,5,0,0:0:0:0:
192,96,18907,5,8,0:0:0:0:
192,96,19118,5,0,0:0:0:0:
192,96,19540,1,0,0:0:0:0:
192,96,19752,5,8,0:0:0:0:
192,96,20175,5,0,0:0:0:0:
192,96,20385,1,0,0:0:0:0:
192,96,20597,5,8,0:0:0:0:
192,96,20809,1,8,0:0:0:0:
192,96,21019,5,0,0:0:0:0:
192,96,21442,5,8,0:0:0:0:
192,96,21653,5,0,0:0:0:0:
192,96,22076,1,0,0:0:0:0:
192,96,22287,5,8,0:0:0:0:
192,96,22498,5,0,0:0:0:0:
192,96,22921,5,8,0:0:0:0:
192,96,23133,5,0,0:0:0:0:
192,96,23344,5,8,0:0:0:0:
192,96,23766,5,0,0:0:0:0:
192,96,23977,5,8,0:0:0:0:
192,96,24188,5,0,0:0:0:0:
192,96,24399,1,0,0:0:0:0:
192,96,24822,5,8,0:0:0:0:
192,96,25245,5,0,0:0:0:0:
192,96,25457,5,8,0:0:0:0:
192,96,25667,1,8,0:0:0:0:
192,96,25878,5,0,0:0:0:0:
192,96,26090,1,0,0:0:0:0:
192,96,26512,5,8,0:0:0:0:
192,96,26723,5,0,0:0:0:0:
320,96,26829,5,0,0:0:0:0:
192,96,26935,5,0,0:0:0:0:
192,96,27146,1,0,0:0:0:0:
192,96,27357,5,8,0:0:0:0:
192,96,27568,1,8,0:0:0:0:
192,96,27780,5,4,0:0:0:0:
192,96,27992,1,0,0:0:0:0:
192,96,28202,5,8,0:0:0:0:
192,96,28836,5,0,0:0:0:0:
192,96,29047,5,8,0:0:0:0:
192,96,29259,5,0,0:0:0:0:
192,96,29682,1,0,0:0:0:0:
192,96,29892,5,8,0:0:0:0:
192,96,30527,5,0,0:0:0:0:
192,96,30738,5,8,0:0:0:0:
192,96,30950,5,0,0:0:0:0:
192,96,31160,1,0,0:0:0:0:
192,96,31583,5,8,0:0:0:0:
192,96,32005,5,0,0:0:0:0:
192,96,32216,5,8,0:0:0:0:
192,96,32428,1,8,0:0:0:0:
192,96,32639,5,0,0:0:0:0:
192,96,32850,1,4,0:0:0:0:
192,96,33273,1,4,0:0:0:0:
192,96,34540,1,4,0:0:0:0:
192,96,34963,5,8,0:0:0:0:
192,96,35174,5,0,0:0:0:0:
192,96,35385,1,0,0:0:0:0:
192,96,35808,5,8,0:0:0:0:
192,96,36019,5,0,0:0:0:0:
192,96,36230,5,8,0:0:0:0:
192,96,36653,1,8,0:0:0:0:
192,96,37076,5,0,0:0:0:0:
192,96,37287,5,8,0:0:0:0:
192,96,37499,5,0,0:0:0:0:
192,96,37709,5,8,0:0:0:0:
192,96,37921,5,0,0:0:0:0:
192,96,38343,5,8,0:0:0:0:
192,96,38554,5,0,0:0:0:0:
192,96,38766,5,8,0:0:0:0:
192,96,39188,1,8,0:0:0:0:
192,96,39399,1,8,0:0:0:0:
192,96,39611,5,0,0:0:0:0:
192,96,40033,5,8,0:0:0:0:
192,96,40245,5,0,0:0:0:0:
320,96,40350,1,0,0:0:0:0:
192,96,40456,1,0,0:0:0:0:
192,96,40667,5,8,0:0:0:0:
192,96,40878,1,8,0:0:0:0:
192,96,41090,5,0,0:0:0:0:
192,96,41301,1,4,0:0:0:0:
192,96,41723,5,8,0:0:0:0:
192,96,42146,5,0,0:0:0:0:
192,96,42357,5,8,0:0:0:0:
192,96,42568,1,8,0:0:0:0:
192,96,42780,5,0,0:0:0:0:
192,96,42992,1,0,0:0:0:0:
192,96,43414,5,8,0:0:0:0:
192,96,43837,5,0,0:0:0:0:
192,96,44047,5,8,0:0:0:0:
192,96,44259,5,0,0:0:0:0:
192,96,44470,5,8,0:0:0:0:
192,96,44682,5,0,0:0:0:0:
320,96,44998,5,8,0:0:0:0:
192,96,45105,1,8,0:0:0:0:
192,96,45316,5,0,0:0:0:0:
192,96,45738,1,0,0:0:0:0:
192,96,45949,5,8,0:0:0:0:
192,96,46160,5,0,0:0:0:0:
192,96,46371,1,0,0:0:0:0:
192,96,46794,5,8,0:0:0:0:
192,96,47005,5,0,0:0:0:0:
320,96,47111,5,0,0:0:0:0:
192,96,47216,5,0,0:0:0:0:
192,96,47428,5,8,0:0:0:0:
192,96,47639,1,8,0:0:0:0:
192,96,47850,5,0,0:0:0:0:
192,96,48062,1,4,0:0:0:0:
192,96,48484,5,8,0:0:0:0:
192,96,48695,1,8,0:0:0:0:
192,96,48907,5,0,0:0:0:0:
192,96,49329,5,8,0:0:0:0:
192,96,49540,5,0,0:0:0:0:
192,96,49752,5,8,0:0:0:0:
192,96,50174,1,8,0:0:0:0:
192,96,50597,5,0,0:0:0:0:
192,96,50808,5,8,0:0:0:0:
192,96,51019,5,0,0:0:0:0:
192,96,51230,5,8,0:0:0:0:
192,96,51442,5,0,0:0:0:0:
192,96,51864,5,8,0:0:0:0:
192,96,52076,5,0,0:0:0:0:
192,96,52288,1,0,0:0:0:0:
192,96,52709,5,8,0:0:0:0:
192,96,52921,5,0,0:0:0:0:
192,96,53132,5,8,0:0:0:0:
192,96,53554,1,8,0:0:0:0:
192,96,53977,5,0,0:0:0:0:
192,96,54188,5,8,0:0:0:0:
192,96,54399,1,8,0:0:0:0:
192,96,54611,5,0,0:0:0:0:
192,96,54822,1,4,0:0:0:0:
320,96,55139,5,8,0:0:0:0:
192,96,55245,5,8,0:0:0:0:
192,96,55456,5,0,0:0:0:0:
192,96,55878,1,0,0:0:0:0:
192,96,56090,5,8,0:0:0:0:
192,96,56302,5,0,0:0:0:0:
192,96,56512,1,0,0:0:0:0:
192,96,56935,5,8,0:0:0:0:
192,96,57146,5,0,0:0:0:0:
192,96,57569,1,0,0:0:0:0:
192,96,57781,5,8,0:0:0:0:
192,96,57992,1,8,0:0:0:0:
320,96,58097,1,8,0:0:0:0:
