osu file format v13

[General]
AudioFilename: Kimi ni Todoke - Tanizawa Tomofumi (OP Kimi ni Todoke - TV size).mp3
AudioLeadIn: 0
PreviewTime: 27247
Countdown: 0
SampleSet: Normal
StackLeniency: 0.7
Mode: 1
LetterboxInBreaks: 0
WidescreenStoryboard: 1

[Editor]
DistanceSpacing: 1
BeatDivisor: 2
GridSize: 4
TimelineZoom: 1

[Metadata]
Title:Kimi ni Todoke (TV SIZE)
TitleUnicode:きみにとどけ (TV SIZE)
Artist:Tanizawa Tomofumi
ArtistUnicode:タニザワトモフミ
Creator:HeatKai
Version:Kantan
Source:Kimi ni Todoke
Tags:
BeatmapID:408354
BeatmapSetID:168227

[Difficulty]
HPDrainRate:4
CircleSize:5
OverallDifficulty:4
ApproachRate:5
SliderMultiplier:1.4
SliderTickRate:1

[Events]
//Background and Video events
0,0,"todoke.jpg",0,65
//Break Periods
//Storyboard Layer 0 (Background)
//Storyboard Layer 1 (Fail)
//Storyboard Layer 2 (Pass)
//Storyboard Layer 3 (Foreground)
//Storyboard Sound Samples
//Background Colour Transformations
3,100,163,162,255

[TimingPoints]
4390,476.190476190476,4,1,0,70,1,0
29151,-100,4,1,0,70,0,1
42485,-100,4,1,0,70,0,0
44389,-100,4,1,0,70,0,1
55818,-100,4,1,0,70,0,0

[HitObjects]
256,192,580,5,0,0:0:0:0:
128,132,1056,1,8,0:0:0:0:
256,192,1532,1,0,0:0:0:0:
256,192,2009,1,8,0:0:0:0:
116,176,2485,1,0,0:0:0:0:
88,172,2961,1,8,0:0:0:0:
88,172,3437,1,0,0:0:0:0:
88,172,4389,1,4,0:0:0:0:
88,172,5580,1,8,0:0:0:0:
88,172,6294,1,0,0:0:0:0:
88,172,7485,1,8,0:0:0:0:
88,172,8199,1,0,0:0:0:0:
88,172,10104,1,0,0:0:0:0:
88,172,11056,1,0,0:0:0:0:
88,172,11532,1,8,0:0:0:0:
88,172,12009,1,0,0:0:0:0:
88,172,13199,1,8,0:0:0:0:
88,172,13913,1,0,0:0:0:0:
88,172,14389,1,8,0:0:0:0:
88,172,15342,1,8,0:0:0:0:
88,172,15818,1,0,0:0:0:0:
88,172,16770,1,8,0:0:0:0:
88,172,17723,1,0,0:0:0:0:
88,172,18675,1,8,0:0:0:0:
88,172,19151,1,8,0:0:0:0:
88,172,19628,1,4,0:0:0:0:
88,172,21056,1,8,0:0:0:0:
88,172,21532,1,0,0:0:0:0:
88,172,22009,1,8,0:0:0:0:
88,172,22961,1,8,0:0:0:0:
124,308,23437,1,0,0:0:0:0:
172,180,23913,1,8,0:0:0:0:
176,160,24389,1,0,0:0:0:0:
176,160,25104,1,8,0:0:0:0:
176,144,26770,1,8,0:0:0:0:
176,144,27247,1,4,0:0:0:0:
176,144,28199,1,8,0:0:0:0:
176,144,28675,1,0,0:0:0:0:
176,144,29151,1,12,0:0:0:0:
176,144,29628,1,0,0:0:0:0:
176,144,30104,1,8,0:0:0:0:
176,144,30818,1,8,0:0:0:0:
176,144,31532,1,0,0:0:0:0:
176,144,32485,1,8,0:0:0:0:
176,144,32961,1,0,0:0:0:0:
176,144,33913,1,8,0:0:0:0:
176,144,34389,1,8,0:0:0:0:
176,144,34866,1,0,0:0:0:0:
176,144,35580,1,8,0:0:0:0:
176,144,36294,1,8,0:0:0:0:
188,284,36770,1,4,0:0:0:0:
180,144,37485,1,8,0:0:0:0:
184,212,38199,1,8,0:0:0:0:
184,212,38675,1,0,0:0:0:0:
172,72,39151,1,8,0:0:0:0:
184,212,39628,1,8,0:0:0:0:
172,72,40104,1,0,0:0:0:0:
180,212,40580,2,0,B|184:104|184:104|208:272|208:272|168:40,1,490
112,148,43199,1,0,0:0:0:0:
252,136,43913,1,8,0:0:0:0:
180,132,44389,1,4,0:0:0:0:
296,56,44866,1,8,0:0:0:0:
300,56,45818,1,8,0:0:0:0:
172,116,46294,1,0,0:0:0:0:
292,44,46770,1,8,0:0:0:0:
172,112,47723,1,8,0:0:0:0:
48,176,48199,1,0,0:0:0:0:
224,68,48675,1,8,0:0:0:0:
224,68,49151,1,0,0:0:0:0:
224,68,49866,1,8,0:0:0:0:
164,36,50580,1,8,0:0:0:0:
228,60,51056,1,0,0:0:0:0:
188,116,51532,1,8,0:0:0:0:
188,116,52009,1,4,0:0:0:0:
192,100,52723,1,8,0:0:0:0:
192,100,53199,1,0,0:0:0:0:
200,160,53675,1,8,0:0:0:0:
200,160,54389,1,0,0:0:0:0:
200,160,54866,1,8,0:0:0:0:
200,160,55342,1,8,0:0:0:0:
200,160,55818,1,4,0:0:0:0:
