osu file format v7

[General]
AudioFilename: 04 - Near no Theme.mp3
AudioLeadIn: 1474
PreviewTime: 54126
Countdown: 1
SampleSet: Soft
StackLeniency: 0.7
Mode: 0
LetterboxInBreaks: 0

[Editor]
Bookmarks: 54235,130286,171809
DistanceSpacing: 0.5
BeatDivisor: 2
GridSize: 8

[Metadata]
Title:Near no Theme
Artist:Taniuchi Hideki
Creator:Midget
Version:Normal
Source:Death Note
Tags:N

[Difficulty]
HPDrainRate:3
CircleSize:4
OverallDifficulty:4
SliderMultiplier:1.4
SliderTickRate:1

[Events]
//Background and Video events
0,0,"BG.jpg"
//Break Periods
2,51328,52919
2,124264,128300
//Storyboard Layer 0 (Background)
//Storyboard Layer 1 (Fail)
//Storyboard Layer 2 (Pass)
//Storyboard Layer 3 (Foreground)
Sprite,Foreground,Centre,"SB\nb.png",320,240 F,0,144091,144309,0,1 M,0,144091,182026,320,240
//Storyboard Sound Samples
//Background Colour Transformations
3,100,163,162,255

[TimingPoints]
240,444.444444444444,4,2,0,100,1,0
54239,434.782608695652,4,2,0,100,1,1
82065,444.444444444444,4,2,0,100,1,0
130064,434.782608695652,4,2,0,100,1,1
143977,-100,4,2,0,100,0,0

[Colours]
Combo1 : 255,0,0
Combo2 : 250,219,5
Combo3 : 192,192,192

[HitObjects]
40,112,240,2,0,B|104:56|176:112,1,140,0|2
104,160,1128,2,0,B|168:216|240:160,1,140,0|2
264,192,1795,2,0,B|336:128|424:160,2,140,0|0|2
264,272,3128,6,0,B|408:272,1,140,0|2
368,344,4017,2,0,B|224:344,1,140,0|2
184,344,4684,2,0,B|40:344|16:272|72:216|152:216,1,280,0|2
192,216,5795,2,0,B|264:216,1,70,0|2
288,176,6240,5,0
288,104,6684,1,2
216,104,7128,1,0
160,152,7573,1,2
160,152,7795,2,0,B|80:224|24:184|24:184|0:152,1,140
64,72,8906,1,2
64,72,9128,5,0
104,144,9573,1,2
64,216,10017,1,0
112,280,10462,1,2
112,280,10684,1,0
192,280,11128,1,2
192,280,11351,2,0,B|336:280,1,140
272,208,12240,5,2
352,200,12684,2,0,B|408:136|360:72,1,140,0|2
272,8,13573,2,0,B|256:88|320:104|304:144|304:144,2,140,0|2|0
200,24,14906,1,2
200,24,15128,5,0
208,120,15573,2,0,B|144:120|128:80|128:80|56:80,1,140,2|0
56,152,16462,2,0,B|96:152|96:152|120:184|168:192|208:192,1,140,2|0
256,192,17351,1,2
320,232,17795,1,0
256,272,18240,5,4
416,176,19128,1,0
312,120,19795,2,0,B|264:80|216:120|216:120|160:120,1,140,2|0
88,120,20684,1,2
48,192,21128,5,4
120,192,21573,2,0,B|176:192|176:192|176:224|176:224|272:224,1,140,2|0
304,224,22462,1,2
384,224,22906,1,2
304,224,23351,1,2
384,224,23795,1,2
408,296,24240,5,4
328,296,24684,2,0,B|272:296|232:272|232:272|232:336,1,140,2|0
160,312,25573,2,0,B|160:264|160:240|160:240|184:200|240:200,2,140,2|0|2
216,128,27128,5,4
156,87,27573,2,0,B|221:17|292:103,1,140
216,200,28684,1,2
256,192,29351,12,4,30240
256,192,31128,5,2
184,296,31795,1,0
96,296,32240,1,2
120,216,32684,1,0
40,216,33128,6,4,B|49:126|138:137,1,140,4|0
192,176,34017,1,2
312,176,34684,1,2
192,176,35351,1,2
312,176,36017,1,2
312,176,36240,5,4
288,248,36684,2,0,B|336:264|376:224|376:224|432:224,1,140,0|2
296,320,37795,1,0
368,320,38239,1,2
296,320,38684,1,0
216,320,39128,5,4
136,320,39573,2,0,B|152:248|208:248|208:248|208:192,2,140,0|2|0
64,312,40906,2,0,B|64:248|96:200|144:192|144:192|136:160|192:120|248:152,1,280
296,184,42239,5,4
304,112,42684,2,0,B|384:128|368:224|368:224|464:224,2,210,0|2|0
224,112,44462,1,0
144,112,44906,1,2
144,112,45128,5,4
120,192,45573,2,0,B|120:256|120:256|64:288|88:344,2,140,0|2|0
200,192,46906,1,0
200,264,47351,1,2
160,328,47795,1,0
240,328,48239,5,4
312,328,48684,1,0
328,288,48906,1,0
344,248,49128,1,2
368,288,49351,1,0
408,200,50017,1,0
408,104,50462,1,2
408,200,50906,1,0
408,200,51128,5,4
32,152,54239,5,4
104,200,54673,2,0,B|72:232|104:264|104:264|72:288|104:328|104:328|104:352,2,140
168,232,55978,1,4
224,192,56412,1,0
168,152,56847,1,4
112,112,57282,1,0
168,72,57717,1,4
256,192,58152,12,4,59456
256,96,61195,5,0
304,144,61630,1,0
248,184,62065,1,0
192,224,62499,1,0
248,264,62934,5,4
192,304,63369,2,0,B|144:336|96:304|96:304|48:304,1,140,0|4
32,232,64238,2,0,B|112:232|112:232|152:256|176:224,1,140,0|4
120,160,65108,2,0,B|48:160|48:160|0:128|0:80,2,140,0|4|0
192,160,66412,5,4
192,88,66847,2,0,B|256:96|264:152|264:152|312:152,1,140,0|4
368,152,67717,1,0
440,152,68152,6,0,B|432:239|331:220|331:220|286:276|332:348,4,280,4|0|4|0|4
440,152,72065,1,0
256,192,72282,12,4,73369
200,192,74238,5,0
256,136,74673,1,0
312,192,75108,1,4
256,192,76847,12,4,78586
256,256,80325,5,0
200,216,80760,1,0
256,176,81195,1,0
312,136,81630,1,0
256,96,82065,5,4
184,96,82509,2,0,B|136:64|96:96|96:96|40:96,1,140,2|0
50,173,83398,2,0,B|114:173|114:173|139:149|139:149|186:205,1,140,2|0
168,256,84287,1,0
112,304,84731,1,2
112,304,84953,5,4
168,344,85398,2,0,B|208:360|256:344|256:344|320:344,1,140,2|0
336,344,86064,2,0,B|400:352|400:352|440:336|480:336,1,140,2|0
392,280,87176,1,0
464,280,87620,1,2
392,280,88064,5,4
256,280,88953,1,0
176,280,89398,2,0,B|192:200|264:208|264:208|264:160,2,140,2|0|2
96,280,90731,1,2
96,280,90953,5,4
96,208,91398,2,0,C|32:192|96:192|32:176|96:176,3,210,0|2|0|0
44,174,93620,1,2
48,104,94064,5,4
104,56,94509,2,0,B|176:56|176:56|176:112|232:112,1,140,2|0
256,56,95398,2,0,B|296:72|296:112|296:112|368:112,3,140,2|0|2|0
362,112,96953,5,4
360,184,97398,2,0,B|320:184|320:184|280:184|328:224|328:224|208:224,2,210,0|2|0
432,184,99176,1,0
456,248,99620,1,2
456,248,99842,1,0
456,248,100064,5,4
288,312,100953,1,0
216,312,101398,2,0,B|144:312|144:312|96:352|56:312,1,140,2|0
96,256,102287,1,0
176,240,102731,1,2
176,240,102953,5,4
232,192,103398,2,0,B|181:146|128:184|128:184|88:184,1,140,2|0
56,184,104064,2,0,B|80:80|192:96,1,140,2|0
264,88,104953,1,0
296,48,105176,1,2
328,88,105398,1,0
360,128,105620,1,2
392,88,105842,1,0
360,128,106064,5,4
400,200,106509,2,0,B|304:208|296:160|296:160|224:160,1,140,2|0
224,208,107398,2,0,B|160:208|128:152|128:152|72:152|72:152,2,140,2|0|0
272,264,108731,1,2
272,264,108953,5,4
328,320,109398,2,0,B|252:374|206:298|206:298|128:296|128:296|104:296|72:280|56:256|50:239|50:239|40:192,2,350,0|2|0
400,320,112064,5,4
400,240,112509,2,0,B|312:248|256:208|240:168|256:128|320:72|416:80,2,350,0|2|0
400,240,114953,5,4
368,304,115398,1,2
328,360,115842,1,0
288,304,116287,1,0
248,248,116731,1,2
200,304,117176,2,0,B|192:352|168:352|168:352|72:352,1,140,0|2
128,280,118064,5,4
56,280,118509,2,0,B|64:208|136:208|136:208|136:168,1,140,2|0
128,112,119398,2,0,B|88:112|72:144|72:144|24:160|8:200,2,140,2|0|2
208,112,120731,1,2
208,112,120953,5,4
216,40,121398,2,0,B|280:48|280:112|280:112|344:112,1,140,2|0
384,120,122287,2,0,B|376:184|312:184|312:184|312:248,3,140,2|0|2|0
312,288,124064,5,4
80,288,129620,6,0,B|16:288,4,35
168,280,130498,2,0,B|168:216|168:216|184:184|256:184,1,140
304,184,131368,1,0
376,184,131803,1,4
408,128,132237,1,0
440,184,132672,1,4
472,240,133107,1,0
504,184,133542,5,4
472,240,133977,1,0
432,296,134411,1,4
360,296,134846,1,0
360,296,135064,6,0,B|272:296|272:296|232:280|232:224,1,140,4|0
240,232,135716,2,0,B|312:232|336:208|336:208|336:152,2,140,0|0|4
264,152,137020,1,4
192,152,137455,6,0,B|144:104|144:104|112:152|80:152,1,140
48,88,138324,2,0,B|-16:152|56:224,1,140,0|4
88,272,139194,1,0
48,336,139629,1,4
120,336,140064,1,0
192,336,140498,2,0,B|280:336|280:336|280:280|344:280,1,140,4|0
360,336,141368,2,0,B|472:336,3,70,4|0|0|4
392,264,142455,6,0,B|472:264,2,70,0|4|0
376,208,143107,2,0,B|312:144,1,70,4|0
384,144,143542,2,0,B|384:72,1,70,4|0
384,74,143977,1,4
