osu file format v9

[General]
AudioFilename: don kat.mp3
AudioLeadIn: 1500
PreviewTime: 55344
Countdown: 0
SampleSet: Normal
StackLeniency: 0.7
Mode: 1
LetterboxInBreaks: 1
SkinPreference:taiko

[Editor]
DistanceSpacing: 0
BeatDivisor: 4
GridSize: 8

[Metadata]
Title:Dragon Soul (TV Size)
Artist:Tanimoto Takayoshi
Creator:arien666
Version:TaiKrisom
Source:Dragon Ball Kai
Tags:arken1015 taiko taikosu Krisom

[Difficulty]
HPDrainRate:7
CircleSize:5
OverallDifficulty:6
ApproachRate:5
SliderMultiplier:1.4
SliderTickRate:1

[Events]
//Background and Video events
Video,340,"donkat.avi"
0,0,"dragon hollow.jpg"
//Break Periods
//Storyboard Layer 0 (Background)
//Storyboard Layer 1 (Fail)
//Storyboard Layer 2 (Pass)
//Storyboard Layer 3 (Foreground)
//Storyboard Sound Samples
//Background Colour Transformations
3,100,163,162,255

[TimingPoints]
695,370.37037037037,4,1,1,80,1,0
2176,-100,4,1,1,80,0,1
15509,-100,4,1,1,80,0,0
55509,-100,4,1,1,80,0,1
83565,-100,4,1,1,0,0,1
83657,-100,4,1,1,0,0,0

[Colours]
Combo1 : 112,196,193
Combo2 : 243,89,34

[HitObjects]
216,192,695,1,0
216,192,880,1,0
216,192,1065,1,0
296,192,1250,5,8
296,192,1620,1,8
256,136,2176,5,4
256,248,2546,5,12
256,136,2917,5,4
256,248,3287,5,12
296,192,3657,1,8
224,192,3843,5,0
224,192,4028,1,0
296,192,4213,5,8
296,192,4583,1,8
296,192,4769,1,8
256,136,5139,5,4
256,248,5509,5,12
256,136,5880,5,4
256,248,6250,5,12
216,192,6620,5,0
216,192,6713,1,0
296,192,6806,5,8
216,192,6991,5,0
296,192,7176,5,8
296,192,7546,1,8
216,192,7917,5,0
256,136,8102,1,4
296,192,8472,5,8
296,192,8657,1,8
296,192,8750,1,8
216,192,8843,5,0
216,192,9028,1,0
296,192,9213,5,8
296,192,9583,1,8
296,192,9676,1,8
296,192,9769,1,8
296,192,9954,1,8
216,192,10139,5,0
296,192,10509,5,8
216,192,10602,5,0
296,192,10694,5,8
216,192,10880,5,0
296,192,11065,5,8
216,192,11343,5,0
216,192,11620,1,0
296,192,11806,5,8
216,192,12083,5,0
216,192,12361,1,0
256,136,12546,1,4
256,136,12917,1,4
256,192,13287,12,0,15139
288,192,15509,5,8
288,192,15695,1,8
288,192,15880,1,8
256,128,16065,5,4
256,128,16435,1,4
216,192,16991,1,0
216,192,17176,1,0
288,192,17361,5,8
216,192,17546,5,0
288,192,17917,5,8
216,192,18009,5,0
288,192,18102,5,8
216,192,18287,5,0
216,192,18472,1,0
288,192,18657,5,8
216,192,18843,5,0
288,192,19213,5,8
288,192,19398,1,8
288,192,19583,1,8
288,192,19769,1,8
288,192,19861,1,8
216,192,19954,5,0
216,192,20139,1,0
288,192,20324,5,8
328,32,20509,6,0,B|160:32,1,144
288,192,21065,5,8
216,192,21250,5,0
216,192,21435,1,0
288,192,21806,5,8
216,192,22176,5,0
216,192,22361,1,0
288,192,22546,5,8
216,192,22917,5,0
216,192,23102,1,0
288,192,23287,5,8
216,192,23472,5,0
288,192,23843,5,8
216,192,23935,5,0
288,192,24028,5,8
216,192,24213,5,0
216,192,24398,1,0
288,192,24583,5,8
216,192,24769,5,0
288,192,25139,5,8
288,192,25324,1,8
288,192,25509,1,8
288,192,25694,1,8
288,192,25787,1,8
216,192,25880,5,0
216,192,26065,1,0
288,192,26250,5,8
328,32,26435,6,0,B|160:32,1,144
288,192,26991,5,8
216,192,27176,5,0
256,256,27361,5,12
256,256,27917,1,12
256,256,28287,1,12
256,136,28843,5,4
208,192,29028,1,0
304,192,29213,5,8
208,192,29398,5,0
208,192,29583,1,0
304,192,29769,5,8
208,192,29861,5,0
304,192,29954,5,8
208,192,30324,5,0
304,192,30694,5,8
208,192,30880,5,0
208,192,31250,1,0
304,192,31435,5,8
304,192,31620,1,8
208,192,31806,5,0
304,192,32176,5,8
208,192,32361,5,0
208,192,32454,1,0
208,192,32546,1,0
208,192,32732,1,0
304,192,32917,5,8
208,192,33102,5,0
208,192,33287,1,0
208,192,33472,1,0
304,192,33657,5,8
208,192,33843,5,0
208,192,34028,1,0
304,192,34213,5,8
208,192,34398,5,0
304,192,34583,5,8
256,136,34769,5,4
208,192,34954,1,0
304,192,35139,5,8
208,192,35324,5,0
208,192,35509,1,0
304,192,35694,5,8
208,192,35787,5,0
304,192,35880,5,8
208,192,36250,5,0
304,192,36620,5,8
208,192,36806,5,0
208,192,37176,1,0
304,192,37361,5,8
304,192,37546,1,8
208,192,37732,5,0
304,192,38102,5,8
208,192,38287,5,0
208,192,38380,1,0
208,192,38472,1,0
208,192,38657,1,0
304,192,38843,5,8
208,192,39028,5,0
256,120,39213,1,4
256,120,39769,1,4
256,120,39954,1,4
256,240,40694,5,12
256,120,40880,5,4
256,240,41065,5,12
192,192,41435,5,0
192,192,41620,1,0
192,192,41991,1,0
320,192,42176,5,8
192,192,42361,5,0
320,192,42546,5,8
192,192,42732,5,0
320,192,42917,5,8
320,192,43009,1,8
192,192,43102,5,0
320,192,43287,5,8
256,240,43657,1,12
256,120,43843,5,4
256,240,44028,5,12
192,192,44398,5,0
192,192,44583,1,0
192,192,44954,1,0
320,192,45139,5,8
192,192,45324,5,0
320,192,45509,5,8
192,192,45694,5,0
320,192,45880,5,8
320,192,45972,1,8
192,192,46065,5,0
320,192,46250,5,8
320,192,46343,1,8
192,192,46435,5,0
256,240,46620,5,12
256,120,46806,5,4
256,240,46991,5,12
192,192,47361,1,8
192,192,47546,1,8
192,192,47917,5,0
320,192,48102,5,8
192,192,48287,1,8
320,192,48472,5,0
192,192,48657,1,0
320,192,48843,5,8
320,192,48935,1,8
192,192,49028,5,0
320,192,49213,5,8
320,192,49583,1,8
320,192,49769,1,8
192,192,49954,5,0
320,192,50139,5,8
192,192,50509,5,0
320,192,50694,5,8
192,192,50880,5,0
192,192,51250,1,0
320,192,51435,5,8
192,192,51620,5,0
320,192,51806,5,8
320,192,51898,1,8
192,192,51991,5,0
192,192,52176,1,0
320,192,52361,5,8
256,272,52732,1,12
256,272,52917,1,12
256,272,53287,1,12
256,272,53472,1,12
176,368,53843,6,4,B|336:368,1,144
256,272,54398,5,12
256,272,54583,1,12
256,136,55509,5,4
256,248,55880,5,12
256,136,56250,5,4
256,248,56620,5,12
296,192,56991,1,8
224,192,57176,5,0
224,192,57269,1,0
224,192,57361,1,0
296,192,57546,5,8
296,192,57917,1,8
224,192,58009,5,0
296,192,58102,5,8
224,192,58287,5,0
256,136,58472,1,4
256,248,58843,5,12
256,136,59213,5,4
256,248,59583,5,12
216,192,59954,5,0
216,192,60046,1,0
296,192,60139,5,8
216,192,60324,5,0
296,192,60509,5,8
296,192,60880,1,8
216,192,61250,5,0
216,192,61343,1,0
216,192,61435,1,0
296,192,61806,5,8
296,192,61991,1,8
296,192,62083,1,8
216,192,62176,5,0
216,192,62361,1,0
296,192,62546,5,8
296,192,62917,1,8
296,192,63009,1,8
296,192,63102,1,8
296,192,63287,1,8
216,192,63472,5,0
296,192,63843,5,8
216,192,63935,5,0
296,192,64028,5,8
296,192,64213,1,8
296,192,64306,1,8
216,192,64398,5,0
216,192,64676,1,0
216,192,64954,5,8
296,192,65139,5,0
216,192,65417,1,0
216,192,65694,5,8
256,192,65880,12,0,66991
256,136,67361,5,4
256,248,67732,5,12
256,136,68102,5,4
256,248,68472,5,12
296,192,68843,1,8
224,192,69028,5,0
224,192,69120,1,0
224,192,69213,1,0
296,192,69398,5,8
296,192,69769,1,8
224,192,69861,5,0
296,192,69954,5,8
224,192,70139,5,0
256,136,70324,1,4
256,248,70694,5,12
256,136,71065,5,4
256,248,71435,5,12
216,192,71806,5,0
216,192,71898,1,0
296,192,71991,5,8
216,192,72176,5,0
296,192,72361,5,8
296,192,72732,1,8
216,192,73102,5,0
216,192,73194,1,0
216,192,73287,1,0
296,192,73657,5,8
296,192,73843,1,8
296,192,73935,1,8
216,192,74028,5,0
216,192,74213,1,0
296,192,74398,5,8
296,192,74769,1,8
296,192,74861,1,8
296,192,74954,1,8
296,192,75139,1,8
216,192,75324,5,0
296,192,75694,5,8
216,192,75787,5,0
296,192,75880,5,8
296,192,76065,1,8
296,192,76157,1,8
216,192,76250,5,0
216,192,76528,1,0
216,192,76806,5,8
296,192,76991,5,0
216,192,77269,1,0
216,192,77546,5,8
256,256,77732,1,12
256,256,78102,1,12
296,192,78472,1,8
296,192,78657,1,8
296,192,78750,1,8
216,192,78843,5,0
296,192,79028,5,8
256,192,79213,12,0,80324
208,192,80695,5,0
256,128,80880,1,4
312,192,81250,5,8
256,128,81435,5,4
208,192,81806,1,0
256,256,81991,5,12
256,192,82176,12,0,83657
