osu file format v9

[General]
AudioFilename: don kat.mp3
AudioLeadIn: 1500
PreviewTime: 55344
Countdown: 0
SampleSet: Normal
StackLeniency: 0.7
Mode: 0
LetterboxInBreaks: 1
SkinPreference:taiko

[Editor]
DistanceSpacing: 1.08
BeatDivisor: 4
GridSize: 8

[Metadata]
Title:Dragon Soul (TV Size)
Artist:Tanimoto Takayoshi
Creator:arien666
Version:Oni
Source:Dragon Ball Kai
Tags:arken1015 taiko taikosu Krisom

[Difficulty]
HPDrainRate:7
CircleSize:4
OverallDifficulty:7
ApproachRate:8
SliderMultiplier:1.44
SliderTickRate:1

[Events]
//Background and Video events
Video,340,"donkat.avi"
0,0,"dragon hollow.jpg"
//Break Periods
//Storyboard Layer 0 (Background)
//Storyboard Layer 1 (Fail)
//Storyboard Layer 2 (Pass)
//Storyboard Layer 3 (Foreground)
//Storyboard Sound Samples
//Background Colour Transformations
3,100,163,162,255

[TimingPoints]
695,370.37037037037,4,1,1,80,1,0
2176,-100,4,1,1,80,0,1
15509,-100,4,1,1,80,0,0
55509,-100,4,1,1,80,0,1
83565,-100,4,1,1,0,0,1
83657,-100,4,1,1,0,0,0

[Colours]
Combo1 : 112,196,193
Combo2 : 243,89,34

[HitObjects]
40,192,2176,1,4
184,192,2546,1,6
112,64,2917,1,4
256,64,3287,1,6
400,64,3657,1,0
452,116,3843,1,0
452,189,4028,1,2
400,240,4213,1,0
256,240,4583,2,0,B|160:240,1,72,0|2
48,192,5139,6,0,B|136:192,1,72
85,127,5509,2,8,B|165:127,1,72
192,64,5880,2,0,B|280:64,1,72
229,129,6250,2,8,B|309:129,1,72
376,128,6620,1,0
448,128,6806,1,0
413,192,6991,1,2
378,256,7176,1,0
256,328,7546,1,0
256,256,7732,2,8,B|256:208,2,36
192,292,8102,5,0
192,292,8472,1,2
80,192,8843,1,0
136,144,9028,1,0
192,96,9213,1,2
304,192,9583,2,0,B|360:192,2,36
256,248,9954,2,0,B|256:304|184:304,1,72,2|0
69,300,10509,2,8,B|22:300|22:251,1,72
32,120,11065,6,0,B|80:120,1,36
144,120,11343,2,0,B|184:120,1,36
256,120,11620,1,2
256,192,11806,2,0,B|208:192,1,36
144,192,12083,2,0,B|104:192,1,36
32,192,12361,1,2
32,264,12546,1,4
144,360,12917,1,4
256,264,13287,1,6
256,192,13657,12,0,15139
328,316,15509,5,0
184,316,15695,1,0
112,192,15880,1,0
256,208,16065,1,2
32,32,16435,1,6
48,192,16991,6,0,B|112:128,1,72
152,192,17361,2,2,B|216:256,1,72
256,192,17732,2,0,B|320:128,1,72
360,88,18102,1,2
464,192,18472,2,0,B|400:128,1,72
360,192,18843,2,2,B|296:256,1,72
256,296,19213,1,0
184,296,19398,2,2,B|136:296,2,36
48,192,19954,6,0,B|112:256,1,72
152,192,20324,2,2,B|216:128,1,72
256,192,20694,2,0,B|320:256,1,72
360,192,21065,2,2,B|424:128,1,72
464,88,21435,2,0,B|400:24,1,72
336,40,21806,2,2,B|264:40,1,72
216,96,22176,1,0
256,162,22361,2,2,B|216:202,2,36
464,192,22917,6,0,B|400:256,1,72
360,192,23287,2,2,B|296:128,1,72
256,192,23657,2,0,B|192:256,1,72
152,296,24028,1,2
48,192,24398,2,0,B|112:256,1,72
152,192,24769,2,2,B|216:128,1,72
256,88,25139,1,0
328,88,25324,2,2,B|376:88,2,36
464,192,25880,6,0,B|400:128,1,72
360,192,26250,2,2,B|296:256,1,72
256,192,26620,2,0,B|192:128,1,72
152,88,26991,1,2
100,36,27176,2,0,B|32:104|-12:192|32:280|104:352|200:352,1,432,0|4
456,192,28843,5,0
376,192,29028,1,0
336,256,29213,1,2
416,256,29398,1,2
376,320,29583,1,0
296,320,29769,1,0
216,320,29954,1,2
120,192,30324,5,0
40,192,30509,1,0
0,128,30694,1,2
80,128,30880,1,2
40,64,31065,1,0
117,64,31250,2,8,B|117:27,2,36
256,160,31806,5,0
256,80,31991,1,0
320,40,32176,1,2
320,120,32361,1,2
384,160,32546,1,0
384,80,32732,1,0
448,120,32917,1,2
448,200,33102,1,2
448,280,33287,2,0,B|488:280,2,36
384,320,33657,2,2,B|384:360,2,36
384,240,34028,1,0
320,200,34213,2,2,B|264:200,2,36
64,192,34769,5,0
90,119,34954,1,0
129,52,35139,1,2
191,5,35324,1,2
206,81,35509,1,0
256,140,35694,1,0
314,192,35880,1,2
469,192,36250,5,0
465,269,36435,1,0
433,339,36620,1,2
363,374,36806,1,2
292,340,36991,1,0
256,270,37176,1,2
256,192,37361,1,2
104,192,37732,5,0
104,114,37917,1,0
26,114,38102,1,2
26,36,38287,1,0
103,36,38472,1,0
180,36,38657,1,0
219,36,38750,1,0
258,36,38843,1,2
335,36,39028,1,0
412,36,39213,2,0,B|512:112|512:224,2,216,0|2|4
256,192,40694,5,0
256,192,40880,1,2
256,192,41065,1,0
216,40,41435,1,2
296,40,41620,1,2
256,192,41991,2,0,B|256:256,2,36
256,344,42546,1,2
256,192,42917,1,0
256,112,43102,2,2,B|256:64,2,36
296,261,43657,5,0
216,261,43843,1,2
256,192,44028,1,0
408,152,44398,1,2
408,232,44583,1,2
256,192,44954,2,0,B|304:192,2,36
100,192,45509,2,2,B|60:192,2,36
178,192,45880,1,2
256,192,46065,1,0
488,192,46620,5,0
424,152,46806,1,2
424,232,46991,1,0
288,152,47361,1,2
288,232,47546,1,2
187,113,47917,2,0,B|143:94,2,36
144,264,48472,2,2,B|94:281,2,36
104,192,48843,1,0
24,192,49028,1,2
256,192,49583,6,0,B|216:192,2,36
336,192,49954,2,0,B|336:232,2,36
296,128,50324,1,0
296,48,50509,2,2,B|296:0,2,36
176,192,51065,6,0,B|136:192,2,36
256,192,51435,2,0,B|256:152,2,36
216,256,51806,1,0
216,336,51991,2,2,B|216:384,2,36
216,256,52361,1,0
256,104,52732,5,0
256,104,52917,1,2
256,280,53287,1,2
256,280,53472,1,2
408,192,53843,1,0
232,192,54213,1,2
232,192,54398,1,2
232,192,54583,1,2
0,72,55139,1,6
256,72,55509,5,4
376,192,55880,1,6
256,312,56250,1,4
136,192,56620,1,6
256,72,56991,2,4,B|368:72|424:200,2,216,4|6|4
256,72,58472,5,0
194,129,58657,1,0
136,192,58843,1,2
193,254,59028,1,2
256,312,59213,1,0
318,255,59398,1,0
376,192,59583,1,2
319,130,59769,1,2
256,72,59954,2,0,B|144:72|88:200,2,216,0|2|4
91,191,61435,6,0,B|48:192,2,36
168,192,61806,1,2
219,133,61991,2,0,B|299:133,1,72
368,133,62361,2,0,B|387:133|399:148,2,36,2|0|2
448,264,62917,6,0,B|493:269,2,36
368,256,63287,1,2
293,251,63472,2,0,B|213:251,1,72
144,251,63843,2,0,B|125:251|113:236,2,36,2|0|2
0,192,64398,6,0,B|0:232,1,36
72,192,64676,2,0,B|72:232,1,36
144,192,64954,1,2
219,192,65139,2,0,B|219:152,1,36
291,192,65417,2,0,B|291:152,1,36
363,192,65694,1,2
256,192,65880,12,6,66991
256,344,67361,5,4
104,192,67732,1,6
256,40,68102,1,4
408,192,68472,1,6
256,344,68843,2,4,B|104:344|104:224,2,216,0|2|0
256,192,70324,5,0
176,192,70509,1,0
216,128,70694,1,2
296,128,70880,1,0
256,192,71065,1,0
216,256,71250,1,0
296,256,71435,1,2
256,192,71620,1,0
216,128,71806,2,0,B|184:80|8:80,2,216,0|2|0
360,192,73287,5,0
320,192,73380,1,0
280,192,73472,1,0
256,120,73657,1,2
176,120,73843,1,0
216,192,74028,1,0
216,232,74120,1,0
216,272,74213,1,0
256,336,74398,1,2
336,336,74583,1,0
416,336,74769,6,0,B|432:336|448:312,2,36
336,336,75139,1,2
256,336,75324,1,0
256,192,75694,1,2
256,192,75880,1,2
256,32,76250,5,0
256,32,76343,1,0
256,112,76528,1,0
256,112,76620,1,0
256,192,76806,1,2
256,352,76991,5,0
256,352,77083,1,0
256,272,77269,1,0
256,272,77361,1,0
256,192,77546,1,2
176,192,77732,5,0
24,192,78102,1,6
176,192,78472,1,0
336,192,78843,2,0,B|480:192|480:48,2,216,0|2|0
256,192,80880,5,0
256,192,80972,1,0
256,192,81065,1,0
176,192,81250,1,2
216,128,81435,1,0
256,64,81620,1,0
256,64,81713,1,0
256,64,81806,1,2
256,192,81991,12,0,83657
