osu file format v9

[General]
AudioFilename: don kat.mp3
AudioLeadIn: 1500
PreviewTime: 55344
Countdown: 0
SampleSet: Normal
StackLeniency: 0.7
Mode: 0
LetterboxInBreaks: 1
SkinPreference:taiko

[Editor]
DistanceSpacing: 0.78
BeatDivisor: 4
GridSize: 8

[Metadata]
Title:Dragon Soul (TV Size)
Artist:Tanimoto Takayoshi
Creator:arien666
Version:Muzukashii
Source:Dragon Ball Kai
Tags:arken1015 taiko taikosu Krisom

[Difficulty]
HPDrainRate:5
CircleSize:4
OverallDifficulty:5
ApproachRate:5
SliderMultiplier:1.44
SliderTickRate:1

[Events]
//Background and Video events
Video,340,"donkat.avi"
0,0,"dragon hollow.jpg"
//Break Periods
//Storyboard Layer 0 (Background)
//Storyboard Layer 1 (Fail)
//Storyboard Layer 2 (Pass)
//Storyboard Layer 3 (Foreground)
//Storyboard Sound Samples
//Background Colour Transformations
3,100,163,162,255

[TimingPoints]
695,370.37037037037,4,1,1,80,1,0
2176,-100,4,1,1,80,0,1
15509,-100,4,1,1,80,0,0
55509,-100,4,1,1,80,0,1
83565,-100,4,1,1,0,0,1
83657,-100,4,1,1,0,0,0

[Colours]
Combo1 : 112,196,193
Combo2 : 243,89,34

[HitObjects]
32,192,2176,1,4
144,192,2546,1,6
88,96,2917,1,4
200,96,3287,1,6
256,192,3657,1,0
368,192,4028,2,0,B|400:192|424:232,1,72,2|0
456,336,4583,1,0
480,192,5139,5,4
368,192,5509,1,6
424,96,5880,1,4
312,96,6250,1,6
256,192,6620,1,0
152,192,6991,2,0,B|120:192|96:232,1,72,2|0
56,336,7546,1,0
256,336,8102,5,0
256,224,8472,1,2
352,280,8843,2,0,B|416:280|416:232,1,72
412,192,9213,1,2
352,96,9583,1,0
256,160,9954,2,0,B|256:90|194:90,1,72,2|0
116,98,10509,2,2,B|36:98,1,72
112,192,11065,6,0,B|112:256|168:288,2,108,0|0|2
112,136,11806,2,0,B|112:72|56:40,2,108,0|0|2
160,168,12546,1,4
256,224,12917,1,4
352,168,13287,1,6
256,192,13657,12,2,15509
40,192,16991,5,0
40,192,17361,1,2
256,128,18102,1,2
256,16,18472,1,0
352,72,18843,1,2
472,192,19398,2,2,B|376:192,1,72
288,192,19954,5,0
224,288,20324,1,2
160,192,20694,2,0,B|120:192|96:152,1,72
72,112,21065,2,0,B|48:80|48:32,1,72,2|0
256,136,21991,1,2
256,248,22361,2,2,B|256:320,1,72
344,248,22917,5,0
344,136,23287,1,2
128,192,24028,1,2
224,136,24398,1,0
224,248,24769,1,2
384,192,25324,2,2,B|296:192,1,72
200,192,25880,5,0
88,192,26250,1,2
144,96,26620,2,0,B|144:144|208:120,2,72,0|0|2
144,40,27176,2,0,B|144:8|352:8|392:8|392:208,1,360,0|0
256,360,28843,5,0
256,360,29213,1,2
56,256,29954,1,2
152,192,30324,1,0
56,136,30694,1,2
216,192,31250,2,2,B|304:192,1,72
400,192,31806,5,0
320,112,32176,2,0,B|256:112|256:80,1,72,2|0
144,88,32732,2,0,B|144:48|80:48,2,72,0|2|0
344,192,33843,1,2
256,120,34213,2,2,B|256:200,1,72
144,192,34769,5,0
256,192,35139,1,2
480,192,35880,1,2
368,192,36250,1,0
256,192,36620,1,2
88,160,37176,2,2,B|136:160|154:202,1,72
256,192,37732,5,0
368,192,38102,2,0,B|312:248,1,72,2|0
204,242,38657,2,0,B|140:178,1,72,0|2
256,136,39213,1,4
32,192,40694,6,4,B|104:192,2,72
144,192,41435,2,2,B|216:192,1,72
328,192,41991,1,0
440,64,42546,1,2
328,64,42917,2,0,B|248:64,1,72,0|2
480,192,43657,6,4,B|408:192,2,72
368,192,44398,2,2,B|296:192,1,72
184,192,44954,1,0
72,320,45509,1,2
184,320,45880,2,0,B|264:320,1,72,2|0
256,152,46620,6,4,B|256:72,2,72
256,264,47361,1,2
256,264,47546,1,2
256,152,47917,1,0
416,192,48472,1,2
304,192,48843,2,0,B|272:224|216:224,1,72,0|2
72,192,49583,5,0
184,192,49954,1,0
128,96,50324,1,0
184,96,50509,2,2,B|264:96,1,72
320,192,51065,1,0
432,192,51435,1,2
376,288,51806,2,0,B|376:328|320:328,3,72,0|0|2|0
256,136,52732,5,4
256,136,52917,1,4
256,248,53287,1,6
256,248,53472,1,6
160,192,53843,1,4
48,192,54213,2,12,B|0:192|0:248,2,72
216,192,55139,1,6
256,88,55509,6,4,B|408:88,1,144,4|6
256,296,56250,2,4,B|104:296,1,144,4|6
256,88,56991,2,4,B|336:105|336:192,3,144
256,296,58472,6,4,B|104:296,1,144,4|6
256,88,59213,2,4,B|408:88,1,144,4|6
256,296,59954,2,4,B|176:279|176:192,3,144,4|6|4|6
256,112,61435,5,0
256,112,61806,1,2
176,192,62176,1,0
120,192,62361,2,2,B|80:192|48:144,1,72
59,46,62917,1,0
168,48,63287,2,0,B|224:104,1,72,2|0
331,98,63843,2,2,B|419:98,1,72
328,192,64398,6,0,B|328:256|384:288,2,108,0|0|2
296,144,65139,2,0,B|232:143|205:192,2,108,0|0|2
256,192,65880,12,2,66991
256,192,67361,5,4
352,136,67732,1,6
448,192,68102,1,4
352,248,68472,1,6
256,304,68843,2,4,B|142:303|81:186,2,216,4|6|4
256,192,70324,5,4
256,80,70694,1,6
160,136,71065,1,4
160,248,71435,1,6
256,304,71806,2,4,B|370:303|431:186,2,216,4|6|4
256,192,73287,5,0
144,192,73657,1,2
184,88,74028,2,0,B|256:88,1,72
312,88,74398,1,2
368,88,74583,2,0,B|424:144,1,72
419,251,75139,1,2
419,251,75324,1,0
306,251,75694,2,2,B|265:251|256:204,1,72
256,96,76250,5,0
299,23,76528,1,2
214,23,76806,1,2
157,23,76991,1,0
72,23,77269,1,2
113,96,77546,1,2
113,96,77732,1,0
184,192,78102,1,6
256,280,78472,1,0
368,280,78843,2,0,B|496:280|496:48,2,288,2|2|0
256,152,80880,5,4
256,264,81250,1,4
256,264,81435,1,4
256,192,81991,12,0,83657
