osu file format v12

[General]
AudioFilename: ichibanboshi.mp3
AudioLeadIn: 1500
PreviewTime: 47910
Countdown: 0
SampleSet: Soft
StackLeniency: 0.7
Mode: 0
LetterboxInBreaks: 0
WidescreenStoryboard: 1

[Editor]
DistanceSpacing: 1.4
BeatDivisor: 4
GridSize: 8
TimelineZoom: 3.299999

[Metadata]
Title:Ichiban Boshi (TV Size)
TitleUnicode:いちばん星 (TV Size)
Artist:Taneda Risa, Suzaki Aya, Ichimichi Mao, Tadokoro Azusa
ArtistUnicode:種田梨沙, 洲崎綾, M・A・O, 田所あずさ
Creator:ZZHBOY
Version:Insane
Source:極黒のブリュンヒルデ
Tags:Gokukoku No Brynhildr zinsser NaxelCL victorica_db
BeatmapID:424201
BeatmapSetID:176066

[Difficulty]
HPDrainRate:7
CircleSize:4
OverallDifficulty:7
ApproachRate:8
SliderMultiplier:1.8
SliderTickRate:1

[Events]
//Background and Video events
0,0,"bg.png",0,0
Video,-180,"video.avi"
//Break Periods
//Storyboard Layer 0 (Background)
//Storyboard Layer 1 (Fail)
//Storyboard Layer 2 (Pass)
//Storyboard Layer 3 (Foreground)
//Storyboard Sound Samples
//Background Colour Transformations
3,100,163,162,255

[TimingPoints]
314,576.923076923077,4,2,1,40,1,0
314,-133.333333333333,4,2,1,50,0,0
4352,-83.3333333333333,4,2,1,50,0,0
4929,-100,4,2,1,50,0,0
18775,-100,4,2,1,50,0,0
47910,-100,4,2,1,55,0,0
48198,-100,4,2,1,60,0,0
48487,-100,4,2,1,65,0,0
48775,-80,4,2,1,70,0,1
66660,-83.3333333333333,4,2,1,60,0,0
67237,-83.3333333333333,4,2,1,70,0,1
85698,-100,4,2,1,60,0,0
88006,-100,4,2,1,5,0,0

[Colours]
Combo1 : 237,207,121
Combo2 : 0,69,251
Combo3 : 234,237,170
Combo4 : 215,179,225
SliderBorder : 50,50,150
SliderTrackOverride : 45,60,76

[HitObjects]
87,120,314,6,0,P|150:96|215:109,1,135.000005149842,2|2,0:0|0:0,0:0:0:0:
296,180,1179,1,0,0:0:0:0:
156,263,1467,2,0,L|191:206,1,67.5000025749208,2|0,0:0|0:0,0:0:0:0:
327,120,2044,2,0,L|296:180,1,67.5000025749208,2|4,0:0|0:0,0:0:0:0:
408,321,2910,5,0,0:0:0:0:
209,237,3198,1,2,0:0:0:0:
303,293,3487,1,0,0:0:0:0:
153,144,3775,1,0,0:0:0:0:
145,159,3919,1,0,0:0:0:0:
135,173,4063,1,0,0:0:0:0:
18,301,4352,2,0,B|41:262|41:262|34:224|34:224|41:184,1,107.999996704102,2|0,0:0|0:0,0:0:0:0:
0,25,4929,6,0,P|48:56|99:62,1,90,4|0,0:0|0:0,0:0:0:0:
224,64,5506,1,2,0:0:0:0:
172,178,5794,1,0,0:0:0:0:
329,167,6083,2,0,P|379:160|427:139,1,90,0|0,0:0|0:0,0:0:0:0:
240,24,6660,2,0,L|247:94,1,45,2|0,0:0|0:0,0:0:0:0:
248,104,6948,1,4,0:0:0:0:
199,281,7525,5,0,0:0:0:0:
160,82,7813,1,0,0:0:0:0:
74,266,8102,1,0,0:0:0:0:
252,168,8390,1,0,0:0:0:0:
51,143,8679,1,0,0:0:0:0:
73,157,8823,1,0,0:0:0:0:
97,168,8967,1,2,0:0:0:0:
122,176,9112,1,0,0:0:0:0:
148,180,9256,1,2,0:0:0:0:
385,176,9544,6,0,P|315:190|277:233,1,90,12|0,0:0|0:0,0:0:0:0:
323,89,10121,1,2,0:0:0:0:
369,273,10410,1,0,0:0:0:0:
369,273,10554,1,0,0:0:0:0:
369,273,10698,6,0,P|320:293|264:285,1,90,8|0,0:0|0:0,0:0:0:0:
249,262,11131,2,0,P|221:268|182:285,1,45,0|2,0:0|0:0,0:0:0:0:
100,70,11564,1,0,0:0:0:0:
113,93,11708,1,0,0:0:0:0:
123,118,11852,6,0,L|83:221,1,90,12|0,0:0|0:0,0:0:0:0:
198,174,12429,2,0,P|253:180|304:160,1,90,2|0,0:0|0:0,0:0:0:0:
305,159,12862,1,0,0:0:0:0:
318,141,13006,2,0,L|315:68,1,45,8|0,0:0|0:0,0:0:0:0:
403,116,13294,2,0,L|476:113,1,45,0|0,0:0|0:0,0:0:0:0:
430,202,13583,2,0,L|433:275,1,45,2|0,0:0|0:0,0:0:0:0:
343,229,13871,2,0,L|265:230,1,45,0|0,0:0|0:0,0:0:0:0:
346,259,14160,6,0,P|244:262|154:292,1,180,12|2,0:0|0:0,0:0:0:0:
63,327,15025,1,0,0:0:0:0:
63,327,15169,1,0,0:0:0:0:
63,327,15314,2,0,P|77:255|58:215,1,90,8|0,0:0|0:0,0:0:0:0:
10,40,15890,1,2,0:0:0:0:
67,133,16179,1,0,0:0:0:0:
192,268,16467,6,0,P|176:210|138:179,1,90,12|0,0:0|0:0,0:0:0:0:
168,350,17044,2,0,P|223:348|271:308,1,90,2|0,0:0|0:0,0:0:0:0:
188,63,17621,1,8,0:0:0:0:
212,82,17765,1,0,0:0:0:0:
234,104,17910,1,0,0:0:0:0:
255,126,18054,1,0,0:0:0:0:
276,148,18198,2,0,L|261:209,1,45,2|0,0:0|0:0,0:0:0:0:
349,231,18487,2,0,L|401:223,1,45,0|0,0:0|0:0,0:0:0:0:
312,316,18775,6,0,P|262:316|193:348,1,90,12|0,0:0|0:0,0:0:0:0:
162,53,19352,1,2,0:0:0:0:
287,123,19640,1,0,0:0:0:0:
287,123,19785,1,0,0:0:0:0:
287,123,19929,2,0,P|243:178|202:191,1,90,8|0,0:0|0:0,0:0:0:0:
191,175,20362,2,0,L|157:233,1,45,0|2,0:0|0:0,0:0:0:0:
162,53,20794,1,0,0:0:0:0:
125,51,20939,1,0,0:0:0:0:
89,50,21083,6,0,L|23:124,1,90,12|2,0:0|0:0,0:0:0:0:
101,320,21660,2,0,P|108:260|90:204,1,90,8|2,0:0|0:0,0:0:0:0:
82,201,22092,1,0,0:0:0:0:
71,166,22237,1,8,0:0:0:0:
78,130,22381,1,0,0:0:0:0:
98,100,22525,1,2,0:0:0:0:
366,144,22814,2,0,L|239:153,1,90,8|0,0:0|0:0,0:0:0:0:
98,100,23390,5,12,0:0:0:0:
115,131,23535,1,0,0:0:0:0:
131,163,23679,1,0,0:0:0:0:
385,166,23967,2,0,L|258:175,1,90,2|0,0:0|0:0,0:0:0:0:
100,132,24544,1,0,1:0:0:0:
386,165,24833,1,0,0:0:0:0:
100,132,25121,1,8,0:0:0:0:
256,71,25410,1,2,0:0:0:0:
254,106,25554,1,0,0:0:0:0:
249,141,25698,6,0,B|243:188|243:188|245:248,1,90,12|0,0:0|0:0,0:0:0:0:
450,300,26275,2,0,P|401:251|350:239,1,90,2|0,0:0|0:0,0:0:0:0:
159,115,26852,1,8,0:0:0:0:
326,287,27140,1,2,0:0:0:0:
216,225,27429,1,2,0:0:0:0:
451,300,27717,1,0,0:0:0:0:
216,225,28006,5,12,0:0:0:0:
407,105,28294,1,0,0:0:0:0:
375,122,28439,1,0,0:0:0:0:
339,128,28583,1,2,0:0:0:0:
197,53,28871,1,0,0:0:0:0:
187,87,29015,1,0,0:0:0:0:
185,123,29160,2,0,P|186:188|173:228,1,90,8|0,0:0|0:0,0:0:0:0:
24,269,29737,2,0,P|89:251|146:264,1,90,2|0,0:0|0:0,0:0:0:0:
346,328,30314,5,12,0:0:0:0:
112,252,30602,1,2,0:0:0:0:
220,319,30890,1,0,0:0:0:0:
317,167,31179,1,0,0:0:0:0:
323,208,31323,1,0,0:0:0:0:
332,248,31468,1,8,0:0:0:0:
338,288,31612,1,0,0:0:0:0:
345,328,31756,1,0,0:0:0:0:
452,201,32044,1,2,0:0:0:0:
420,78,32333,1,0,0:0:0:0:
345,328,32621,6,0,B|293:330|293:330|250:286,1,90,12|0,0:0|0:0,0:0:0:0:
250,281,33054,1,0,0:0:0:0:
234,259,33198,1,2,0:0:0:0:
117,64,33487,1,0,0:0:0:0:
96,81,33631,1,0,0:0:0:0:
76,99,33775,2,0,L|66:205,1,90,8|0,0:0|0:0,0:0:0:0:
42,324,34352,2,0,P|103:282|151:282,1,90,2|0,0:0|0:0,0:0:0:0:
323,266,34929,5,12,0:0:0:0:
222,304,35217,1,0,0:0:0:0:
387,178,35506,2,0,P|425:232|428:281,1,90,2|0,0:0|0:0,0:0:0:0:
387,71,36083,6,0,P|353:101|306:113,1,90,8|0,0:0|0:0,0:0:0:0:
138,46,36660,1,2,0:0:0:0:
150,69,36804,1,0,0:0:0:0:
160,93,36948,1,0,0:0:0:0:
267,274,37237,6,0,P|219:280|169:256,1,90,12|0,0:0|0:0,0:0:0:0:
351,184,37814,2,0,P|380:222|384:277,1,90,2|0,0:0|0:0,0:0:0:0:
236,151,38390,2,0,P|254:106|300:75,1,90,8|0,0:0|0:0,0:0:0:0:
403,119,38967,1,2,0:0:0:0:
236,151,39256,1,0,0:0:0:0:
403,119,39544,6,0,P|396:192|363:222,1,90,12|0,0:0|0:0,0:0:0:0:
273,326,40121,2,0,P|280:253|313:223,1,90,2|0,0:0|0:0,0:0:0:0:
152,260,40698,1,8,0:0:0:0:
126,267,40842,1,0,0:0:0:0:
100,276,40987,1,0,0:0:0:0:
239,170,41275,1,2,0:0:0:0:
101,275,41564,1,0,0:0:0:0:
273,326,41852,6,0,P|333:290|384:300,1,90,12|0,0:0|0:0,0:0:0:0:
382,307,42285,1,0,0:0:0:0:
390,341,42429,2,0,L|475:248,1,90,2|0,0:0|0:0,0:0:0:0:
434,71,43006,1,8,0:0:0:0:
478,170,43294,1,0,0:0:0:0:
330,39,43583,2,0,P|257:58|217:53,1,90,2|0,0:0|0:0,0:0:0:0:
68,26,44160,5,12,0:0:0:0:
245,57,44448,1,0,0:0:0:0:
128,194,44737,1,2,0:0:0:0:
68,26,45025,1,0,0:0:0:0:
89,42,45169,1,0,0:0:0:0:
110,58,45314,2,0,L|119:151,1,90,8|0,0:0|0:0,0:0:0:0:
283,217,45890,1,2,0:0:0:0:
258,228,46035,1,0,0:0:0:0:
233,238,46179,1,0,0:0:0:0:
349,97,46467,6,0,L|411:73,1,45,12|0,0:0|0:0,0:0:0:0:
398,161,46756,2,0,L|387:226,1,45,0|0,0:0|0:0,0:0:0:0:
315,175,47044,2,0,L|263:133,1,45,2|0,0:0|0:0,0:0:0:0:
248,119,47333,1,0,0:0:0:0:
424,72,47621,6,0,L|440:107,3,22.5
412,140,47909,2,0,L|422:170,3,22.5
401,207,48198,2,0,L|412:235,3,22.5
389,271,48487,5,0,0:0:0:0:
396,282,48559,1,0,0:0:0:0:
403,293,48631,1,0,0:0:0:0:
410,304,48704,1,0,0:0:0:0:
415,316,48775,6,0,L|242:298,1,168.75,12|0,0:0|0:0,0:0:0:0:
228,315,49352,1,2,0:0:0:0:
278,124,49640,1,0,0:0:0:0:
269,154,49785,1,0,0:0:0:0:
259,183,49929,2,0,L|366:242,1,112.5,8|0,0:0|0:0,0:0:0:0:
172,210,50506,2,0,P|177:143|223:99,1,112.5,2|0,0:0|0:0,0:0:0:0:
246,93,50939,1,0,0:0:0:0:
278,124,51083,6,0,P|345:133|460:89,1,168.75,12|0,0:0|0:0,0:0:0:0:
473,133,51660,1,2,0:0:0:0:
433,329,51948,2,0,P|481:278|486:228,1,112.5,0|8,0:0|0:0,0:0:0:0:
349,28,52525,1,0,0:0:0:0:
335,71,52669,1,0,0:0:0:0:
326,115,52814,1,2,0:0:0:0:
328,159,52958,1,0,0:0:0:0:
341,201,53102,1,0,0:0:0:0:
361,241,53246,1,0,0:0:0:0:
389,275,53390,6,0,L|271:339,1,112.5,12|0,0:0|0:0,0:0:0:0:
246,340,53823,1,0,0:0:0:0:
207,363,53967,2,0,P|223:293|188:230,1,112.5,2|0,0:0|0:0,0:0:0:0:
34,78,54544,1,8,0:0:0:0:
85,204,54833,1,0,0:0:0:0:
338,136,55121,1,2,0:0:0:0:
203,139,55410,1,0,0:0:0:0:
179,163,55554,1,0,0:0:0:0:
158,190,55698,6,0,L|240:283,1,112.5,12|0,0:0|0:0,0:0:0:0:
226,307,56131,1,0,0:0:0:0:
219,339,56275,1,2,0:0:0:0:
310,207,56564,1,0,0:0:0:0:
339,198,56708,1,0,0:0:0:0:
371,190,56852,2,0,L|301:87,1,112.5,8|0,0:0|0:0,0:0:0:0:
511,232,57429,1,2,0:0:0:0:
483,252,57573,1,0,0:0:0:0:
450,261,57717,1,0,0:0:0:0:
416,261,57862,1,0,0:0:0:0:
384,249,58006,6,0,P|316:260|274:297,1,112.5,12|0,0:0|0:0,0:0:0:0:
262,312,58439,1,0,0:0:0:0:
267,345,58583,1,2,0:0:0:0:
134,135,58871,1,0,0:0:0:0:
128,168,59015,1,0,0:0:0:0:
123,201,59160,2,0,L|221:144,1,112.5,8|0,0:0|0:0,0:0:0:0:
313,29,59737,2,0,P|314:102|351:146,1,112.5,2|0,0:0|0:0,0:0:0:0:
366,144,60169,1,0,0:0:0:0:
399,142,60314,6,0,L|353:249,1,112.5,12|0,0:0|0:0,0:0:0:0:
164,153,60890,1,2,0:0:0:0:
280,210,61179,1,0,0:0:0:0:
254,231,61323,1,0,0:0:0:0:
228,253,61467,1,8,0:0:0:0:
457,193,61756,1,0,0:0:0:0:
433,217,61900,1,0,0:0:0:0:
408,240,62044,1,2,0:0:0:0:
410,47,62333,1,0,0:0:0:0:
386,70,62477,1,0,0:0:0:0:
361,93,62621,5,12,0:0:0:0:
190,264,62910,2,0,P|232:310|313:313,1,112.5,0|2,0:0|0:0,0:0:0:0:
182,152,63487,2,0,P|112:183|84:232,1,112.5,0|8,0:0|0:0,0:0:0:0:
300,205,64064,1,0,0:0:0:0:
328,170,64208,1,0,0:0:0:0:
340,126,64352,1,2,0:0:0:0:
190,264,64640,1,0,0:0:0:0:
228,287,64785,1,0,0:0:0:0:
272,294,64929,2,0,P|346:282|403:306,1,112.5,12|0,0:0|0:0,0:0:0:0:
419,316,65362,1,0,0:0:0:0:
440,355,65506,6,0,L|452:238,1,112.5,2|0,0:0|0:0,0:0:0:0:
480,26,66083,1,8,0:0:0:0:
384,151,66371,1,0,0:0:0:0:
255,231,66660,1,2,0:0:0:0:
109,271,66948,1,2,0:0:0:0:
124,33,67237,6,0,P|172:89|167:153,1,107.999996704102,12|0,0:0|0:0,0:0:0:0:
165,162,67669,1,0,0:0:0:0:
129,186,67814,2,0,L|227:278,1,107.999996704102,2|0,0:0|0:0,0:0:0:0:
390,74,68390,1,8,0:0:0:0:
392,117,68535,1,0,0:0:0:0:
393,160,68679,1,0,0:0:0:0:
395,203,68823,1,0,0:0:0:0:
393,246,68967,2,0,L|315:341,1,107.999996704102,2|0,0:0|0:0,0:0:0:0:
112,317,69544,6,0,L|180:233,1,107.999996704102,12|0,0:0|0:0,0:0:0:0:
216,208,69977,1,0,0:0:0:0:
258,202,70121,1,2,0:0:0:0:
424,313,70410,1,0,0:0:0:0:
341,261,70698,2,0,P|361:204|350:151,1,107.999996704102,8|0,0:0|0:0,0:0:0:0:
177,69,71275,2,0,P|256:89|314:84,1,107.999996704102,2|0,0:0|0:0,0:0:0:0:
323,76,71708,1,0,0:0:0:0:
347,40,71852,6,0,L|481:144,1,161.999995056153,12|0,0:0|0:0,0:0:0:0:
478,180,72429,1,2,0:0:0:0:
370,269,72717,1,0,0:0:0:0:
370,171,73006,2,0,L|478:180,1,107.999996704102,8|0,0:0|0:0,0:0:0:0:
370,269,73583,1,2,0:0:0:0:
192,72,73871,1,0,0:0:0:0:
214,109,74015,1,0,0:0:0:0:
226,150,74160,6,0,P|219:225|194:269,1,107.999996704102,12|0,0:0|0:0,0:0:0:0:
6,340,74737,1,2,0:0:0:0:
46,324,74881,1,0,0:0:0:0:
88,318,75025,1,0,0:0:0:0:
130,322,75169,1,0,0:0:0:0:
170,337,75314,2,0,P|236:337|310:313,1,107.999996704102,8|0,0:0|0:0,0:0:0:0:
330,163,75890,1,2,0:0:0:0:
365,266,76179,1,0,0:0:0:0:
339,51,76467,6,0,L|212:105,1,107.999996704102,12|0,0:0|0:0,0:0:0:0:
207,95,76900,1,0,0:0:0:0:
176,84,77044,1,0,0:0:0:0:
23,278,77333,1,0,0:0:0:0:
23,278,77621,1,8,0:0:0:0:
66,278,77765,1,0,0:0:0:0:
109,278,77910,1,0,0:0:0:0:
152,278,78054,1,0,0:0:0:0:
181,309,78198,1,2,0:0:0:0:
224,309,78342,1,0,0:0:0:0:
267,306,78487,1,0,0:0:0:0:
310,306,78631,1,0,0:0:0:0:
350,320,78775,6,0,P|373:238|417:192,1,107.999996704102,12|0,0:0|0:0,0:0:0:0:
416,189,79208,1,0,0:0:0:0:
454,169,79352,2,0,P|396:148|346:118,1,107.999996704102,2|0,0:0|0:0,0:0:0:0:
333,88,79785,2,0,P|289:145|242:157,1,107.999996704102,0|0,0:0|0:0,0:0:0:0:
213,155,80217,1,0,0:0:0:0:
169,151,80362,1,0,0:0:0:0:
129,134,80506,2,0,L|42:167,1,53.9999983520508,2|0,0:0|0:0,0:0:0:0:
146,242,80794,2,0,L|95:260,1,53.9999983520508,0|0,0:0|0:0,0:0:0:0:
146,242,81083,6,0,P|236:242|311:268,1,161.999995056153,12|0,0:0|0:0,0:0:0:0:
308,307,81660,2,0,P|358:315|403:305,1,53.9999983520508,2|0,0:0|0:0,0:0:0:0:
403,307,81948,1,0,0:0:0:0:
394,37,82237,2,0,P|381:111|405:190,1,107.999996704102,8|0,0:0|0:0,0:0:0:0:
406,180,82669,1,0,0:0:0:0:
437,209,82814,2,0,L|321:245,1,107.999996704102,2|0,0:0|0:0,0:0:0:0:
37,211,83390,5,12,0:0:0:0:
179,158,83679,1,0,0:0:0:0:
329,174,83967,1,2,0:0:0:0:
37,211,84256,1,0,0:0:0:0:
59,161,84400,1,0,0:0:0:0:
61,107,84544,1,8,0:0:0:0:
179,158,84833,1,0,0:0:0:0:
232,166,84977,1,0,0:0:0:0:
285,166,85121,1,2,0:0:0:0:
338,156,85265,1,0,0:0:0:0:
389,137,85410,1,0,0:0:0:0:
425,98,85554,6,0,L|424:186,1,53.9999983520508,0|12,0:0|0:0,0:0:0:0:
256,192,85842,12,0,88006,0:0:0:0:
