osu file format v14

[General]
AudioFilename: Shin_Sekai_Yori_-_Wareta_Ringo_TV_Size.mp3
AudioLeadIn: 0
PreviewTime: 40261
Countdown: 0
SampleSet: Soft
StackLeniency: 0.7
Mode: 2
LetterboxInBreaks: 0
WidescreenStoryboard: 0

[Editor]
Bookmarks: 8449,24449,40449,56449,72449,80449
DistanceSpacing: 1
BeatDivisor: 2
GridSize: 8
TimelineZoom: 2.3

[Metadata]
Title:Wareta Ringo (TV edit)
TitleUnicode:割れたリンゴ (TV edit)
Artist:Taneda Risa
ArtistUnicode:種田梨沙
Creator:mingmichael
Version:Salad
Source:新世界より
Tags:From the New World ShinSekai Yori Cracked Apple Watanabe Saki Original Soundtrack ending ed
BeatmapID:446500
BeatmapSetID:186692

[Difficulty]
HPDrainRate:5
CircleSize:3
OverallDifficulty:6.4
ApproachRate:6.4
SliderMultiplier:1.4
SliderTickRate:1

[Events]
//Background and Video events
0,0,"wareta ringo osu.jpg",0,0
Video,-1671,"BGV.flv"
//Break Periods
//Storyboard Layer 0 (Background)
//Storyboard Layer 1 (Fail)
//Storyboard Layer 2 (Pass)
//Storyboard Layer 3 (Foreground)
//Storyboard Sound Samples

[TimingPoints]
449,500,4,2,2,60,1,0
8449,-100,4,2,2,70,0,0
40449,-100,4,2,1,70,0,1
56324,-100,4,2,1,70,0,0
56449,-100,4,2,1,70,0,1
78449,-100,4,2,2,60,0,0

[Colours]
Combo1 : 255,183,130
Combo2 : 159,159,208
Combo3 : 9,116,223
Combo4 : 253,107,91

[HitObjects]
288,72,199,5,8,0:0:0:0:
328,72,324,1,8,0:0:0:0:
368,192,449,5,10,0:0:0:0:
256,192,699,1,0,0:0:0:0:
368,312,949,1,0,0:0:0:0:
256,312,1199,1,0,0:0:0:0:
144,192,1449,1,10,0:0:0:0:
320,72,1699,2,0,L|320:120,1,35,0|10,0:0|0:0,0:0:0:0:
256,192,2449,5,10,0:0:0:0:
144,192,2699,1,2,0:0:0:0:
256,192,2949,2,0,L|312:192,2,35,0|0|0,0:0|0:0|0:0,0:0:0:0:
144,312,3449,1,10,0:0:0:0:
320,312,3699,2,0,L|320:256,1,35,0|10,0:0|0:0,0:0:0:0:
88,72,4449,5,10,0:0:0:0:
200,72,4699,1,0,0:0:0:0:
88,192,4949,2,0,L|176:192,1,70,8|0,0:0|0:0,0:0:0:0:
256,192,5449,1,10,0:0:0:0:
80,192,5699,2,0,L|80:232,1,35,0|10,0:0|0:0,0:0:0:0:
424,72,6449,5,10,0:0:0:0:
312,72,6699,1,2,0:0:0:0:
424,192,6949,1,8,0:0:0:0:
368,192,7115,1,0,0:0:0:0:
328,192,7240,1,0,0:0:0:0:
256,192,7449,1,10,0:0:0:0:
432,192,7699,2,0,L|432:232,1,35,0|10,0:0|0:0,0:0:0:0:
128,72,8449,6,0,L|56:72,2,70,10|0|8,0:0|0:0|0:0,0:0:0:0:
256,72,9199,1,0,0:0:0:0:
304,72,9324,1,0,0:0:0:0:
256,72,9449,1,10,0:0:0:0:
104,192,9699,2,0,L|104:240,1,35,0|10,0:0|0:0,0:0:0:0:
384,312,10449,6,0,L|456:312,2,70,10|2|8,0:0|0:0|0:0,0:0:0:0:
256,312,11199,1,0,0:0:0:0:
208,312,11324,1,0,0:0:0:0:
256,312,11449,1,10,0:0:0:0:
408,192,11699,2,0,L|408:144,1,35,0|10,0:0|0:0,0:0:0:0:
200,192,12449,5,10,0:0:0:0:
312,192,12699,1,0,0:0:0:0:
200,192,12949,2,0,L|120:192,1,70,8|0,0:0|0:0,0:0:0:0:
256,72,13449,1,10,0:0:0:0:
448,192,13699,2,0,L|448:240,1,35,0|10,0:0|0:0,0:0:0:0:
312,192,14449,5,10,0:0:0:0:
200,192,14699,1,2,0:0:0:0:
312,192,14949,2,0,L|392:192,1,70,8|0,0:0|0:0,0:0:0:0:
256,72,15449,1,10,0:0:0:0:
64,192,15699,2,0,L|64:240,1,35,0|10,0:0|0:0,0:0:0:0:
160,192,16449,5,10,0:0:0:0:
256,192,16699,1,0,0:0:0:0:
352,192,16949,2,0,L|440:192,1,70,8|0,0:0|0:0,0:0:0:0:
304,312,17449,1,10,0:0:0:0:
120,192,17699,2,0,L|160:160,1,35,0|10,0:0|0:0,0:0:0:0:
184,72,17949,2,0,L|264:72,1,70
352,192,18449,5,10,0:0:0:0:
256,192,18699,1,2,0:0:0:0:
160,192,18949,2,0,L|72:192,1,70,8|0,0:0|0:0,0:0:0:0:
224,312,19449,1,10,0:0:0:0:
400,192,19699,2,0,L|360:160,1,35,0|10,0:0|0:0,0:0:0:0:
336,72,19949,2,0,L|256:72,1,70,0|0,0:0|0:0,0:0:0:0:
160,192,20449,5,10,0:0:0:0:
256,192,20699,1,0,0:0:0:0:
352,192,20949,2,0,L|432:192,2,70,8|0|10,0:0|0:0|0:0,0:0:0:0:
176,192,21699,2,0,L|176:240,1,35,0|10,0:0|0:0,0:0:0:0:
352,192,22449,5,10,0:0:0:0:
456,192,22699,1,2,0:0:0:0:
352,192,22949,1,8,0:0:0:0:
288,192,23115,1,0,0:0:0:0:
240,192,23240,1,0,0:0:0:0:
160,192,23449,1,10,0:0:0:0:
336,192,23699,2,0,L|336:240,1,35,0|10,0:0|0:0,0:0:0:0:
64,72,24449,6,0,L|184:72,1,105,10|0,0:0|0:0,0:0:0:0:
400,192,25199,2,0,L|248:192,1,140,8|0,0:0|0:0,0:0:0:0:
136,192,25949,1,8,0:0:0:0:
256,312,26199,1,2,0:0:0:0:
360,312,26449,6,0,L|488:312,1,105,10|0,0:0|0:0,0:0:0:0:
216,72,27199,2,0,L|96:152,1,140,8|0,0:0|0:0,0:0:0:0:
368,192,28199,1,2,0:0:0:0:
472,192,28449,6,0,L|472:320,1,105,10|0,0:0|0:0,0:0:0:0:
240,192,29199,2,0,L|128:96,1,140,8|0,0:0|0:0,0:0:0:0:
256,312,29949,1,8,0:0:0:0:
144,192,30199,1,2,0:0:0:0:
40,192,30449,6,0,L|9:91,1,105,10|0,0:0|0:0,0:0:0:0:
240,72,31199,2,0,L|384:72,1,140,8|0,0:0|0:0,0:0:0:0:
72,312,32449,6,0,L|208:312,1,105,10|0,0:0|0:0,0:0:0:0:
440,312,33199,2,0,L|280:312,1,140,8|0,0:0|0:0,0:0:0:0:
176,192,33949,1,8,0:0:0:0:
284,192,34199,1,2,0:0:0:0:
392,192,34449,6,0,L|488:112,1,105,10|0,0:0|0:0,0:0:0:0:
256,192,35199,2,0,L|144:288,1,140,8|0,0:0|0:0,0:0:0:0:
48,72,35949,1,8,0:0:0:0:
144,72,36199,1,0,0:0:0:0:
352,72,36449,6,0,B|424:72|424:72|352:72,1,140,10|8,0:0|0:0,0:0:0:0:
160,72,37199,2,0,B|88:72|88:72|160:72,1,140
376,192,37949,1,8,0:0:0:0:
432,192,38074,1,0,0:0:0:0:
456,192,38199,1,2,0:0:0:0:
432,192,38324,1,0,0:0:0:0:
376,192,38449,1,4,0:0:0:0:
136,192,39449,5,8,0:0:0:0:
80,192,39574,1,0,0:0:0:0:
56,192,39699,1,0,0:0:0:0:
80,192,39824,1,0,0:0:0:0:
136,192,39949,2,0,L|224:192,1,70,8|0,0:0|0:0,0:0:0:0:
432,192,40449,5,4,0:0:0:0:
304,72,40824,2,0,L|192:72,1,105
160,72,41324,1,2,0:0:0:0:
272,192,41574,2,0,L|272:248,1,35,0|2,0:0|0:0,0:0:0:0:
136,192,41949,1,8,0:0:0:0:
376,312,42449,6,0,L|304:280,1,70,2|2,0:0|0:0,0:0:0:0:
136,312,42949,2,0,L|208:280,1,70,8|0,0:0|0:0,0:0:0:0:
336,192,43449,2,0,L|336:104,1,70,0|2,0:0|0:0,0:0:0:0:
176,192,43949,2,0,L|176:104,1,70,8|0,0:0|0:0,0:0:0:0:
400,192,44449,5,2,0:0:0:0:
256,312,44824,2,0,L|384:312,1,105,0|0,0:0|0:0,0:0:0:0:
400,312,45324,1,2,0:0:0:0:
288,192,45574,2,0,L|288:136,1,35,0|2,0:0|0:0,0:0:0:0:
176,192,45949,1,8,0:0:0:0:
400,192,46449,6,0,L|400:120,1,70,2|2,0:0|0:0,0:0:0:0:
256,312,46949,2,0,L|336:256,1,70,8|0,0:0|0:0,0:0:0:0:
112,192,47449,2,0,L|112:120,1,70,0|2,0:0|0:0,0:0:0:0:
256,312,47949,2,0,L|176:256,1,70,8|0,0:0|0:0,0:0:0:0:
400,192,48449,5,4,0:0:0:0:
288,192,48824,2,0,L|176:192,1,105
136,192,49324,1,2,0:0:0:0:
256,72,49574,2,0,L|256:120,1,35,0|2,0:0|0:0,0:0:0:0:
136,72,49949,1,8,0:0:0:0:
360,72,50449,6,0,L|448:72,1,70,2|2,0:0|0:0,0:0:0:0:
256,192,50949,2,0,L|256:272,1,70,8|0,0:0|0:0,0:0:0:0:
152,72,51449,2,0,L|64:72,1,70,0|2,0:0|0:0,0:0:0:0:
256,192,51949,2,0,L|256:112,1,70,8|0,0:0|0:0,0:0:0:0:
448,192,52449,5,2,0:0:0:0:
256,312,52824,2,0,L|376:312,1,105
400,312,53324,1,2,0:0:0:0:
256,192,53574,2,0,L|256:144,1,35,0|2,0:0|0:0,0:0:0:0:
400,192,53949,1,8,0:0:0:0:
136,192,54449,6,0,L|40:192,2,70,2|2|8,0:0|0:0|0:0,0:0:0:0:
256,192,55199,1,0,0:0:0:0:
376,192,55449,2,0,L|472:192,2,70,0|2|8,0:0|0:0|0:0,0:0:0:0:
288,192,56199,1,0,0:0:0:0:
104,192,56449,5,4,0:0:0:0:
200,72,56824,2,0,L|64:72,1,105,0|0,0:0|0:0,0:0:0:0:
56,72,57324,1,2,0:0:0:0:
200,192,57574,2,0,L|256:192,1,35,0|2,0:0|0:0,0:0:0:0:
384,192,57949,1,8,0:0:0:0:
200,192,58449,6,0,L|200:112,1,70,2|2,0:0|0:0,0:0:0:0:
96,192,58949,1,8,0:0:0:0:
200,192,59199,1,0,0:0:0:0:
304,192,59449,2,0,L|304:272,1,70,0|2,0:0|0:0,0:0:0:0:
416,192,59949,1,8,0:0:0:0:
96,192,60449,5,2,0:0:0:0:
240,72,60824,2,0,L|352:72,1,105
384,72,61324,1,2,0:0:0:0:
256,192,61574,2,0,L|256:248,1,35,0|2,0:0|0:0,0:0:0:0:
152,192,61949,1,8,0:0:0:0:
344,312,62449,6,0,L|432:312,2,70,2|2|8,0:0|0:0|0:0,0:0:0:0:
168,192,63199,1,0,0:0:0:0:
288,72,63449,2,0,L|216:72,1,70,0|2,0:0|0:0,0:0:0:0:
376,192,63949,1,8,0:0:0:0:
48,192,64449,5,4,0:0:0:0:
216,72,64824,2,0,L|344:72,1,105,0|0,0:0|0:0,0:0:0:0:
360,72,65324,1,2,0:0:0:0:
256,192,65574,2,0,L|256:240,1,35,0|2,0:0|0:0,0:0:0:0:
384,192,65949,1,8,0:0:0:0:
128,192,66449,6,0,L|48:192,2,70,2|2|8,0:0|0:0|0:0,0:0:0:0:
232,192,67199,1,0,0:0:0:0:
384,192,67449,2,0,L|304:192,1,70,0|2,0:0|0:0,0:0:0:0:
424,312,67949,1,8,0:0:0:0:
128,72,68449,5,2,0:0:0:0:
256,312,68824,2,0,L|136:312,1,105
104,312,69324,1,2,0:0:0:0:
224,192,69574,2,0,L|224:128,1,35,0|2,0:0|0:0,0:0:0:0:
104,192,69949,1,8,0:0:0:0:
376,192,70449,6,0,L|472:192,2,70,2|2|8,0:0|0:0|0:0,0:0:0:0:
256,192,71199,1,0,0:0:0:0:
136,192,71449,2,0,L|40:192,2,70,0|2|8,0:0|0:0|0:0,0:0:0:0:
224,192,72199,1,0,0:0:0:0:
448,192,72449,5,4,0:0:0:0:
344,312,72824,2,0,L|224:312,1,105
200,312,73324,1,2,0:0:0:0:
56,192,73574,2,0,L|56:128,1,35,0|2,0:0|0:0,0:0:0:0:
160,192,73949,1,8,0:0:0:0:
352,192,74449,5,2,0:0:0:0:
480,312,74699,1,0,0:0:0:0:
448,312,74824,1,0,0:0:0:0:
416,312,74949,2,0,L|304:312,1,105,8|2,0:0|0:0,0:0:0:0:
160,192,75574,2,0,L|160:128,1,35,0|2,0:0|0:0,0:0:0:0:
56,192,75949,1,8,0:0:0:0:
256,192,76449,5,2,0:0:0:0:
400,72,76824,2,0,L|272:72,1,105
256,72,77324,1,2,0:0:0:0:
400,192,77574,2,0,L|400:240,1,35,0|2,0:0|0:0,0:0:0:0:
296,192,77949,1,8,0:0:0:0:
464,72,78199,1,0,0:0:0:0:
256,192,78449,12,0,79949,0:0:0:0:
232,72,80449,5,8,0:0:0:0:
104,72,80699,1,0,0:0:0:0:
248,192,80949,2,0,L|176:192,1,70
56,192,81449,1,8,0:0:0:0:
264,312,81699,2,0,L|264:256,1,35,0|8,0:0|0:0,0:0:0:0:
456,192,82449,6,0,L|456:272,1,70,8|8,0:0|0:0,0:0:0:0:
336,192,82949,1,0,0:0:0:0:
256,192,83115,1,0,0:0:0:0:
216,192,83240,1,0,0:0:0:0:
136,312,83449,1,8,0:0:0:0:
352,320,83699,2,0,L|352:272,1,35,0|8,0:0|0:0,0:0:0:0:
192,72,84449,5,8,0:0:0:0:
320,72,84699,1,0,0:0:0:0:
176,200,84949,2,0,L|248:200,1,70
368,200,85449,1,8,0:0:0:0:
160,312,85699,2,0,L|160:256,1,35,0|8,0:0|0:0,0:0:0:0:
368,312,86449,6,0,L|368:240,1,70,8|8,0:0|0:0,0:0:0:0:
256,312,86949,1,0,0:0:0:0:
176,312,87115,1,0,0:0:0:0:
128,312,87240,1,0,0:0:0:0:
40,192,87449,1,8,0:0:0:0:
256,192,87699,2,0,L|256:136,1,35,0|8,0:0|0:0,0:0:0:0:
