osu file format v5

[General]
AudioFilename: Dances Minus - The City.mp3
AudioLeadIn: 0
AudioHash: 5d9c9f267784c355e84e388177d9c9d4
PreviewTime: -1
Countdown: 1
SampleSet: Normal
EditorBookmarks: 31357,55690,94661,125647,165189,178876

[Metadata]
Title:Gorod
Artist:Tanci Minus
Creator:ProF
Version:Hard

[Difficulty]
HPDrainRate:6
CircleSize:6
OverallDifficulty:6
SliderMultiplier: 0.9
SliderTickRate: 1

[Events]
//Background and Video events
//Break Periods
2,67296,69848
2,94696,124315
2,137466,139343
//Storyboard Layer 0 (Background)
//Storyboard Layer 1 (Failing)
//Storyboard Layer 2 (Passing)
//Storyboard Layer 3 (Foreground)
//Storyboard Sound Samples
//Background Colour Transformations
3,100,255,255,255

[TimingPoints]
25274,380.204042836322,4,1,0,100

[HitObjects]
192,128,31357,1,0
192,128,31547,1,0
256,128,31927,1,0
320,128,32307,1,0
320,256,32878,1,0
320,256,33068,1,0
256,256,33448,1,0
192,256,33828,1,0
192,128,34398,1,0
192,128,34588,1,0
256,128,34969,1,0
320,128,35349,1,0
256,256,35919,2,0,L|256:256|160:256,2,90
320,256,37060,5,0
384,256,37440,1,0
424,224,37630,2,0,L|424:224|424:320,2,90
424,192,38581,1,0
368,192,38961,1,0
336,192,39151,1,0
281,193,39531,2,0,L|281:193|185:193,1,90
192,160,40101,1,0
192,128,40292,1,0
224,128,40482,1,0
256,128,40672,1,0
288,128,40862,1,0
320,128,41052,1,0
384,64,41622,2,0,L|384:64|384:160,3,90
320,128,43143,5,0
288,128,43333,1,0
264,128,43523,2,0,L|264:128|128:128,1,135
104,168,44474,2,0,L|104:168|104:240,1,45
169,216,45044,1,0
205,216,45234,2,0,L|205:216|205:120,1,90
205,126,45995,1,0
160,96,46565,5,0
96,96,46945,1,0
96,160,47325,1,0
96,224,47706,1,0
96,288,48086,1,0
160,288,48466,1,0
224,288,48846,1,0
256,320,49226,5,0
256,320,49606,2,0,B|256:320|279:212|120:215|288:64,1,270
292,149,51127,2,0,L|292:149|388:149,3,90
292,148,52648,2,0,L|292:148|164:148,2,90
288,96,53789,2,0,L|288:96|192:96,3,90
160,64,55690,5,0
160,64,55880,2,0,B|160:64|160:160,2,90
224,160,57211,1,0
224,160,57401,2,0,L|224:160|224:96,2,45
104,160,58351,6,0,B|104:160|148:156|163:101|237:63|305:103|307:170|384:160,1,270
345,227,59872,6,0,B|345:227|311:232|295:280|237:321|163:283|148:228|104:224,1,270
160,160,61583,5,0
160,160,61773,2,0,L|160:160|256:160,2,90
160,96,62724,1,0
160,160,63294,2,0,L|160:160|160:256,3,90
256,256,64815,2,0,L|256:256|352:256,3,90
384,256,66145,1,0
384,224,66336,2,4,L|384:224|384:167,4,45
160,96,70898,5,0
192,96,71088,1,0
224,96,71278,1,0
256,96,71468,2,0,L|256:96|352:96,1,90
384,96,72039,1,0
352,128,72419,1,0
320,128,72609,1,0
288,128,72799,1,0
256,128,72989,1,0
224,128,73179,1,0
288,160,73559,6,0,B|288:160|320:192|320:160,6,45
352,160,74890,1,0
384,128,75080,2,0,L|384:128|384:64,6,45
320,96,76601,6,0,B|320:96|192:96,1,90
224,128,77361,2,0,B|224:128|320:128,1,90
224,160,78122,1,0
224,192,78312,2,0,B|224:192|352:192,2,90
160,192,79643,6,0,L|160:192|416:192,1,225
320,192,80973,1,0
256,192,81354,1,0
192,192,81734,1,0
160,192,81924,1,0
128,192,82114,1,0
128,128,83064,5,0
128,128,83255,2,0,L|128:128|256:128,2,90
128,192,84585,1,0
128,192,84775,2,0,L|128:192|128:256,2,45
104,160,85726,6,0,B|104:160|148:156|163:101|237:63|305:103|307:170|384:160,1,270
345,227,87247,6,0,B|345:227|311:232|295:280|237:321|163:283|148:228|104:224,1,270
96,192,88958,5,0
96,192,89148,1,0
96,192,89338,2,0,L|96:192|192:192,2,90
96,128,90478,2,0,L|96:128|96:32,1,90
130,36,91049,2,0,L|130:36|226:36,1,90
320,32,91809,2,0,L|320:32|320:128,3,90
320,160,93140,1,0
320,192,93330,2,4,L|320:192|384:192,6,45
192,224,125647,5,0
192,224,125837,2,0,L|192:224|320:224,2,90
128,224,127168,1,0
128,224,127358,2,0,L|128:224|128:160,2,45
104,224,128309,6,0,B|104:224|148:228|163:283|237:321|305:281|307:214|384:224,1,270
345,156,129830,6,0,B|345:156|311:152|295:104|237:63|163:101|148:156|104:160,1,270
128,224,131541,5,0
128,224,131731,1,0
128,224,131921,2,0,L|128:224|224:224,2,90
128,160,133061,2,0,L|128:160|128:64,1,90
160,64,133632,2,0,L|160:64|256:64,1,90
320,64,134392,2,0,L|320:64|320:160,3,90
320,192,135723,1,0
320,224,135913,2,4,L|320:224|320:288,6,45
224,96,140475,6,0,L|224:96|288:96,1,45
304,112,140856,2,0,L|304:112|304:288,1,135
272,319,141806,2,0,L|272:319|208:319,1,45
200,288,142186,2,0,L|200:288|200:136,1,135
232,110,143327,6,0,L|232:110|296:110,1,45
256,192,143897,2,0,L|256:192|256:301,2,90
275,129,145038,2,0,L|275:129|211:129,5,45
192,192,146559,5,0
256,192,146939,1,0
320,192,147319,1,0
256,192,147699,1,0
192,192,148079,1,0
256,192,148460,1,0
320,192,148840,1,0
320,192,149030,1,0
320,192,149220,1,0
384,160,149790,5,0
352,160,149981,1,0
320,160,150171,1,0
288,160,150361,1,0
256,160,150551,1,0
224,160,150741,1,0
192,160,150931,1,0
160,160,151121,2,0,L|160:160|128:160,6,45
146,128,152642,5,0
232,128,153022,2,0,L|232:128|304:128,1,45
352,96,153592,1,0
288,64,153973,2,0,L|288:64|224:64,1,45
128,96,154543,1,0
160,128,154733,2,0,L|160:128|384:128,1,180
320,192,156064,2,0,L|320:192|224:192,6,90
367,153,159105,6,2,B|367:153|259:176|262:17|111:185,1,270
160,224,160626,2,0,L|160:224|256:224,3,90
256,160,162147,2,0,L|256:160|128:160,2,90
288,192,163287,2,4,L|288:192|384:192,4,90
288,192,165189,5,0
288,192,165379,2,0,L|288:192|160:192,2,90
352,128,166709,1,0
352,128,166900,2,0,L|352:128|416:128,2,45
408,224,167850,6,0,B|408:224|364:228|349:283|275:321|207:281|205:214|128:224,1,270
166,156,169371,6,0,B|166:156|201:152|217:104|275:63|349:101|364:156|408:160,1,270
384,256,171082,5,0
384,256,171272,1,0
384,256,171462,2,0,L|384:256|288:256,2,90
384,192,172603,2,0,L|384:192|384:96,1,90
352,96,173173,2,0,L|352:96|256:96,1,90
256,160,173933,2,0,L|256:160|256:256,3,90
224,256,175264,1,0
192,256,175454,2,4,L|192:256|128:256,6,45
256,192,177355,12,4,178876
