osu file format v13

[General]
AudioFilename: Crossing Through Time.mp3
AudioLeadIn: 1500
PreviewTime: 659
Countdown: 0
SampleSet: Soft
StackLeniency: 0.7
Mode: 0
LetterboxInBreaks: 0
WidescreenStoryboard: 0

[Editor]
Bookmarks: 659,4600,9856,11170,13798,17751,21706,32252,36207,37526,40162,41481,42799,53345,63846,66565,74685,85225,95786
DistanceSpacing: 0.8
BeatDivisor: 4
GridSize: 4
TimelineZoom: 1.9

[Metadata]
Title:Toki o Koete
TitleUnicode:時を越えて
Artist:Tanaka Shinichi
ArtistUnicode:田中伸一
Creator:smallboat
Version:Insane
Source:第2次スーパーロボット大戦OG
Tags:dainiji second super robot taisen ps3 banpresto bgm time game
BeatmapID:485477
BeatmapSetID:205739

[Difficulty]
HPDrainRate:6
CircleSize:4
OverallDifficulty:8
ApproachRate:9
SliderMultiplier:1.7
SliderTickRate:2

[Events]
//Background and Video events
0,0,"bg.jpg",0,0
//Break Periods
//Storyboard Layer 0 (Background)
//Storyboard Layer 1 (Fail)
//Storyboard Layer 2 (Pass)
//Storyboard Layer 3 (Foreground)
//Storyboard Sound Samples

[TimingPoints]
659,328.497125650151,4,2,4,70,1,0
823,-100,4,2,1,75,0,0
3943,-100,4,2,2,70,0,0
4272,-100,4,2,1,70,0,0
5586,-100,4,2,1,85,0,0
5914,-100,4,2,3,75,0,0
6079,-100,4,2,1,70,0,0
6571,-100,4,2,2,70,0,0
6900,-100,4,2,1,70,0,0
7228,-100,4,2,2,65,0,0
7393,-100,4,2,1,65,0,0
9035,-100,4,2,2,60,0,0
9199,-100,4,2,2,70,0,0
9528,-100,4,2,3,70,0,0
9692,-100,4,2,1,80,0,0
9856,-100,4,2,3,80,0,0
9939,-100,4,2,1,85,0,0
10349,-100,4,2,1,90,0,0
11170,-100,4,2,3,70,0,0
11335,-100,4,2,1,85,0,0
13798,-100,4,2,1,70,0,0
14455,-100,4,2,2,70,0,0
14784,-100,4,2,1,70,0,0
16433,329.579785773139,4,2,1,70,1,0
17092,-100,4,2,2,70,0,0
17421,-100,4,2,1,70,0,0
19728,-100,4,2,1,55,0,0
19893,-100,4,2,1,70,0,0
20058,-100,4,2,3,60,0,0
20223,-100,4,2,1,80,0,0
20387,-100,4,2,3,65,0,0
20552,-100,4,2,1,80,0,0
20717,-100,4,2,1,65,0,0
21047,-100,4,2,1,70,0,0
21376,-100,4,2,1,75,0,0
21706,-100,4,2,3,70,0,0
21871,-100,4,2,1,85,0,0
24342,-100,4,2,1,75,0,0
30934,-100,4,2,3,50,0,0
31099,-100,4,2,1,75,0,0
31593,-76.9230769230769,4,2,1,90,0,0
32252,-100,4,2,1,70,0,0
32417,-100,4,2,3,85,0,0
35219,-100,4,2,3,65,0,0
35383,-100,4,2,1,80,0,0
35878,-100,4,2,3,70,0,0
36042,-100,4,2,1,80,0,0
36207,-100,4,2,1,40,0,0
36537,-100,4,2,3,40,0,0
36702,-100,4,2,1,45,0,0
37526,-100,4,2,3,60,0,0
37690,-100,4,2,1,80,0,0
40492,-100,4,2,3,70,0,0
40657,-100,4,2,1,80,0,0
41151,-100,4,2,3,75,0,0
41316,-100,4,2,1,80,0,0
41481,-100,4,2,1,85,0,0
42469,-100,4,2,1,70,0,0
42799,-95.2380952380952,4,2,4,65,0,0
42964,-95.2380952380952,4,2,2,90,0,0
48072,-95.2380952380952,4,2,3,70,0,0
48237,-95.2380952380952,4,2,2,80,0,0
52027,-95.2380952380952,4,2,4,60,0,0
52110,-95.2380952380952,4,2,2,65,0,0
53016,-95.2380952380952,4,2,3,70,0,0
53098,-95.2380952380952,4,2,2,70,0,0
53345,328.497125650151,4,2,4,80,1,1
53345,-90.9090909090909,4,2,4,80,0,1
53509,-90.9090909090909,4,2,1,70,0,1
53837,-90.9090909090909,4,2,1,85,0,1
55972,-90.9090909090909,4,2,1,80,0,1
58272,-90.9090909090909,4,2,1,70,0,1
58600,-90.9090909090909,4,2,3,65,0,1
58765,-90.9090909090909,4,2,1,85,0,1
62214,-90.9090909090909,4,2,1,90,0,1
62378,-90.9090909090909,4,2,1,70,0,1
62542,-90.9090909090909,4,2,4,60,0,1
62625,-90.9090909090909,4,2,1,75,0,1
63035,-90.9090909090909,4,2,3,70,0,1
63117,-90.9090909090909,4,2,1,70,0,1
63846,339.943342776204,4,2,3,65,1,0
63846,-125,4,2,3,65,0,0
64015,-125,4,2,3,50,0,0
64525,-125,4,2,3,65,0,0
64695,-125,4,2,3,60,0,0
65205,-125,4,2,2,50,0,0
65375,-125,4,2,3,60,0,0
65545,-125,4,2,2,60,0,0
65715,-125,4,2,3,60,0,0
65885,-125,4,2,3,55,0,0
66055,-125,4,2,3,65,0,0
66395,-125,4,2,2,60,0,0
66565,-125,4,2,3,60,0,0
68845,339.943342776204,4,2,3,60,1,0
68845,-125,4,2,3,60,0,0
69071,-125,4,2,3,70,0,0
69295,339.943342776204,4,2,4,80,1,0
69295,-125,4,2,4,80,0,0
69464,-125,4,2,3,60,0,0
70654,-125,4,2,2,50,0,0
70824,-125,4,2,3,60,0,0
70994,-125,4,2,2,60,0,0
71164,-125,4,2,3,60,0,0
72014,337.078651685393,4,2,3,80,1,0
72351,-100,4,2,1,80,0,0
72688,-100,4,2,3,85,0,0
73025,-100,4,2,1,80,0,0
73362,333.333333333333,4,2,3,80,1,0
74028,328.767123287671,4,2,3,70,1,0
74356,-100,4,2,1,80,0,0
74685,328.767123287671,4,2,4,70,1,1
74685,-90.9090909090909,4,2,4,70,0,1
74849,-90.9090909090909,4,2,2,85,0,1
79945,330.03300330033,4,2,3,70,1,1
79945,-90.9090909090909,4,2,3,70,0,1
80110,-90.9090909090909,4,2,2,85,0,1
83905,-90.9090909090909,4,2,4,60,0,1
83987,-90.9090909090909,4,2,2,75,0,1
84565,-90.9090909090909,4,2,2,40,0,1
85225,-86.9565217391304,4,2,3,70,0,1
85390,-86.9565217391304,4,2,1,85,0,1
89185,-86.9565217391304,4,2,3,60,0,1
89350,-86.9565217391304,4,2,3,70,0,1
89680,-86.9565217391304,4,2,4,60,0,1
89845,-86.9565217391304,4,2,3,70,0,1
90506,-86.9565217391304,4,2,4,70,0,1
90671,-86.9565217391304,4,2,1,85,0,1
94466,-86.9565217391304,4,2,3,70,0,1
94548,-86.9565217391304,4,2,1,90,0,1
95456,-86.9565217391304,4,2,3,30,0,1
95786,-100,4,2,4,60,0,0
95869,-100,4,2,4,50,0,0
96446,-100,4,2,4,40,0,0
97106,-100,4,2,4,30,0,0
97766,-100,4,2,4,20,0,0
98426,-100,4,2,4,10,0,0
99086,-100,4,2,4,5,0,0

[Colours]
Combo1 : 174,0,0
Combo2 : 236,236,0
Combo3 : 132,132,132
Combo4 : 0,123,247

[HitObjects]
240,280,659,6,0,B|348:272,1,85,4|0,0:0|0:0,0:0:0:0:
273,106,987,2,0,L|189:112,1,85,10|0,0:0|0:0,0:0:0:0:
88,188,1315,2,0,B|58:226|58:226|12:238,2,85,0|0|10,0:0|0:0|0:0,0:0:0:0:
224,24,1808,1,0,0:0:0:0:
352,130,1972,6,0,B|394:122|394:122|422:90,1,85,0|0,0:0|0:0,0:0:0:0:
160,130,2301,2,0,B|118:122|118:122|90:90,1,85,10|0,0:0|0:0,0:0:0:0:
352,130,2629,2,0,B|369:168|369:168|426:192,2,85,0|0|10,0:0|0:0|0:0,0:0:0:0:
160,130,3122,1,0,0:0:0:0:
352,130,3286,6,0,L|340:28,1,85
160,254,3615,2,0,L|172:356,1,85,10|0,0:0|0:0,0:0:0:0:
328,292,3943,1,8,0:0:0:0:
208,192,4108,1,8,0:0:0:0:
328,292,4272,2,0,L|337:207,1,85,10|0,0:0|0:0,0:0:0:0:
424,96,4600,5,0,0:0:0:0:
280,160,4765,1,0,0:0:0:0:
180,20,4929,1,10,0:0:0:0:
60,160,5093,2,0,L|48:58,1,85
152,112,5422,1,0,0:0:0:0:
32,236,5586,2,0,L|38:277,1,42.5,10|0,0:0|0:0,0:0:0:0:
102,340,5750,2,0,L|115:299,1,42.5
188,272,5914,6,0,B|232:276|232:276|288:236,1,85,4|0,0:0|0:0,0:0:0:0:
424,96,6243,2,0,B|380:92|380:92|324:132,1,85,10|0,0:0|0:0,0:0:0:0:
265,252,6571,1,8,0:0:0:0:
400,172,6736,1,8,0:0:0:0:
265,252,6900,2,0,B|273:351,1,85,10|0,0:0|0:0,0:0:0:0:
410,339,7228,6,0,B|403:254,1,85,8|0,0:0|0:0,0:0:0:0:
108,254,7557,2,0,B|102:339,1,85,10|0,0:0|0:0,0:0:0:0:
265,252,7885,2,0,B|271:167,1,85
68,100,8214,2,0,B|61:184,1,85,10|0,0:0|0:0,0:0:0:0:
271,167,8542,6,0,L|279:75,1,85,4|0,0:0|0:0,0:0:0:0:
172,120,8871,1,10,0:0:0:0:
348,212,9035,2,0,L|356:116,1,85,2|8,0:0|0:0,0:0:0:0:
184,224,9364,1,8,0:0:0:0:
258,337,9528,2,0,L|265:252,1,85,14|0,0:0|0:0,0:0:0:0:
264,56,9856,6,0,L|294:99,3,42.5,14|0|0|0,0:0|0:0|0:0|0:0,0:0:0:0:
329,103,10185,1,10,0:0:0:0:
364,79,10267,1,0,0:0:0:0:
394,49,10349,1,10,0:0:0:0:
425,21,10431,1,0,0:0:0:0:
467,19,10513,6,0,L|501:64,3,42.5,0|0|0|0,0:0|0:0|0:0|0:0,0:0:0:0:
504,94,10842,1,10,0:0:0:0:
494,135,10924,1,0,0:0:0:0:
480,175,11006,1,0,0:0:0:0:
460,212,11088,1,0,0:0:0:0:
436,248,11170,6,0,B|400:264|400:264|354:259,1,85,6|0,0:0|0:0,0:0:0:0:
76,248,11499,2,0,B|112:264|112:264|157:259,1,85,10|0,0:0|0:0,0:0:0:0:
256,192,11827,1,0,0:0:0:0:
128,124,11992,1,0,0:0:0:0:
256,192,12156,2,0,B|272:156|272:156|267:111,1,85,10|0,0:0|0:0,0:0:0:0:
139,43,12484,6,0,B|123:79|123:79|128:124,1,85
384,124,12813,2,0,B|389:79|389:79|373:43,1,85,10|0,0:0|0:0,0:0:0:0:
256,192,13141,2,0,B|251:237|251:237|267:273,1,85
452,300,13470,2,0,B|457:255|457:255|441:219,1,85,10|0,0:0|0:0,0:0:0:0:
309,265,13798,6,0,L|245:277,3,42.5,0|0|0|0,0:0|0:0|0:0|0:0,0:0:0:0:
185,272,14127,2,0,L|94:293,1,85,10|0,0:0|0:0,0:0:0:0:
163,374,14455,1,8,0:0:0:0:
50,220,14620,1,8,0:0:0:0:
184,184,14784,2,0,B|200:144|200:144|188:80,1,85,10|0,0:0|0:0,0:0:0:0:
319,102,15112,6,0,B|312:144|312:144|328:184,1,85
436,288,15441,2,0,B|396:304|396:304|354:296,1,85,10|0,0:0|0:0,0:0:0:0:
76,288,15769,2,0,B|116:304|116:304|157:296,1,85
252,232,16098,2,0,B|268:192|268:192|260:150,1,85,10|0,0:0|0:0,0:0:0:0:
212,32,16433,5,0,0:0:0:0:
184,184,16597,1,0,0:0:0:0:
384,152,16762,2,0,B|400:112|400:112|392:70,2,85,10|0|8,0:0|0:0|0:0,0:0:0:0:
192,107,17256,1,8,0:0:0:0:
16,152,17421,2,0,B|8:193|8:193|24:233,1,85,10|0,0:0|0:0,0:0:0:0:
140,328,17751,5,0,0:0:0:0:
256,376,17916,1,0,0:0:0:0:
372,328,18080,2,0,B|404:300|404:300|416:240,1,85,10|0,0:0|0:0,0:0:0:0:
372,56,18410,5,0,0:0:0:0:
256,8,18575,1,0,0:0:0:0:
140,56,18740,2,0,B|108:84|108:84|96:144,1,85,10|0,0:0|0:0,0:0:0:0:
92,268,19069,5,0,0:0:0:0:
180,187,19234,1,0,0:0:0:0:
296,163,19399,1,10,0:0:0:0:
413,182,19564,1,0,0:0:0:0:
372,328,19728,2,0,L|360:236,1,85,10|0,0:0|0:0,0:0:0:0:
256,284,20058,2,0,L|268:369,1,85,14|0,0:0|0:0,0:0:0:0:
92,268,20387,6,0,L|77:158,1,85,4|0,0:0|0:0,0:0:0:0:
111,72,20717,2,0,L|175:60,3,42.5,10|0|0|0,0:0|0:0|0:0|0:0,0:0:0:0:
218,106,21047,2,0,L|282:94,3,42.5,10|0|0|0,0:0|0:0|0:0|0:0,0:0:0:0:
332,124,21376,2,0,L|387:143,3,42.5,10|0|0|0,0:0|0:0|0:0|0:0,0:0:0:0:
409,205,21706,6,0,B|457:213|457:213|505:185,1,85,4|0,0:0|0:0,0:0:0:0:
322,45,22035,2,0,B|314:93|314:93|342:141,1,85,10|0,0:0|0:0,0:0:0:0:
409,205,22365,1,0,0:0:0:0:
256,248,22530,1,0,0:0:0:0:
180,124,22695,2,0,B|199:93|199:93|191:45,1,85,10|0,0:0|0:0,0:0:0:0:
64,72,23024,5,0,0:0:0:0:
116,212,23189,1,0,0:0:0:0:
256,248,23354,2,0,B|301:231|301:231|320:188,1,85,10|0,0:0|0:0,0:0:0:0:
240,73,23683,2,0,B|195:90|195:90|176:133,1,85
388,236,24013,2,0,B|433:219|433:219|452:176,1,85,10|0,0:0|0:0,0:0:0:0:
256,152,24342,6,0,L|308:168,1,42.5
256,248,24507,2,0,L|200:268,1,42.5
108,293,24672,2,0,B|100:249|100:249|120:201,1,85,10|0,0:0|0:0,0:0:0:0:
176,127,25002,1,0,0:0:0:0:
319,200,25166,1,0,0:0:0:0:
188,292,25331,1,10,0:0:0:0:
240,73,25496,1,0,0:0:0:0:
432,172,25661,6,0,B|444:87,1,85
67,87,25990,2,0,B|80:172,1,85,10|0,0:0|0:0,0:0:0:0:
201,376,26320,2,0,B|188:291,1,85
319,200,26649,2,0,B|332:285,1,85,10|0,0:0|0:0,0:0:0:0:
420,356,26979,5,0,0:0:0:0:
252,256,27144,1,0,0:0:0:0:
432,172,27309,2,0,B|496:124|496:124|424:64,1,170,10|0,0:0|0:0,0:0:0:0:
292,8,27803,1,0,0:0:0:0:
196,112,27968,2,0,B|211:152|211:152|246:178,1,85,10|0,0:0|0:0,0:0:0:0:
319,201,28297,5,0,0:0:0:0:
224,41,28462,1,0,0:0:0:0:
136,160,28627,2,0,B|151:200|151:200|186:226,1,85,10|0,0:0|0:0,0:0:0:0:
336,304,28957,2,0,B|369:279|369:279|384:238,1,85
320,68,29286,2,0,B|286:92|286:92|271:133,1,85,10|0,0:0|0:0,0:0:0:0:
252,256,29616,5,0,0:0:0:0:
432,312,29780,1,0,0:0:0:0:
352,140,29945,1,10,0:0:0:0:
336,304,30110,1,0,0:0:0:0:
488,240,30275,2,0,L|476:152,1,85
352,140,30604,2,0,L|364:228,1,85,10|0,0:0|0:0,0:0:0:0:
252,256,30934,5,4,0:0:0:0:
142,346,31099,2,0,L|82:370,5,42.5,0|0|10|0|0|0,0:0|0:0|0:0|0:0|0:0|0:0,0:0:0:0:
56,296,31593,6,0,L|48:228,1,55.2499974708558,8|0,0:0|0:0,0:0:0:0:
32,108,31758,2,0,L|41:171,1,55.2499974708558,0|8,0:0|0:0,0:0:0:0:
124,248,31923,2,0,L|116:180,1,55.2499974708558,10|0,0:0|0:0,0:0:0:0:
100,60,32088,2,0,L|109:123,1,55.2499974708558
196,184,32252,6,0,B|220:148|220:148|212:88,1,85,4|0,0:0|0:0,0:0:0:0:
32,108,32582,2,0,B|8:144|8:144|16:204,1,85,10|0,0:0|0:0,0:0:0:0:
56,296,32911,1,0,0:0:0:0:
196,184,33076,1,0,0:0:0:0:
337,306,33241,2,0,B|296:312|296:312|260:288,1,85,10|0,0:0|0:0,0:0:0:0:
113,167,33571,6,0,L|213:187,1,85
399,167,33900,2,0,L|299:187,1,85,10|0,0:0|0:0,0:0:0:0:
113,82,34230,2,0,L|213:102,1,85
399,82,34559,2,0,L|299:102,1,85,10|0,0:0|0:0,0:0:0:0:
196,184,34889,5,6,0:0:0:0:
256,336,35054,1,0,0:0:0:0:
316,184,35219,2,0,L|316:99,1,85,14|0,0:0|0:0,0:0:0:0:
208,176,35548,1,0,0:0:0:0:
268,328,35713,1,0,0:0:0:0:
328,176,35878,2,0,L|328:91,1,85,6|0,0:0|0:0,0:0:0:0:
205,13,36207,6,0,L|224:56,3,42.5,0|0|0|0,0:0|0:0|0:0|0:0,0:0:0:0:
240,96,36537,1,4,0:0:0:0:
127,27,36702,1,0,0:0:0:0:
28,96,36866,2,0,L|70:89,2,42.5,8|8|8,0:0|0:0|0:0,0:0:0:0:
5,189,37196,1,10,0:0:0:0:
9,222,37278,1,10,0:0:0:0:
22,253,37361,1,10,0:0:0:0:
44,278,37443,1,10,0:0:0:0:
77,281,37526,6,0,B|125:270|125:270|169:225,1,85,6|0,0:0|0:0,0:0:0:0:
240,96,37855,2,0,B|192:107|192:107|148:152,1,85,10|0,0:0|0:0,0:0:0:0:
150,245,38185,1,0,0:0:0:0:
256,324,38350,1,0,0:0:0:0:
371,240,38514,2,0,L|468:216,1,85,10|0,0:0|0:0,0:0:0:0:
508,124,38844,5,0,0:0:0:0:
473,19,39009,1,0,0:0:0:0:
376,64,39174,2,0,L|356:160,1,85,10|0,0:0|0:0,0:0:0:0:
153,147,39503,2,0,L|136:64,1,85
283,177,39833,2,0,L|300:260,1,85,10|0,0:0|0:0,0:0:0:0:
392,360,40162,5,0,0:0:0:0:
484,240,40327,1,0,0:0:0:0:
376,64,40492,2,0,L|368:148,1,85,6|0,0:0|0:0,0:0:0:0:
400,348,40821,5,0,0:0:0:0:
492,228,40986,1,0,0:0:0:0:
384,52,41151,2,0,L|376:136,1,85,6|0,0:0|0:0,0:0:0:0:
320,248,41481,6,0,L|260:264,3,42.5,10|0|0|0,0:0|0:0|0:0|0:0,0:0:0:0:
256,340,41810,2,0,L|208:352,3,42.5,10|0|0|0,0:0|0:0|0:0|0:0,0:0:0:0:
156,292,42140,2,0,L|108:304,3,42.5,10|0|0|0,0:0|0:0|0:0|0:0,0:0:0:0:
52,248,42469,2,0,L|4:260,3,42.5,10|0|0|0,0:0|0:0|0:0|0:0,0:0:0:0:
8,180,42799,6,0,B|116:152,1,89.2499972763062,4|0,0:0|0:0,0:0:0:0:
208,36,43128,2,0,B|100:64,1,89.2499972763062,10|0,0:0|0:0,0:0:0:0:
94,158,43458,1,0,0:0:0:0:
188,212,43623,1,0,0:0:0:0:
296,92,43788,2,0,B|188:120,1,89.2499972763062,10|0,0:0|0:0,0:0:0:0:
94,158,44117,6,0,B|123:81|123:81|206:30|215:36,1,178.499994552612,0|10,0:0|0:0,0:0:0:0:
384,108,44612,2,0,B|376:148|376:148|336:176,1,89.2499972763062
188,212,44941,1,0,0:0:0:0:
208,36,45106,2,0,B|229:70|229:70|221:118,1,89.2499972763062,10|0,0:0|0:0,0:0:0:0:
107,240,45436,6,0,B|85:205|85:205|93:157,1,89.2499972763062
284,160,45765,2,0,B|305:194|305:194|297:242,1,89.2499972763062,10|0,0:0|0:0,0:0:0:0:
208,352,46095,1,0,0:0:0:0:
188,212,46259,1,0,0:0:0:0:
369,251,46424,2,0,L|353:339,1,89.2499972763062,10|0,0:0|0:0,0:0:0:0:
208,352,46754,5,0,0:0:0:0:
64,308,46919,1,0,0:0:0:0:
56,152,47083,2,0,L|164:128,1,89.2499972763062,10|0,0:0|0:0,0:0:0:0:
304,32,47413,5,0,0:0:0:0:
448,76,47578,1,0,0:0:0:0:
456,232,47743,2,0,L|348:256,1,89.2499972763062,10|0,0:0|0:0,0:0:0:0:
227,265,48072,6,0,B|141:294|141:294|219:361,1,178.499994552612,4|10,0:0|0:0,0:3:0:0:
332,376,48567,1,0,0:0:0:0:
435,311,48731,2,0,B|463:275|463:275|456:231,1,89.2499972763062,0|0,0:0|0:0,0:0:0:0:
268,204,49061,2,0,B|240:168|240:168|246:124,1,89.2499972763062,10|0,0:0|0:0,0:0:0:0:
444,96,49390,6,0,B|472:60|472:60|465:16,1,89.2499972763062
268,46,49720,2,0,B|240:82|240:82|246:125,1,89.2499972763062,10|0,0:0|0:0,0:0:0:0:
376,216,50050,1,0,0:0:0:0:
444,96,50214,1,0,0:0:0:0:
268,204,50379,2,0,B|264:249|264:249|293:281,1,89.2499972763062,10|0,0:0|0:0,0:0:0:0:
470,174,50709,6,0,B|473:128|473:128|444:96,1,89.2499972763062,0|0,0:0|0:0,0:0:0:0:
268,46,51038,2,0,B|264:91|264:91|293:123,1,89.2499972763062,10|0,0:0|0:0,0:0:0:0:
376,216,51368,1,0,0:0:0:0:
226,357,51615,2,0,L|162:345,1,44.6249986381531,0|10,0:0|0:0,0:0:0:0:
64,296,51862,1,0,0:0:0:0:
32,160,52027,6,0,L|71:188,3,44.6249986381531,4|0|0|0,0:0|0:0|0:0|0:0,0:0:0:0:
108,182,52357,1,8,0:0:0:0:
143,163,52439,1,0,0:0:0:0:
166,130,52521,1,0,0:0:0:0:
177,91,52604,1,0,0:0:0:0:
176,51,52686,6,0,L|220:17,3,44.6249986381531,10|0|0|0,0:0|0:0|0:0|0:0,0:0:0:0:
251,19,53016,1,8,0:0:0:0:
287,34,53098,1,0,0:0:0:0:
299,72,53181,1,0,0:0:0:0:
295,111,53263,1,0,0:0:0:0:
273,146,53345,6,0,B|341:210|341:210|437:182,1,187.000005706787,4|10,0:0|0:0,0:0:0:0:
372,90,53837,1,0,0:0:0:0:
498,240,54001,2,0,L|514:136,1,93.5000028533936
460,32,54330,1,10,0:0:0:0:
415,177,54494,1,0,0:0:0:0:
312,288,54658,6,0,B|224:304|224:304|158:231,1,187.000005706787,0|10,0:0|0:0,0:0:0:0:
84,120,55151,1,0,0:0:0:0:
251,218,55315,2,0,L|159:232,1,93.5000028533936
200,111,55644,1,10,0:0:0:0:
230,305,55808,1,0,0:0:0:0:
428,265,55972,6,0,B|488:237|488:237|504:161|504:161|488:120,1,187.000005706787,0|10,0:0|0:0,0:0:0:0:
388,28,56465,1,0,0:0:0:0:
244,76,56629,1,0,0:0:0:0:
336,196,56794,1,0,0:0:0:0:
244,76,56958,2,0,B|224:116|224:116|233:168,1,93.5000028533936,10|0,0:0|0:0,0:0:0:0:
308,276,57286,5,2,0:0:0:0:
329,96,57451,1,2,0:0:0:0:
128,120,57615,1,10,0:0:0:0:
47,261,57779,2,0,B|152:278|152:278|196:210,1,187.000005706787,0|8,0:0|0:0,0:0:0:0:
54,66,58272,2,0,L|8:72,1,46.7500014266968,10|0,0:0|0:0,0:0:0:0:
133,30,58436,2,0,L|180:24,1,46.7500014266968
128,120,58600,6,0,B|176:132|176:132|224:108,1,93.5000028533936,4|0,0:0|0:0,0:0:0:0:
384,120,58929,2,0,B|336:132|336:132|288:108,1,93.5000028533936,10|0,0:0|0:0,0:0:0:0:
179,24,59257,1,0,0:0:0:0:
332,24,59422,1,0,0:0:0:0:
343,199,59586,2,0,B|295:211|295:211|256:192,1,93.5000028533936,10|0,0:0|0:0,0:0:0:0:
128,120,59914,5,0,0:0:0:0:
8,216,60079,1,0,0:0:0:0:
116,328,60243,2,0,B|220:312,1,93.5000028533936,10|0,0:0|0:0,0:0:0:0:
343,199,60571,2,0,B|250:213,1,93.5000028533936,0|0,0:0|0:0,0:0:0:0:
129,345,60900,2,0,B|233:329,1,93.5000028533936,10|0,0:0|0:0,0:0:0:0:
356,216,61228,6,0,B|263:230,1,93.5000028533936,0|0,0:0|0:0,0:0:0:0:
204,144,61557,1,10,0:0:0:0:
368,236,61721,2,0,B|460:221,1,93.5000028533936,0|0,0:0|0:0,0:0:0:0:
392,120,62050,1,0,0:0:0:0:
204,144,62214,2,0,B|111:158,1,93.5000028533936,10|0,0:0|0:0,0:0:0:0:
28,48,62542,6,0,L|93:38,5,46.7500014266968,4|0|0|0|0|0,0:0|0:0|0:0|0:0|0:0|0:0,0:0:0:0:
147,50,63035,1,4,0:0:0:0:
147,50,63117,1,0,0:0:0:0:
147,50,63199,6,0,L|215:38,1,46.7500014266968,10|0,0:0|0:0,0:0:0:0:
314,73,63364,2,0,L|269:83,1,46.7500014266968,0|0,0:0|0:0,0:0:0:0:
392,120,63528,2,0,L|450:108,1,46.7500014266968,10|0,0:0|0:0,0:0:0:0:
511,189,63692,2,0,L|466:199,1,46.7500014266968
393,233,63846,6,0,B|340:219|340:219|343:171|269:161,1,136,4|0,0:0|0:0,0:0:0:0:
204,144,64355,1,0,0:0:0:0:
204,144,64440,1,0,0:0:0:0:
204,144,64525,2,0,L|132:176,1,68,4|0,0:0|0:0,0:0:0:0:
296,224,64865,1,0,0:0:0:0:
140,288,65035,1,0,0:0:0:0:
256,368,65205,6,0,B|280:324|280:324|277:285,1,68,8|0,0:0|0:0,0:0:0:0:
140,288,65545,2,0,B|184:312|184:312|228:308,1,68,8|0,0:0|0:0,0:0:0:0:
296,224,65885,2,0,B|278:221|278:221|234:245,1,68,4|0,0:0|0:0,0:0:0:0:
256,368,66225,2,0,B|303:351|303:351|324:316,1,68,0|0,0:0|0:0,0:0:0:0:
376,232,66565,5,0,0:0:0:0:
292,100,66735,1,0,0:0:0:0:
212,248,66905,1,0,0:0:0:0:
356,160,67075,2,0,L|364:104,1,34,0|0,0:0|0:0,0:0:0:0:
376,56,67245,5,2,0:0:0:0:
296,224,67415,1,0,0:0:0:0:
440,92,67585,1,0,0:0:0:0:
240,164,67755,1,0,0:0:0:0:
452,228,67925,6,0,B|476:148,1,68,0|0,0:0|0:0,0:0:0:0:
440,16,68265,1,8,0:0:0:0:
304,32,68435,2,0,L|248:44,4,34,0|0|0|0|0,0:0|0:0|0:0|0:0|0:0,0:0:0:0:
203,81,68845,6,0,L|147:143,1,91,4|4,0:0|0:0,0:0:0:0:
48,284,69295,5,4,0:0:0:0:
464,284,69974,1,2,0:0:0:0:
404,92,70144,1,0,0:0:0:0:
436,352,70314,1,0,0:0:0:0:
376,160,70484,1,8,0:0:0:0:
320,300,70654,6,0,L|313:232,1,68,8|0,0:0|0:0,0:0:0:0:
192,84,70994,2,0,L|198:151,1,68,8|0,0:0|0:0,0:0:0:0:
248,336,71334,2,0,L|241:268,1,68,10|0,0:0|0:0,0:0:0:0:
120,120,71674,2,0,L|126:187,1,68
148,304,72014,5,8,0:0:0:0:
248,336,72182,1,0,0:0:0:0:
396,296,72351,2,0,L|424:216,1,85,4|0,0:0|0:0,0:0:0:0:
164,296,72688,5,8,0:0:0:0:
264,328,72856,1,0,0:0:0:0:
412,288,73025,2,0,L|440:208,1,85,4|0,0:0|0:0,0:0:0:0:
488,40,73362,6,0,L|436:60,3,42.5,4|0|0|0,0:0|0:0|0:0|0:0,0:0:0:0:
379,96,73695,2,0,L|368:56,3,42.5,10|0|0|0,0:0|0:0|0:0|0:0,0:0:0:0:
288,36,74028,2,0,L|224:56,3,42.5,10|0|0|0,0:0|0:0|0:0|0:0,0:0:0:0:
168,52,74356,2,0,L|180:92,3,42.5,4|0|0|0,0:0|0:0|0:0|0:0,0:0:0:0:
220,160,74685,6,0,B|280:186|280:186|306:178,1,93.5000028533936,4|0,0:0|2:0,0:0:0:0:
466,115,75013,2,0,B|405:88|405:88|379:96,1,93.5000028533936,10|0,0:0|2:0,0:0:0:0:
307,178,75342,1,0,0:0:0:0:
432,256,75506,1,0,0:0:0:0:
316,336,75671,2,0,B|255:362|255:362|229:354,1,93.5000028533936,10|0,0:0|2:0,0:0:0:0:
108,279,76000,6,0,B|116:211|116:211|167:160|240:159,1,187.000005706787,0|10,0:0|0:0,0:0:0:0:
330,264,76493,2,0,B|262:256|262:256|248:234,1,93.5000028533936
280,104,76821,1,0,0:0:0:0:
392,72,76986,2,0,B|394:123|394:123|370:179,1,93.5000028533936,10|0,0:0|0:0,0:0:0:0:
248,235,77315,6,0,B|217:194|217:194|226:121,1,93.5000028533936
255,21,77643,2,0,B|285:61|285:61|276:134,1,93.5000028533936,10|0,0:0|0:0,0:0:0:0:
144,164,77972,1,0,0:0:0:0:
12,232,78137,1,0,0:0:0:0:
108,340,78301,2,0,B|156:336|156:336|200:296,1,93.5000028533936,10|0,0:0|0:0,0:0:0:0:
236,152,78630,5,0,0:0:0:0:
276,320,78794,1,0,0:0:0:0:
404,288,78958,2,0,B|400:240|400:240|360:196,1,93.5000028533936,10|0,0:0|0:0,0:0:0:0:
248,235,79287,1,0,0:0:0:0:
356,368,79452,1,10,0:0:0:0:
370,206,79616,2,0,L|355:161,2,46.7500014266968,0|0|0,0:0|0:0|0:0,0:0:0:0:
404,288,79945,6,0,B|456:224|456:224|420:112,1,187.000005706787,4|10,0:0|0:0,0:0:0:0:
312,56,80440,1,0,0:0:0:0:
184,80,80605,2,0,L|91:95,1,93.5000028533936
91,288,80935,2,0,L|184:304,1,93.5000028533936,10|0,0:0|0:0,0:0:0:0:
370,206,81265,6,0,L|277:221,1,93.5000028533936
312,56,81595,2,0,L|404:40,1,93.5000028533936,10|0,0:0|0:0,0:0:0:0:
504,100,81925,1,0,0:0:0:0:
392,124,82090,1,0,0:0:0:0:
261,128,82255,2,0,L|278:221,1,93.5000028533936,10|0,0:0|0:0,0:0:0:0:
91,288,82585,6,0,L|74:195,1,93.5000028533936
220,340,82915,2,0,B|178:311|178:311|164:256,1,93.5000028533936,10|0,0:0|0:0,0:0:0:0:
124,124,83245,5,0,0:0:0:0:
13,257,83410,1,0,0:0:0:0:
13,257,83492,2,0,L|1:185,1,46.7500014266968,0|10,0:0|0:0,0:0:0:0:
52,84,83740,1,0,0:0:0:0:
192,168,83905,6,0,L|220:224,5,46.7500014266968,4|0|0|0|0|0,0:0|0:0|0:0|0:0|0:0|0:0,0:0:0:0:
248,240,84400,1,0,0:0:0:0:
292,256,84482,1,0,0:0:0:0:
336,264,84565,6,0,L|400:240,5,46.7500014266968,10|8|8|8|8|8,0:0|0:0|0:0|0:0|0:0|0:0,0:0:0:0:
424,232,85060,1,8,0:0:0:0:
460,204,85143,1,8,0:0:0:0:
488,164,85225,6,0,B|473:117|473:117|433:89,1,97.7500018644333,4|0,0:0|0:0,0:0:0:0:
304,48,85555,2,0,B|254:53|254:53|213:28,1,97.7500018644333,10|0,0:0|0:0,0:0:0:0:
96,36,85885,1,0,0:0:0:0:
44,140,86050,1,0,0:0:0:0:
108,240,86215,2,0,B|156:256|156:256|203:237,1,97.7500018644333,10|0,0:0|0:0,0:0:0:0:
304,48,86545,6,0,B|241:48|190:99|190:99|182:167,1,195.500003728867,0|10,0:0|0:0,0:0:0:0:
424,232,87040,2,0,B|416:164|416:164|376:132,1,97.7500018644333
264,136,87370,1,0,0:0:0:0:
248,256,87535,2,0,B|240:324|240:324|217:342,1,97.7500018644333,10|0,0:0|0:0,0:0:0:0:
47,286,87865,6,0,B|28:239|28:239|46:195,1,97.7500018644333
176,56,88195,2,0,B|195:103|195:103|176:146,1,97.7500018644333,10|0,0:0|0:0,0:0:0:0:
108,240,88525,1,0,0:0:0:0:
256,332,88690,1,0,0:0:0:0:
424,232,88855,2,0,B|443:181|443:181|431:139,1,97.7500018644333,10|0,0:0|0:0,0:0:0:0:
256,24,89185,5,4,0:0:0:0:
256,192,89350,1,0,0:0:0:0:
108,240,89515,2,0,L|128:124,1,97.7500018644333,10|4,0:0|0:0,0:0:0:0:
248,108,89845,5,0,0:0:0:0:
192,252,90011,1,10,0:0:0:0:
79,66,90176,2,0,L|190:55,1,97.7500018644333,0|10,0:0|0:0,0:0:0:0:
433,66,90506,6,0,B|463:158|463:158|366:141,1,195.500003728867,4|10,0:0|0:0,0:0:0:0:
256,192,91001,1,0,0:0:0:0:
320,252,91166,2,0,B|336:296|336:296|392:328,1,97.7500018644333
192,252,91496,2,0,B|176:296|176:296|120:328,1,97.7500018644333,10|0,0:0|0:0,0:0:0:0:
95,136,91826,6,0,B|143:129|143:129|203:169,1,97.7500018644333
417,136,92156,2,0,B|368:129|368:129|308:169,1,97.7500018644333,10|0,0:0|0:0,0:0:0:0:
256,296,92486,1,0,0:0:0:0:
128,208,92651,1,0,0:0:0:0:
383,207,92816,2,0,B|431:212|431:212|488:184,1,97.7500018644333,10|0,0:0|0:0,0:0:0:0:
444,24,93146,6,0,B|396:19|396:19|339:47,1,97.7500018644333
292,226,93476,2,0,B|339:230|339:230|396:202,1,97.7500018644333,10|0,0:0|0:0,0:0:0:0:
484,92,93806,5,0,0:0:0:0:
232,30,94053,2,0,L|160:10,1,48.8750009322167,0|10,0:0|0:0,0:0:0:0:
28,92,94301,1,0,0:0:0:0:
12,248,94466,5,4,0:0:0:0:
40,288,94548,1,0,0:0:0:0:
84,308,94631,1,0,0:0:0:0:
132,308,94713,1,0,0:0:0:0:
176,288,94796,2,0,L|208:248,3,48.8750009322167,10|0|0|0,0:0|0:0|0:0|0:0,0:0:0:0:
292,226,95126,6,0,L|352:238,3,48.8750009322167,10|0|0|0,0:0|0:0|0:0|0:0,0:0:0:0:
384,228,95456,1,8,0:0:0:0:
416,196,95539,1,8,0:0:0:0:
420,152,95621,1,8,0:0:0:0:
408,108,95704,1,8,0:0:0:0:
380,84,95786,5,4,0:0:0:0:
256,192,95869,12,0,99086,0:0:0:0:
