osu file format v5

[General]
AudioFilename: miina.mp3
AudioLeadIn: 0
PreviewTime: -1
Countdown: 1
SampleSet: None
StackLeniency: 0.7
Mode: 0
LetterboxInBreaks: 1
EditorDistanceSpacing: 0.800000011920929

[Metadata]
Title:Shouriseyo WITCHES!
Artist:Tanaka Rie&Nogawa Sakura&Sonozaki Mie
Creator:bogbogbarg
Version:Hard Rock
Source:STRIKE WITCHES
Tags:Minna-Dietlinde Wilcke&Erica Hartmann&Gertrud Barkhorn

[Difficulty]
HPDrainRate:10
CircleSize:7
OverallDifficulty:10
SliderMultiplier:1.4
SliderTickRate:1

[Events]
//Background and Video events
0,0,"pic.png"
//Break Periods
2,58676,61352
2,101421,115373
2,122715,130531
//Storyboard Layer 0 (Background)
//Storyboard Layer 1 (Failing)
//Storyboard Layer 2 (Passing)
//Storyboard Layer 3 (Foreground)
//Storyboard Sound Samples
//Background Colour Transformations
3,100,163,162,255

[TimingPoints]
100,419.58041958042,4,0,0,100,1,0

[HitObjects]
256,192,14025,12,0,16909
128,160,17329,5,0
224,160,17958,1,0
288,160,18168,1,0
352,160,18587,1,0
416,160,18981,1,0
384,224,19610,1,0
256,32,20239,5,0
256,128,20685,1,0
256,192,21315,1,0
256,256,21525,1,0
256,352,21944,1,0
384,288,22364,1,0
96,128,23596,5,0
192,128,24042,1,0
160,256,24671,1,0
160,256,24881,1,0
224,256,25301,1,0
320,256,25720,1,0
416,256,26350,1,0
64,96,26979,5,0
128,96,27294,1,0
128,96,27399,1,0
192,96,28028,1,0
224,96,28290,1,0
256,96,28657,1,0
320,96,29077,1,0
288,192,30309,5,0
192,256,30729,1,0
128,160,31385,1,0
128,160,31594,1,0
192,160,32014,1,0
256,160,32434,1,0
320,160,33063,1,0
448,96,33692,5,0
352,96,34112,1,0
256,128,34715,1,0
256,128,34872,1,0
192,96,35371,1,0
96,96,35764,1,0
384,96,37049,5,0
320,96,37469,1,0
224,128,38098,1,0
224,128,38308,1,0
160,128,38727,1,0
96,128,39147,1,0
32,192,39750,1,0
320,224,40406,5,0
256,256,40720,1,0
256,256,40825,1,0
192,256,41192,1,0
128,224,41612,2,0,B|320:224,1,175
128,320,42556,2,0,B|480:320,1,332.5
160,96,44129,6,0,B|64:160|96:288|128:320|288:320|352:288|384:224|416:160|352:128|320:128,1,560
256,96,46437,1,0
96,160,47119,5,0
160,160,47486,1,0
288,160,48141,1,0
288,160,48299,1,0
352,160,48797,1,0
416,160,49217,1,0
32,64,50843,6,0,B|96:160|192:224|256:192|256:128|256:64|320:64|384:96|416:160|416:224|416:256|448:288,1,560
352,320,53150,1,0
256,192,53990,12,0,58500
64,128,62276,5,0
160,128,62643,1,0
256,128,63273,1,0
256,128,63483,1,0
320,128,63902,1,0
416,128,64322,1,0
480,128,64899,1,0
64,224,65580,5,0
128,224,65895,1,0
128,224,66000,1,0
224,224,66629,1,0
288,224,66839,1,0
352,224,67259,1,0
448,224,67678,1,0
96,128,68937,5,0
160,192,69357,1,0
224,128,69934,1,0
256,192,70143,1,0
256,288,70563,1,0
384,288,70983,1,0
384,192,71664,1,0
384,128,71900,5,0
64,128,72267,5,0
128,128,72713,1,0
224,128,73343,1,0
288,128,73553,1,0
352,128,73946,1,0
448,128,74365,1,0
416,256,75650,5,0
352,256,76018,1,0
256,256,76699,1,0
192,256,76909,1,0
128,256,77276,1,0
64,256,77748,1,0
64,160,78299,1,0
128,256,79007,5,0
224,256,79322,1,0
224,256,79427,1,0
320,256,80004,1,0
384,256,80266,1,0
448,256,80633,1,0
480,320,81105,1,0
64,192,82311,6,0,B|224:192,1,157.5
256,256,83360,1,0
288,192,83622,1,0
352,128,84042,1,0
416,64,84435,1,0
480,32,85091,1,0
96,160,85694,6,0,B|224:160,1,122.5
288,160,86979,1,0
352,160,87399,1,0
416,160,87818,1,0
64,128,89470,6,0,B|192:128|192:128,1,122.5
256,128,90074,1,0
320,128,90388,1,0
384,128,90755,1,0
480,128,91148,1,0
448,256,91725,1,0
352,256,92407,5,0
288,256,92669,1,0
256,256,92774,2,0,B,1,122.5
160,256,93246,1,0
64,256,93666,1,0
64,192,94086,1,0
64,128,94505,1,0
64,160,96210,6,0,B|288:160,1,210
352,160,97049,1,0
416,160,97416,1,0
480,160,97888,1,0
480,320,98439,1,0
64,128,99147,5,0
160,128,99462,1,0
160,128,99567,1,0
224,128,99986,1,0
256,128,100353,2,0,B|480:128,1,210
480,192,101245,1,0
32,192,116350,6,0,B|256:192,1,210
320,192,117162,1,0
448,192,117609,1,0
448,288,118029,2,0,B|224:288|224:288,1,210
128,288,118893,1,0
32,288,119313,1,0
32,96,119759,6,0,B|256:96,1,210
320,96,120624,1,0
384,96,120939,1,0
256,192,121385,12,0,122539
64,160,131455,6,0,B|224:160,1,157.5
320,160,132320,1,0
384,160,132713,1,0
448,160,133133,2,0,B|448:192|320:256|256:224,1,210
96,160,134392,5,0
192,160,134680,1,0
192,160,134785,1,0
288,160,135441,1,0
352,160,135650,1,0
416,160,136070,1,0
480,160,136437,1,0
448,352,138168,6,0,B|320:256,1,157.5
288,224,138745,1,0
224,160,139007,1,0
128,128,139427,1,0
128,224,139846,1,0
128,320,140423,1,0
64,160,141053,6,0,B|128:192|192:160,1,122.5
224,160,141525,1,0
320,160,141944,1,0
384,160,142311,2,0,B|384:224|224:320,1,227.5
160,320,143203,1,0
64,128,144881,6,0,B|288:128,1,210
352,128,145720,1,0
416,128,146140,1,0
480,128,146533,2,0,B|480:192|320:64,1,192.5
96,96,147818,5,0
160,128,148133,1,0
160,128,148211,1,0
256,160,148867,1,0
320,160,149077,1,0
384,160,149497,1,0
416,256,149916,2,0,B|128:256|32:96,1,420
448,96,151542,6,0,B|224:96,1,210
160,96,152434,1,0
64,96,152853,1,0
64,192,153220,2,0,B|288:192,1,210
96,192,154505,5,0
192,192,154925,1,0
288,192,155344,1,0
384,192,155764,1,0
384,288,156420,1,0
256,192,156682,12,0,159934
