osu file format v7

[General]
AudioFilename: Rie Tanaka - Ningyo Hime.mp3
AudioLeadIn: 0
PreviewTime: 65277
Countdown: 0
SampleSet: Soft
StackLeniency: 0.4
Mode: 0
LetterboxInBreaks: 0

[Editor]
Bookmarks: 12682,63758,80847,88054,96978,139708,156796,163252,174834,216227
DistanceSpacing: 1.20000004768372
BeatDivisor: 4
GridSize: 8

[Metadata]
Title:Ningyo Hime
Artist:Tanaka Rie
Creator:Glasslake
Version:Relaxing
Source:Chobits
Tags:jpop j-pop

[Difficulty]
HPDrainRate:4
CircleSize:4
OverallDifficulty:5
SliderMultiplier:1.4
SliderTickRate:0.5

[Events]
//Background and Video events
0,0,"tanakarieningyohime.jpg"
//Break Periods
2,88064,96538
2,163254,174766
//Storyboard Layer 0 (Background)
//Storyboard Layer 1 (Fail)
//Storyboard Layer 2 (Pass)
//Storyboard Layer 3 (Foreground)
//Storyboard Sound Samples
//Background Colour Transformations
3,100,0,0,0

[TimingPoints]
12675,759.493670886076,4,2,1,70,1,0
51607,-200,4,2,1,70,0,0
63569,-100,4,2,1,70,0,0
64328,-100,4,2,1,70,0,1
80904,-100,4,2,1,70,0,0
140277,-100,4,2,1,70,0,1
156708,-100,4,2,1,70,0,0
179773,-100,4,2,1,70,0,1
196292,-100,4,2,1,70,0,0

[Colours]
Combo1 : 255,255,128
Combo2 : 255,128,0
Combo3 : 162,162,253
Combo4 : 255,193,255

[HitObjects]
48,80,13434,1,2
48,168,13814,1,0
48,168,14004,2,0,B|112:168|144:104,1,105,0|0
200,64,14953,2,8,B|256:72|248:144,1,70,2|0
232,152,15523,2,8,B|184:200|248:232,1,70,2|0
232,256,16092,1,2
248,296,16282,2,0,B|280:328|328:312,1,70,2|0
344,288,16852,1,2
376,256,17042,2,0,B|448:232|448:144|368:112,1,175,2|2
328,176,18371,5,2
328,176,18561,2,0,B|256:216|216:152,1,105,2|2
232,128,19320,2,0,B|288:88|352:144,1,105,2|2
328,168,20080,2,0,B|336:166|352:168|360:200|384:224|368:256|352:288|336:296|304:304|280:304|256:320|232:296|200:288|184:256|184:224|168:216|200:168|232:152|248:160,1,385,2|0
223,165,22548,5,2
136,168,22928,1,2
136,168,23118,2,8,B|176:208|200:296|104:328,1,175,2|2
56,280,24447,1,2
56,280,24637,2,0,B|8:232|72:184,1,105,2|2
96,160,25396,2,8,B|77:91|128:64|176:64|208:80,1,175,2|0
248,136,26725,6,0,B|272:168|240:216,2,70,2|0|2
216,104,27675,1,2
168,168,28054,2,0,B|229:92|328:128|352:176,1,210,2|0
349,213,29383,2,0,B|287:288|189:253|165:205,1,210,2|0
112,152,30902,2,0,B|72:112|88:40|152:24|232:48|240:96|200:168,1,280,2|0
192,232,32801,5,0
136,296,33181,1,8
80,232,33561,1,0
136,168,33940,1,4
176,64,34700,6,0,B|224:56|232:128,1,70,2|0
224,144,35269,2,0,B|192:216|280:216,1,105,2|0
352,216,36219,2,0,B|396:213|388:165,1,70,2|0
392,128,36788,2,0,B|408:56|328:64,1,105,2|0
296,64,37548,2,0,B|240:8|192:88,1,105,2|0
208,112,38307,2,0,B|256:168|200:208,1,105,2|0
160,296,39257,5,2
248,296,39637,2,8,B|304:232,1,70,2|2
352,184,40396,1,2
352,184,40586,2,0,B|320:120|368:72,1,105,2|0
400,88,41345,2,8,B|448:144|392:200,1,105,2|0
376,264,42295,1,8
240,264,43054,5,4
240,264,43434,1,2
240,264,43814,2,8,B|304:200|224:128,1,140,2|2
72,104,45333,2,8,B|27:141|87:181,1,70,8|0
96,200,45902,2,8,B|160:256|192:176,1,105,2|0
216,168,46662,2,8,B|184:128|184:96|184:80|176:48|224:0,1,175,0|0
288,56,47991,6,8,B|320:96|280:128,1,70,0|8
208,104,48750,1,2
208,104,48940,1,2
208,104,49320,2,8,B|288:56|376:56|440:112,1,245,2|0
408,208,51409,5,8
408,208,51788,2,0,B|368:224|328:240|264:256|200:240|136:200,1,280
168,168,55206,2,0,B|192:186|256:218|320:202|360:170|368:170,1,210
384,136,57864,2,0,B|344:120|304:104|240:88|176:104|112:144,1,280
144,176,61282,2,0,B|168:159|232:127|296:143|336:175|344:175,1,210
344,256,63940,6,0,B|248:344|152:248,1,210,4|0
96,192,65459,1,8
96,192,65649,2,8,B|96:80,1,105,2|2
176,64,66599,1,8
176,144,66978,2,8,B|176:240,1,70,2|8
264,216,67738,1,2
264,216,67928,2,0,B|304:272|336:272|376:232,1,105,8|0
352,168,68877,6,8,B|352:96,2,70,8|2|8
352,256,70016,2,0,B|309:309|277:309|229:245,1,140,2|2
200,272,70966,2,8,B|232:368|368:368|392:248,1,245,2|0
384,184,72674,1,8
384,96,73054,2,0,B|320:32|251:101,1,140
260,134,74004,2,8,B|236:182|164:182|155:163,1,105,8|0
88,176,74953,6,8,B|-8:176,2,70
168,176,76092,2,8,B|160:104|176:40|248:8|376:64,1,280,2|8
346,52,77801,2,8,B|458:52,1,105,8|8
448,136,78750,2,0,B|352:136,1,70
336,136,79320,2,8,B|384:184|336:232,1,105,8|8
296,232,80080,2,8,B|168:232,1,105,8|0
104,216,81029,5,8
168,160,81409,1,2
88,136,81788,1,8
96,48,82168,2,0,B|224:64|336:144|32:272|272:352,1,420,2|2
257,347,84826,1,8
255,346,85206,2,0,B|480:272|176:144|288:64|416:48,1,420,2|0
409,49,87864,1,8
256,192,97738,5,0
344,192,98118,1,0
256,192,98497,1,8
256,280,98877,1,0
256,192,99257,5,0
168,192,99637,1,0
256,192,100016,1,8
256,104,100396,1,0
256,192,100776,5,0
344,192,101156,1,0
256,192,101535,1,8
256,280,101915,1,0
256,192,102295,2,0,B|256:88,3,70,0|0|8|0
336,104,103814,6,0,B|400:168|320:248,1,140,0|8
256,280,104953,5,0
256,192,105333,1,0
176,192,105712,1,0
256,192,106092,1,8
256,104,106472,1,0
296,176,106852,6,0,B|328:208|280:256,3,70,0|0|8|0
208,240,108371,2,0,B|176:208|224:160,3,70,0|0|8|0
280,136,109890,1,4
416,192,110649,6,8,B|480:144|408:64,1,140,8|0
248,72,112168,1,8
248,160,112548,1,2
336,160,112928,2,0,B|337:256,1,70,2|2
264,280,113687,2,8,B|264:200,1,70,8|2
184,232,114447,2,8,B|184:136,1,70,2|2
184,80,115206,5,8
272,80,115586,2,0,B|272:224,1,140,2|2
272,264,116535,2,0,B|192:360,1,105,0|2
160,344,117295,2,0,B|160:280|160:248|200:184|248:152|376:168,1,315,2|4
464,128,119763,5,2
296,104,120523,1,8
344,264,121282,1,2
176,272,122042,1,8
176,272,122421,2,0,B|176:48,1,210,2|8
256,48,123940,1,2
256,144,124320,1,8
256,240,124700,1,2
256,240,124890,1,2
256,240,125269,2,8,B|320:272|352:240|368:144|320:112|256:144,1,245,8|8
256,144,127358,5,0
192,192,127738,1,0
216,272,128118,1,8
296,272,128497,1,2
320,192,128877,1,0
256,144,129257,1,2
192,192,129637,1,8
216,272,130016,1,0
296,272,130396,1,0
320,192,130776,1,0
400,248,131156,6,0,B|384:312|344:344|280:376|208:368|160:360|120:328|96:288|88:256|88:200,1,420,0|0
208,248,133814,6,0,B|128:216|112:96|144:80|216:8|272:32|368:32|400:112|368:208|288:256,1,560,2|0
400,248,137231,2,0,B|384:312|344:344|280:376|208:368|160:360|120:328|96:288|88:256|88:200,1,420,0|0
192,184,139890,6,0,B|192:144|200:128|216:104|240:96|264:96|296:88|320:96|352:120,1,210,4|0
392,184,141409,1,2
392,184,141599,2,8,B|408:232|392:264|344:272,1,105,0|8
272,272,142548,1,8
184,272,142928,1,2
144,272,143118,2,8,B|97:268|97:236|96:192,1,105,2|2
96,152,143877,2,8,B|144:88|192:168,1,105,2|0
272,160,144826,6,8,B|272:64,2,70,8|0|2
264,248,145966,2,8,B|194:307|128:240,1,140,2|0
136,208,146915,2,8,B|136:144|144:112|176:80|208:64|264:64|296:64,1,245,2|0
360,112,148624,1,8
424,160,149004,2,8,B|472:192|472:240|416:280,1,140,2|2
384,280,149953,2,8,B|336:246|336:198|384:166,1,105,2|0
384,112,150902,6,8,B|455:54,2,70,8|2|8
312,152,152042,2,0,B|312:165|312:221|296:253|264:285|232:293|168:293,1,210,2|2
168,208,153561,1,2
168,208,153750,2,8,B|168:168|192:136|240:136,1,105,8|2
312,136,154700,6,8,B|338:133|362:165|362:205,2,70,8|0|8
224,136,155839,1,2
224,136,156029,2,8,B|184:136|152:160|152:208,1,105,2|2
232,232,156978,5,8
256,312,157358,1,2
176,304,157738,1,8
128,240,158118,6,0,B|128:160|136:144|152:120|176:112|248:120|232:104|320:360|376:88,1,420,2|2
448,144,160776,1,2
376,192,161156,2,0,B|376:152|368:136|352:112|328:104|256:112|272:96|184:352|128:104,1,350,2|4
256,208,175966,12,0,177864
88,40,178244,5,8
40,112,178624,1,0
88,184,179004,1,2
144,248,179383,2,8,B|200:296|240:296|304:296|352:232,1,210,8|0
408,208,180902,5,2
408,208,181092,1,2
400,80,181662,1,8
400,168,182042,1,2
328,120,182421,2,0,B|256:61|179:142,1,140,2|2
168,152,183371,2,0,B|119:182|136:256,1,105,2|0
256,256,184320,5,8
208,328,184700,1,2
160,256,185080,1,8
80,256,185459,2,8,B|32:176|80:112,1,140,2|2
104,104,186409,2,8,B|216:24|360:120,1,245,8|0
352,184,188118,6,0,B|399:162|351:130,3,70,0|0|0|0
320,152,189447,2,0,B|265:113|193:161,1,105,2|0
144,184,190396,5,8
184,256,190776,1,0
264,224,191156,1,8
328,280,191535,2,0,B|288:344|192:344|136:272,1,210,2|0
64,256,193054,6,8,B|32:304,2,35,8|2|0
120,192,193814,1,2
184,136,194193,2,8,B|152:160|184:200,1,70,8|2
224,200,194763,1,8
352,200,195333,1,2
352,200,195523,2,8,B|384:136|320:104,1,105,2|0
256,64,196472,5,8
256,144,196852,1,2
256,224,197231,1,8
176,248,197611,2,0,B|164:267|140:291|88:296|32:312|-4:243|-12:195|4:155|28:131|60:123|96:104|144:112|176:144|184:168,1,420,2|2
256,152,200269,2,0,B|280:112|248:80,1,70,2|2
256,208,201029,12,0,203307
133,194,204067,6,0,B|149:82|261:66|309:82|373:114|373:226,1,350
368,280,206345,1,2
256,208,206725,12,0,209383
379,190,210143,6,0,B|363:302|251:318|203:302|139:270|139:158,1,350
144,104,212421,1,2
256,208,212801,12,4,216219
