osu file format v7

[General]
AudioFilename: Rie Tanaka - Ningyo Hime.mp3
AudioLeadIn: 0
PreviewTime: 65277
Countdown: 0
SampleSet: Soft
StackLeniency: 0.4
Mode: 0
LetterboxInBreaks: 0

[Editor]
Bookmarks: 12682,63758,80847,139708,156796,163252,174834,216227
DistanceSpacing: 1
BeatDivisor: 4
GridSize: 8

[Metadata]
Title:Ningyo Hime
Artist:Tanaka Rie
Creator:Glasslake
Version:Dreaming
Source:Chobits
Tags:jpop j-pop

[Difficulty]
HPDrainRate:7
CircleSize:5
OverallDifficulty:6
SliderMultiplier:1.6
SliderTickRate:0.5

[Events]
//Background and Video events
0,0,"tanakarieningyohime.jpg"
//Break Periods
2,88064,96688
2,163254,174916
//Storyboard Layer 0 (Background)
//Storyboard Layer 1 (Fail)
//Storyboard Layer 2 (Pass)
//Storyboard Layer 3 (Foreground)
//Storyboard Sound Samples
//Background Colour Transformations
3,100,0,0,0

[TimingPoints]
12675,759.493670886076,4,2,1,70,1,0
55024,-100,4,2,1,70,0,0
57303,-100,4,2,1,70,0,0
64328,-100,4,2,1,70,0,1
80904,-100,4,2,1,70,0,0
140277,-100,4,2,1,70,0,1
156708,-100,4,2,1,70,0,0
179773,-100,4,2,1,70,0,1
196292,-100,4,2,1,70,0,0

[Colours]
Combo1 : 255,255,128
Combo2 : 255,128,0
Combo3 : 162,162,253
Combo4 : 255,193,255

[HitObjects]
56,112,13434,1,8
128,144,13814,1,0
160,112,14004,1,2
232,144,14383,1,0
264,112,14573,1,2
344,112,14953,5,8
400,168,15333,1,0
432,200,15523,1,2
375,256,15902,1,2
346,284,16092,1,0
317,255,16282,1,0
200,256,16852,1,2
200,256,17042,2,0,B|136:208|128:144|216:80,1,200,0|8
272,56,18371,5,2
300,27,18561,1,0
328,55,18750,1,8
328,135,19130,1,2
299,163,19320,1,0
270,134,19510,1,8
200,96,19890,1,0
160,96,20080,1,2
120,96,20269,1,8
72,160,20649,5,0
120,224,21029,1,8
168,160,21409,1,0
216,224,21788,1,8
272,160,22168,1,0
344,192,22548,5,8
288,248,22928,1,2
259,276,23118,1,2
179,276,23497,1,2
150,247,23687,1,2
96,192,24067,1,8
152,135,24447,1,2
152,135,24637,2,2,B|216:87|280:151,1,120,2|2
290,163,25396,2,0,B|194:259|98:139,1,200,2|2
176,104,26725,5,2
208,136,26915,1,0
240,160,27105,1,8
240,240,27485,1,2
208,272,27675,1,2
128,272,28054,2,0,B|48:184|83:143|126:93,1,200,2|0
200,88,29383,2,0,B|264:137|264:256|182:318,1,240,8|2
144,248,30902,5,8
88,192,31282,1,0
144,136,31662,1,2
224,136,32042,1,0
288,192,32421,1,8
344,248,32801,1,0
424,248,33181,1,2
480,192,33561,1,0
424,136,33940,1,4
344,56,34700,5,8
288,112,35080,1,0
264,144,35269,2,0,B|232:216|270:265,1,120,2|0
344,256,36219,5,8
304,232,36409,1,0
336,208,36599,1,0
376,224,36788,1,2
392,264,36978,1,8
344,328,37358,1,2
304,328,37548,2,0,B|240:376|192:328,1,120,2|0
167,302,38307,2,0,B|120:246|168:190,1,120,2|0
232,240,39257,5,8
296,192,39637,1,2
320,160,39826,1,2
296,128,40016,1,8
216,128,40396,1,2
192,96,40586,1,2
216,64,40776,1,8
296,64,41156,5,0
336,64,41345,2,8,B|368:128|320:192,1,120,2|0
280,240,42295,1,8
216,296,42674,1,0
152,240,43054,1,8
216,184,43434,1,0
152,128,43814,5,8
232,128,44193,2,0,B|328:128,1,80,2|8
392,128,44953,1,2
392,208,45333,5,8
336,264,45712,1,2
304,288,45902,1,0
272,264,46092,1,8
216,208,46472,1,0
232,168,46662,2,0,B|256:120|288:104|320:104|368:112|390:187,1,200,2|8
424,240,47991,5,2
448,272,48181,1,0
424,304,48371,1,8
344,296,48750,1,2
344,256,48940,1,10
296,192,49320,2,0,B|184:288|328:384,1,200,2|2
360,312,50649,2,0,B|312:272|376:232,1,80
432,280,51409,5,2
360,240,51788,1,0
280,264,52168,1,8
208,296,52548,1,0
128,304,52928,2,0,B|80:288|40:248,1,80,2|2
120,208,53687,5,8
176,152,54067,1,0
232,208,54447,1,2
176,264,54826,1,0
96,280,55206,2,8,B|48:232|48:152|128:120,2,160,8|2|8
80,192,57485,5,2
128,144,57864,2,0,B|160:96|224:32|320:32|400:128|480:208|352:336|272:336|192:320|160:288|112:224,1,640
176,208,61282,2,0,B|192:288|288:288|400:208|336:144|272:96|224:96|160:144|176:176,1,400
112,208,63561,5,2
112,272,63940,2,0,B|64:272|16:240|0:192|32:144|96:144|144:144,1,240,0|8
200,144,65459,5,2
200,144,65649,1,8
256,256,66219,1,2
312,192,66599,1,8
256,128,66978,1,2
200,192,67358,1,8
136,248,67738,1,2
136,248,67928,2,0,B|80:312|152:368,1,120,2|0
216,328,68877,5,8
256,256,69257,1,2
296,328,69637,1,8
376,328,70016,2,0,B|456:240|352:184,1,160,2|0
344,168,70966,2,8,B|285:108|176:88|80:176,1,280,2|0
72,240,72674,5,8
152,240,73054,1,2
184,272,73244,1,0
216,240,73434,1,8
296,240,73814,1,2
296,240,74004,2,0,B|344:216|352:168|272:144,1,120
216,168,74953,6,8,B|216:240,4,40,8|0|2|0|8
184,96,76092,2,0,B|96:152|104:232|136:272|216:296,1,240,2|0
256,248,77611,1,2
288,224,77801,1,2
376,144,78371,5,2
408,168,78561,1,2
408,128,78750,1,8
376,104,78940,1,2
344,128,79130,1,2
360,168,79320,2,0,B|320:216|312:240|336:288,1,120
328,312,80080,2,8,B|200:312,1,120,8|2
128,304,81029,5,8
48,304,81409,1,2
48,224,81788,1,8
128,224,82168,2,0,B|144:64|304:16|432:80|432:240,1,480,2|2
432,304,84826,1,2
256,192,85206,12,4,87864
256,128,97738,5,0
320,184,98118,1,0
296,264,98497,1,8
216,264,98877,1,0
192,184,99257,5,0
256,128,99637,1,0
320,184,100016,1,8
296,264,100396,1,0
216,264,100776,5,0
192,184,101156,1,0
256,128,101535,1,8
320,184,101915,1,0
328,264,102295,2,0,B|256:320|168:256,1,160,0|8
192,184,103434,1,0
179,102,103814,6,0,B|251:46|339:110,1,160,0|8
320,184,104953,1,0
296,264,105333,1,0
216,264,105712,1,0
192,184,106092,1,8
256,128,106472,1,0
296,264,106852,5,8
360,208,107231,1,2
296,152,107611,1,2
232,208,107991,1,2
168,264,108371,1,8
104,208,108750,1,2
168,152,109130,1,2
232,208,109510,1,2
288,264,109890,1,4
360,208,110269,5,2
440,208,110649,1,8
400,136,111029,1,2
400,136,111219,2,0,B|376:88|320:80|272:120,1,120,2|2
216,136,112168,5,8
152,184,112548,1,2
120,216,112738,1,0
152,248,112928,1,8
216,296,113307,1,2
216,216,113687,1,8
216,136,114067,1,2
280,184,114447,1,8
304,216,114637,1,0
280,248,114826,1,2
360,256,115206,5,8
392,224,115396,1,2
360,192,115586,1,2
328,224,115776,2,0,B|272:192|272:160|304:136,1,80,2|2
256,128,116345,1,2
224,96,116535,2,0,B|152:112|144:184,1,120,2|0
176,208,117295,2,0,B|230:285|289:313|343:275|351:240|369:193|333:162|266:112,1,360,2|4
112,112,119763,5,8
192,136,120143,1,0
192,136,120333,1,2
136,192,120712,1,2
136,192,120902,1,2
184,256,121282,6,0,B|143:307|216:351,1,80,8|0
228,330,121852,2,0,B|268:278|195:234,1,80,8|0
184,256,122421,1,2
184,256,122611,2,0,B|128:209|109:134|183:63,1,200,0|8
216,144,123940,5,8
296,144,124320,1,8
328,112,124510,1,0
360,144,124700,1,0
328,176,124890,1,8
408,184,125269,2,0,B|384:272|288:328|184:240,1,280
256,192,127358,5,2
256,192,127738,1,0
256,192,128118,1,8
199,248,128497,1,0
142,191,128877,1,2
199,135,129257,1,0
256,192,129637,5,8
312,248,130016,1,0
369,192,130396,1,2
424,136,130776,1,0
448,208,131156,2,0,B|368:288|256:352|176:288|128:240|96:192,1,400,8|0
107,208,133434,5,8
107,207,133814,2,0,B|299:207,4,160
107,207,137231,2,0,B|187:126|299:62|379:126|427:174|459:222,1,400,2|0
368,208,139510,5,8
368,208,139700,1,0
368,208,139890,2,0,B|336:312|224:288|192:240|192:192,1,240,2|2
176,128,141409,5,2
176,128,141599,1,8
96,216,142168,1,8
152,152,142548,1,8
184,120,142738,1,0
216,88,142928,1,2
256,88,143118,2,8,B|256:40|336:32|336:40,1,80,8|0
344,64,143687,1,8
376,96,143877,1,8
376,176,144257,1,8
344,208,144447,1,8
256,176,144826,5,8
192,224,145206,1,2
264,256,145586,1,8
336,296,145966,2,8,B|256:360|176:296,1,160,8|0
128,248,147105,1,8
192,192,147485,1,0
256,144,147864,1,8
320,96,148244,1,0
344,176,148624,5,8
344,216,148814,1,0
312,240,149004,2,0,B|224:304|136:224,1,160,2|0
128,224,149953,2,0,B|88:192|88:136|152:104,1,120
168,64,150902,5,8
224,120,151282,1,2
168,184,151662,1,8
224,240,152042,2,0,B|237:240|293:240|325:224|352:176|365:160|368:64,1,240,2|8
288,88,153561,5,8
264,120,153750,1,2
192,216,154320,1,2
176,184,154510,1,0
208,184,154700,1,8
224,216,154890,1,0
208,248,155080,1,0
176,248,155269,1,0
160,216,155459,1,8
96,168,155839,1,2
64,136,156029,1,8
128,80,156409,1,8
160,112,156599,1,2
256,112,156978,5,8
256,192,157358,1,0
256,272,157738,1,2
328,232,158118,1,0
256,192,158497,1,8
184,152,158877,1,0
256,112,159257,1,2
328,152,159637,1,0
256,192,160016,1,8
184,232,160396,1,0
256,272,160776,1,8
256,192,161156,12,4,163054
256,192,175966,12,0,177864
136,56,178244,6,8,B|128:104,1,40,8|0
128,136,178624,2,8,B|152:184,1,40,8|0
144,208,179004,2,8,B|136:256,1,40,8|0
152,288,179383,2,8,B|208:336|280:336|312:336|392:288,1,240,8|8
440,248,180902,5,2
400,248,181092,1,8
280,240,181662,1,8
272,160,182042,1,8
224,160,182231,1,0
248,200,182421,1,0
296,200,182611,1,0
320,160,182801,1,8
296,120,182991,1,0
248,120,183181,1,0
168,120,183561,1,8
336,152,184320,5,8
272,208,184700,1,2
208,256,185080,1,8
128,256,185459,2,0,B|32:192|144:112,1,160,2|2
208,128,186599,2,8,B|320:48|464:144,1,240,8|0
456,200,188118,5,8
408,136,188497,1,2
352,80,188877,1,8
352,40,189067,1,0
320,64,189257,1,0
280,64,189447,2,0,B|152:64,1,120,2|8
64,64,190396,6,0,B|72:112,1,40,8|0
72,144,190776,2,0,B|48:192,1,40,8|0
64,216,191156,2,0,B|72:264,1,40,8|0
88,296,191535,2,0,B|166:344|198:344|270:344|326:296,1,240,8|8
367,265,193054,5,2
400,240,193244,1,0
368,216,193434,1,8
320,136,193814,1,2
256,80,194193,1,8
192,136,194573,1,8
192,136,194763,1,8
256,232,195333,1,2
256,232,195523,2,8,B|213:286|130:262,1,120,2|0
80,216,196472,5,8
40,144,196852,1,2
120,144,197231,1,8
184,96,197611,2,0,B|184:64|220:29|264:32|328:8|376:80|408:128|376:192|328:224|280:240|264:240|216:224|184:192|180:157,1,480,2|0
120,144,200269,1,8
256,192,200649,12,0,203307
215,192,204067,6,0,B|183:176|148:156|151:112|127:48|183:-16|247:-32|359:32|343:48|359:96|359:112|343:160|327:176|279:208,1,480,2|0
256,192,206725,12,0,209383
144,192,210143,5,8
200,128,210523,1,0
256,64,210902,1,8
312,128,211282,1,0
360,192,211662,1,8
312,256,212042,1,0
256,320,212421,1,8
200,256,212801,1,8
256,192,213181,12,4,216219
