osu file format v5

[General]
AudioFilename: Eternal.mp3
AudioLeadIn: 0
PreviewTime: -1
Countdown: 1
SampleSet: Soft
StackLeniency: 0.7
Mode: 0
LetterboxInBreaks: 1
EditorBookmarks: 23027,60914,104920,80253,84573,104488,110668,79978,87533,84317,108308,84891

[Metadata]
Title:Mabinogi - Eternal
Artist:Tanaka Rie
Creator:darksen
Version:Easy
Source:
Tags:darksen tanaka rie mabinogi eternal

[Difficulty]
HPDrainRate:1
CircleSize:4
OverallDifficulty:0
SliderMultiplier:2
SliderTickRate:4

[Events]
//Background and Video events
0,0,"mabinogiw102637Nq6U0v.jpg"
//Break Periods
//Storyboard Layer 0 (Background)
//Storyboard Layer 1 (Failing)
//Storyboard Layer 2 (Passing)
//Storyboard Layer 3 (Foreground)
//Storyboard Sound Samples
//Background Colour Transformations
3,100,163,162,255

[TimingPoints]
0,1142.85714285714,4,2,0,100,1,0

[Colours]
Combo1 : 64,0,64
Combo2 : 128,128,255
Combo3 : 255,128,255
Combo4 : 255,255,128
Combo5 : 128,255,255

[HitObjects]
81,32,18286,5,0
81,33,18857,1,0
81,32,19429,1,0
152,63,20000,5,0
153,140,20572,5,0
153,140,21143,1,0
153,140,21714,1,0
83,176,22286,5,0
96,96,22857,1,0
160,160,23429,1,0
257,257,24000,5,0
316,304,24572,5,0
376,250,25143,6,0,B|374:40|380:44,1,200
333,56,27429,5,0
333,56,28000,1,0
333,56,28572,1,0
260,64,29143,5,0
238,131,29714,5,0
205,170,30286,1,0
168,214,30857,1,0
111,252,31429,5,0
57,171,32000,5,0
130,96,32572,1,0
206,55,33143,1,0
297,33,33714,1,0
372,94,35143,6,0,B|401:138,1,50
370,195,36572,5,0
370,195,37143,1,0
370,195,37714,1,0
332,265,38286,5,0
410,328,38857,5,0
410,328,39429,1,0
410,328,40000,1,0
218,305,41143,2,0,B|96:192,1,150
127,178,42286,2,0,B|256:64,1,150
288,64,43429,2,0,B|416:192,1,150
321,158,45714,5,0
322,208,46286,1,0
324,258,46857,1,0
252,300,47429,5,0
198,228,48000,2,0,B|72:61,1,200
78,36,49429,5,0
58,113,50286,1,0
61,184,50857,5,0
61,184,51143,1,0
61,184,51429,1,0
188,67,52572,2,0,B|236:92,1,50
232,89,53143,1,0
292,183,53714,6,0,B|304:251,1,50
301,230,54286,1,0
350,252,54857,1,0
395,303,55429,1,0
465,344,56000,1,0
103,152,58286,5,0
96,220,58857,1,0
192,192,59532,2,0,B|192:128,11,50
164,251,64000,1,0
238,254,64572,1,0
238,254,64857,1,0
238,254,65143,1,0
340,298,65714,5,0
417,316,66286,5,0
417,316,66857,1,0
417,316,67429,1,0
356,226,68000,5,0
288,196,68572,1,0
216,177,69143,1,0
150,165,69714,1,0
150,165,70286,6,0,B|65:88,1,100
84,32,71429,5,0
84,32,71714,1,0
84,32,72000,1,0
168,76,73143,5,0
235,56,73714,5,0
262,76,74000,1,0
287,99,74286,2,0,B|404:150|400:147,1,100
362,202,75429,2,0,B|166:324|168:322,1,200
64,288,77143,5,0
128,288,77714,1,0
192,288,78286,1,0
224,288,78572,1,0
279,267,78857,5,0
338,268,79429,1,0
396,268,80000,1,0
384,224,80572,5,0
384,224,80857,1,0
384,224,81143,1,0
384,96,82286,6,0,B|256:96|288:96,1,100
341,163,83429,5,0
192,160,84572,5,0
96,128,85143,1,0
96,128,85429,1,0
96,128,85714,1,0
64,192,86857,6,0,B|192:192,1,100
64,256,88000,5,0
160,256,88572,1,0
256,256,89143,1,0
256,96,90286,2,0,B|320:128|352:160|384:192|384:256|352:320|288:352|224:352|160:320|128:256|96:192|128:128|192:96,1,600
96,96,94857,6,0,B|160:96,3,50
128,224,97143,6,0,B|160:288|192:288,3,50
416,160,99429,6,0,B|352:96,3,50
288,128,100572,6,0,B|352:192,3,50
192,128,101714,5,0
192,128,102000,1,0
192,128,102286,1,0
192,128,102572,1,0
128,160,103143,6,0,B|96:288,1,100
64,320,103999,5,0
128,256,104571,1,0
256,256,105142,1,0
160,256,106286,5,0
256,192,106857,1,0
320,128,107429,2,0,B,1,100
384,64,108000,1,0
416,32,108572,5,0
416,128,109429,1,0
415,196,110000,1,0
393,227,110286,1,0
369,269,110572,1,0
304,343,110857,6,0,B|144:158|144:160,1,200
256,192,112571,12,0,114000
