osu file format v6

[General]
AudioFilename: Tanaka Rie - EMOTION.mp3
AudioLeadIn: 0
PreviewTime: 98255
Countdown: 0
SampleSet: Normal
StackLeniency: 0.9
Mode: 0
LetterboxInBreaks: 1

[Editor]
DistanceSpacing: 1
BeatDivisor: 4
GridSize: 8

[Metadata]
Title:EMOTION
Artist:Tanaka Rie
Creator:quintitem
Version:Hard
Source:Mobile Suit Gundam Seed Destiny
Tags:Anime

[Difficulty]
HPDrainRate:8
CircleSize:5
OverallDifficulty:7
SliderMultiplier:1.4
SliderTickRate:0.5

[Events]
//Background and Video events
0,0,"Lacus3.jpg"
//Break Periods
2,84518,95419
2,149164,166258
//Storyboard Layer 0 (Background)
//Storyboard Layer 1 (Fail)
//Storyboard Layer 2 (Pass)
//Storyboard Layer 3 (Foreground)
Sprite,Foreground,Centre,"StoryBoard\Title.png",320,240 M,0,707,2255,151,462,151,420 F,0,707,2255,0,1 F,0,2255,4965,1 M,0,4965,6513,151,420,151,462 F,0,4965,6513,1,0
Sprite,Foreground,Centre,"StoryBoard\2.png",320,240 M,0,22384,,551,418 F,0,22384,22577,0,1 F,0,22577,25287,1 F,0,25287,25481,1,0
Sprite,Foreground,Centre,"StoryBoard\1.png",320,240 M,0,19287,,386,421 F,0,19287,19481,0,1 F,0,19481,25287,1 F,0,25287,25481,1,0
Sprite,Foreground,Centre,"StoryBoard\4.png",320,240 M,0,29932,,580,417 F,0,29932,30126,0,1 F,0,30126,31287,1 F,0,31287,31481,1,0
Sprite,Foreground,Centre,"StoryBoard\3.png",320,240 M,0,25868,,430,420 F,0,25868,26061,0,1 F,0,26061,31287,1 F,0,31287,31481,1,0
Sprite,Foreground,Centre,"StoryBoard\6.png",320,240 M,0,34771,,564,420 F,0,34771,34965,0,1 F,0,34965,37674,1 F,0,37674,37868,1,0
Sprite,Foreground,Centre,"StoryBoard\5.png",320,240 M,0,31674,,396,418 F,0,31674,31868,0,1 F,0,31868,37674,1 F,0,37674,37868,1,0
Sprite,Foreground,Centre,"StoryBoard\7.png",320,240 M,0,38255,,448,420 F,0,38255,38448,0,1 F,0,38448,43868,1 F,0,43868,44061,1,0
Sprite,Foreground,Centre,"StoryBoard\8.png",320,240 M,0,44448,,493,420 F,0,44448,44642,0,1 F,0,44642,49287,1 F,0,49287,49481,1,0
Sprite,Foreground,Centre,"StoryBoard\9.png",320,240 M,0,49674,,522,420 F,0,49674,49868,0,1 F,0,49868,55868,1 F,0,55868,56061,1,0
Sprite,Foreground,Centre,"StoryBoard\12.png",320,240 M,0,62255,,593,420 F,0,62255,62448,0,1 F,0,62448,64771,1 F,0,64771,64965,1,0
Sprite,Foreground,Centre,"StoryBoard\11.png",320,240 M,0,58577,,413,422 F,0,58577,58771,0,1 F,0,58771,64771,1 F,0,64771,64965,1,0
Sprite,Foreground,Centre,"StoryBoard\13.png",320,240 M,0,65352,,468,421 F,0,65352,65545,0,1 F,0,65545,70577,1 F,0,70577,70771,1,0
Sprite,Foreground,Centre,"StoryBoard\15.png",320,240 M,0,74642,,571,420 F,0,74642,74836,0,1 F,0,74836,77158,1 F,0,77158,77352,1,0
Sprite,Foreground,Centre,"StoryBoard\14.png",320,240 M,0,70965,,343,421 F,0,70965,71158,0,1 F,0,71158,77158,1 F,0,77158,77352,1,0
Sprite,Foreground,Centre,"StoryBoard\16.png",320,240 M,0,77739,,449,420 F,0,77739,77932,0,1 F,0,77932,84126,1 F,0,84126,84319,1,0
Sprite,Foreground,Centre,"StoryBoard\22.png",320,240 M,0,99803,,531,420 F,0,99803,99997,0,1 F,0,99997,102706,1 F,0,102706,102900,1,0
Sprite,Foreground,Centre,"StoryBoard\21.png",320,240 M,0,96706,,363,422 F,0,96706,96900,0,1 F,0,96900,102706,1 F,0,102706,102900,1,0
Sprite,Foreground,Centre,"StoryBoard\24.png",320,240 M,0,107352,,569,420 F,0,107352,107545,0,1 F,0,107545,108513,1 F,0,108513,108706,1,0
Sprite,Foreground,Centre,"StoryBoard\23.png",320,240 M,0,103287,,371,417 F,0,103287,103481,0,1 F,0,103481,108513,1 F,0,108513,108706,1,0
Sprite,Foreground,Centre,"StoryBoard\26.png",320,240 M,0,112190,,562,418 F,0,112190,112384,0,1 F,0,112384,115094,1 F,0,115094,115287,1,0
Sprite,Foreground,Centre,"StoryBoard\25.png",320,240 M,0,109094,,397,418 F,0,109094,109287,0,1 F,0,109287,115094,1 F,0,115094,115287,1,0
Sprite,Foreground,Centre,"StoryBoard\27.png",320,240 M,0,115674,,493,420 F,0,115674,115868,0,1 F,0,115868,120900,1 F,0,120900,121094,1,0
Sprite,Foreground,Centre,"StoryBoard\28.png",320,240 M,0,121868,,498,420 F,0,121868,122061,0,1 F,0,122061,126706,1 F,0,126706,126900,1,0
Sprite,Foreground,Centre,"StoryBoard\29.png",320,240 M,0,127094,,503,420 F,0,127094,127287,0,1 F,0,127287,133674,1 F,0,133674,133868,1,0
Sprite,Foreground,Centre,"StoryBoard\32.png",320,240 M,0,139674,,570,420 F,0,139674,139868,0,1 F,0,139868,142190,1 F,0,142190,142384,1,0
Sprite,Foreground,Centre,"StoryBoard\31.png",320,240 M,0,135997,,347,422 F,0,135997,136190,0,1 F,0,136190,142190,1 F,0,142190,142384,1,0
Sprite,Foreground,Centre,"StoryBoard\33.png",320,240 M,0,142771,,474,421 F,0,142771,142965,0,1 F,0,142965,148771,1 F,0,148771,148965,1,0
Sprite,Foreground,Centre,"StoryBoard\42.png",320,240 M,0,170642,,559,417 F,0,170642,170836,0,1 F,0,170836,173158,1 F,0,173158,173352,1,0
Sprite,Foreground,Centre,"StoryBoard\41.png",320,240 M,0,166965,,323,418 F,0,166965,167158,0,1 F,0,167158,173158,1 F,0,173158,173352,1,0
Sprite,Foreground,Centre,"StoryBoard\43.png",320,240 M,0,173739,,454,420 F,0,173739,173932,0,1 F,0,173932,178965,1 F,0,178965,179158,1,0
Sprite,Foreground,Centre,"StoryBoard\45.png",320,240 M,0,183029,,578,421 F,0,183029,183223,0,1 F,0,183223,185545,1 F,0,185545,185739,1,0
Sprite,Foreground,Centre,"StoryBoard\44.png",320,240 M,0,179352,,365,424 F,0,179352,179545,0,1 F,0,179545,185545,1 F,0,185545,185739,1,0
Sprite,Foreground,Centre,"StoryBoard\46.png",320,240 M,0,186126,,463,420 F,0,186126,186319,0,1 F,0,186319,191352,1 F,0,191352,191545,1,0
Sprite,Foreground,Centre,"StoryBoard\12.png",320,240 M,0,195416,,592,420 F,0,195416,195610,0,1 F,0,195610,197932,1 F,0,197932,198126,1,0
Sprite,Foreground,Centre,"StoryBoard\11.png",320,240 M,0,191739,,414,422 F,0,191739,191932,0,1 F,0,191932,197932,1 F,0,197932,198126,1,0
Sprite,Foreground,Centre,"StoryBoard\13.png",320,240 M,0,198513,,464,420 F,0,198513,198706,0,1 F,0,198706,203739,1 F,0,203739,203932,1,0
Sprite,Foreground,Centre,"StoryBoard\15.png",320,240 M,0,207803,,567,420 F,0,207803,207997,0,1 F,0,207997,210319,1 F,0,210319,210513,1,0
Sprite,Foreground,Centre,"StoryBoard\14.png",320,240 M,0,204126,,338,421 F,0,204126,204319,0,1 F,0,204319,210319,1 F,0,210319,210513,1,0
Sprite,Foreground,Centre,"StoryBoard\16.png",320,240 M,0,210900,,446,421 F,0,210900,211094,0,1 F,0,211094,217287,1 F,0,217287,217481,1,0
//Storyboard Sound Samples
//Background Colour Transformations
3,100,163,162,255

[TimingPoints]
707,387.096774193548,4,1,0,90,1,0
18900,-100,4,1,0,80,0,0
43577,-100,4,1,0,70,0,0
44061,-100,4,1,0,80,0,0
51610,-200,4,1,0,80,0,0
53739,-200,4,1,0,0,0,0
53836,-200,4,1,0,80,0,0
54319,-200,4,1,0,0,0,0
54416,-100,4,1,0,80,0,0
54513,1548.38709677419,4,1,0,80,1,0
56061,387.096774193548,4,1,0,80,1,0
58964,-100,4,1,0,90,0,0
64190,-200,4,1,0,90,0,0
64964,-100,4,1,0,75,0,0
65157,-100,4,1,0,90,0,0
76577,-200,4,1,0,90,0,0
77351,-100,4,1,0,75,0,0
77544,-100,4,1,0,90,0,0
83835,-100,4,1,0,70,0,0
84319,-100,4,1,0,90,0,0
96125,-100,4,1,0,80,0,0
108706,-100,4,1,0,65,0,0
108899,-100,4,1,0,80,0,0
120996,-100,4,1,0,70,0,0
121431,-100,4,1,0,80,0,0
129028,-200,4,1,0,80,0,0
129996,-100,4,1,0,80,0,0
131932,1548.38709677419,4,1,0,80,1,0
133481,387.096774193548,4,1,0,80,1,0
136384,-100,4,1,0,90,0,0
141610,-200,4,1,0,90,0,0
142384,-100,4,1,0,75,0,0
142577,-100,4,1,0,90,0,0
166771,-100,4,2,0,90,0,0
167158,-200,4,2,2,100,0,0
167932,-200,4,1,0,90,0,0
169093,-200,4,2,2,100,0,0
178964,-100,4,1,0,90,0,0
184964,-200,4,1,0,90,0,0
185739,-100,4,1,0,75,0,0
185932,-100,4,1,0,90,0,0
197351,-200,4,1,0,90,0,0
198126,-100,4,1,0,75,0,0
198319,-100,4,1,0,90,0,0
209739,-200,4,1,0,90,0,0
210513,-100,4,1,0,75,0,0
210706,-100,4,1,0,90,0,0
216997,-100,4,1,0,70,0,0
217481,-100,4,1,0,90,0,0

[Colours]
Combo1 : 254,170,56
Combo2 : 217,74,99
Combo3 : 251,231,53
Combo4 : 231,60,255

[HitObjects]
256,192,6513,1,0
172,108,6900,5,4
172,108,7287,2,0,B|110:80|63:115,2,105
228,108,8061,1,0
284,108,8255,1,0
340,108,8448,5,0
340,108,8836,2,0,B|402:80|449:115,2,105
340,164,9610,1,0
340,220,9803,1,0
340,276,9997,5,0
340,276,10384,2,0,B|402:304|449:269,2,105
284,276,11158,1,0
228,276,11352,1,0
172,276,11545,5,0
172,276,11932,2,0,B|110:304|63:269,2,105
172,220,12706,1,0
172,164,12900,1,0
172,108,13094,5,4
284,108,13481,2,0,B|346:80|393:115,2,105
236,136,14255,1,0
196,176,14448,1,0
180,228,14642,5,0
292,228,15029,2,0,B|354:256|401:221,2,105
244,196,15803,1,0
200,160,15997,1,0
172,108,16190,5,0
256,192,16384,12,4,18900
52,64,19287,5,0
164,64,19674,1,0
164,64,19868,2,0,B|241:66|291:120,1,140
316,164,20448,1,0
316,164,20836,1,0
316,276,21223,1,0
316,276,21416,2,0,B|268:337|196:345,1,140
199,346,21997,1,0
92,308,22384,5,0
24,216,22771,1,0
23,216,22965,2,0,B|71:155|143:147,1,140
140,148,23545,1,0
252,148,23932,1,0
252,148,24126,1,0
308,148,24319,1,0
308,148,24513,2,0,B|352:140|376:184,1,70
336,220,24900,2,0,B|352:260|412:260,1,70
440,228,25287,2,0,B|476:244|484:292,1,70,0|4
380,328,25868,5,0
268,328,26255,1,0
212,328,26448,1,0
156,328,26642,1,0
100,328,26836,2,0,B|52:224|106:112,1,210
192,60,27803,1,0
300,44,28190,1,0
412,56,28577,5,0
412,56,28771,1,0
412,56,28965,1,0
412,56,29158,2,0,B|460:160|406:272,1,210
364,288,29932,1,0
364,288,30126,2,0,B|316:284|312:224,1,70
280,200,30513,1,0
280,200,30706,2,0,B|260:156|208:156,1,70
116,152,31287,1,4
116,151,31674,6,0,B|158:87|231:73,1,140,0|0
284,75,32255,2,0,B|354:88|396:152,1,140
396,152,32836,1,0
395,263,33223,2,0,B|353:327|280:341,1,140,0|0
227,339,33803,2,0,B|157:326|115:262,1,140
116,263,34384,1,0
52,168,34771,5,0
116,76,35158,1,0
116,75,35352,2,0,B|191:96|227:159,1,140
224,212,35932,1,0
224,212,36319,2,0,B|236:264|292:260,1,70
320,275,36706,2,0,B|364:281|374:330,1,70
428,316,37094,2,0,B|432:268|476:272,1,70
471,215,37481,2,0,B|466:178|430:162,1,70
431,162,37868,1,4
431,48,38255,6,0,B|354:51|305:105,1,140
272,148,38836,1,0
252,200,39029,1,0
223,247,39223,2,0,B|159:342|35:353,1,210
20,244,40190,1,0
56,136,40577,1,0
144,68,40965,5,0
196,48,41158,1,0
252,40,41352,1,0
308,40,41545,1,0
416,72,41932,1,0
416,72,42126,1,0
456,108,42319,1,0
456,108,42513,1,0
480,156,42706,2,0,B|476:204|428:212,1,70
384,216,43094,2,0,B|344:240|340:272,1,70
340,324,43481,1,0
340,324,43674,2,0,B|400:324,4,35,0|0|0|0|4
228,324,44448,5,0
124,280,44836,1,0
124,280,45029,1,0
48,196,45416,1,0
47,195,45610,2,0,B|70:128|139:94,1,140
247,76,46384,2,0,B|315:80|340:133,2,105
248,76,47158,1,0
248,188,47545,1,0
247,300,47932,2,0,B|315:296|340:243,2,105
248,301,48706,1,0
248,188,49094,1,0
248,188,49481,1,0
192,188,49674,5,0
140,208,49868,1,0
104,252,50061,1,0
104,251,50255,2,0,B|56:300|73:356,2,105
16,100,51416,1,0
15,99,51803,2,0,B|85:110|131:172,1,140
130,171,52771,1,0
130,171,52965,1,0
240,176,53352,6,0,B|284:184|296:124,1,70,0|0
340,112,53932,2,0,B|380:108|400:156,1,70
448,156,54513,2,0,B|492:212|404:240|456:296,1,140,0|0
340,320,56448,5,0
172,320,57028,1,0
256,172,57609,1,0
156,120,57996,6,0,B|192:108,1,35,4|0
244,96,58286,2,0,B|284:96,1,35,0|0
331,108,58577,2,0,B|365:120,2,35,0|0|4
400,192,59157,5,0
400,192,59544,2,0,B|462:163|466:105,2,105
344,208,60319,1,0
232,208,60706,1,0
176,216,60899,1,0
123,235,61093,2,0,B|61:264|57:322,2,105
123,235,61867,1,0
208,303,62254,6,0,B|277:288|319:224,1,140
420,180,63028,2,0,B|476:225|484:301,2,140
328,116,64190,2,0,B|257:87|192:115,1,140,0|4
268,196,65351,5,0
227,287,65738,2,0,B|203:328|135:326,2,105,0|0|0
225,285,66512,1,0
168,191,66899,2,0,B|141:126|71:95,2,140
263,248,68061,2,0,B|290:313|360:344,2,140
263,136,69222,2,0,B|290:71|360:40,2,140
263,137,70383,1,0
164,192,70770,2,0,B|88:192,2,70,0|0|0
164,304,71544,5,4
163,304,71931,2,0,B|96:318|79:374,2,105
216,296,72706,1,0
328,292,73093,1,0
328,292,73286,1,0
328,292,73480,2,0,B|395:278|412:222,2,105
272,296,74254,1,0
200,208,74641,5,0
200,208,75028,2,0,B|130:198|83:137,2,140,0|0|0
312,208,76190,1,0
312,208,76577,2,0,B|382:198|429:137,1,140,0|4
328,84,77738,5,0
328,84,78125,2,0,B|344:39|411:28,2,105,0|0|0
308,136,78899,1,0
196,136,79286,1,0
196,136,79673,2,0,B|169:71|99:40,2,140
196,248,80835,1,0
196,248,81222,2,0,B|169:313|99:344,2,140
308,248,82383,1,0
308,248,82770,2,0,B|335:313|405:344,2,140
308,192,83738,1,0
308,192,83931,2,0,B|308:148,4,35,0|0|0|0|4
256,48,96319,5,4
256,48,96706,6,0,B|179:50|129:104,1,140
92,160,97286,1,0
132,292,97673,1,0
132,292,97867,2,0,B|187:347|260:346,2,140
92,232,98835,1,0
224,192,99222,1,0
224,192,99415,1,0
255,55,99802,6,0,B|332:50|386:98,1,140
447,124,100383,2,0,B|458:201|413:258,1,140
387,319,100964,2,0,B|310:326|254:280,1,140
256,280,101544,1,0
321,253,101738,1,0
348,188,101931,1,0
321,122,102125,1,0
256,96,102319,1,0
190,122,102512,1,0
164,188,102706,1,0
190,253,102899,1,4
60,192,103286,5,0
60,192,103673,2,0,B|12:180|20:120,1,70,0|0
20,72,104061,1,0
20,72,104254,2,0,B|124:24|236:78,1,210
324,168,105222,1,0
364,300,105609,1,0
364,300,105996,6,0,B|404:288|412:232,1,70
416,180,106383,1,0
416,179,106577,2,0,B|392:106|328:72,1,140
256,192,107157,12,4,108706
400,60,109093,5,0
400,60,109480,2,0,B|352:72|344:112,1,70
452,192,110061,2,0,B|436:228|388:232,1,70
268,288,110641,1,0
268,288,111028,1,0
208,256,111222,1,0
208,256,111609,1,0
164,200,111802,1,0
140,60,112190,5,0
140,60,112577,1,0
80,92,112770,1,0
80,92,113157,1,0
44,152,113351,1,0
176,192,113738,1,0
176,191,113931,2,0,B|161:242|212:266,1,70
252,283,114319,2,0,B|304:298|327:247,1,70
340,204,114706,2,0,B|354:153|304:129,1,70
262,115,115093,2,0,B|211:100|188:151,1,70,0|4
92,40,115673,5,0
92,40,116061,2,0,B|52:64|48:104,1,70
45,164,116448,1,0
44,164,116641,2,0,B|93:268|214:298,1,210,0|0
340,300,117609,1,0
340,300,117996,1,0
340,300,118383,5,0
408,284,118577,2,0,B|448:264|456:216,1,70
448,160,118964,2,0,B|424:87|360:53,1,140
292,40,119544,2,0,B|240:28|212:60,1,70
164,84,119931,2,0,B|124:108|124:152,1,70
116,208,120319,2,0,B|112:264|164:276,1,70
144,268,120706,1,0
208,296,120899,1,0
280,300,121093,1,0
288,300,121190,1,0
296,300,121286,1,0
304,300,121383,1,0
312,300,121480,1,4
436,236,121867,5,0
436,236,122254,2,0,B|484:212|488:172,1,70
380,92,122835,2,0,B|364:48|320:52,1,70
188,68,123415,1,0
188,68,123802,2,0,B|122:84|107:140,2,105
192,136,124577,1,0
192,276,124964,1,0
331,279,125351,2,0,B|397:263|412:207,2,105
328,208,126125,1,0
256,84,126512,1,0
196,208,126899,1,0
124,207,127093,5,0
124,207,127286,1,0
124,207,127480,1,0
124,207,127673,2,0,B|57:225|44:282,2,105,0|0|0
256,44,128835,1,0
256,44,129222,2,0,B|300:100|212:128|264:184,1,140
256,174,130190,1,0
256,174,130383,1,0
52,44,130770,5,0
256,192,131351,1,0
460,340,131932,2,0,B|416:284|504:256|452:200,1,140,0|0
460,209,133868,5,0
256,260,134448,1,0
52,208,135029,1,0
172,140,135416,5,4
172,140,135513,1,0
236,112,135706,1,0
236,112,135803,1,0
304,100,135997,1,0
304,100,136093,1,0
304,100,136190,1,4
400,196,136577,5,0
400,196,136964,2,0,B|428:133|486:128,2,105,0|0|0
328,196,137739,1,0
188,195,138126,1,0
188,195,138319,1,0
188,195,138513,2,0,B|158:256|100:259,2,105,0|0|0
256,196,139287,1,0
256,28,139674,5,0
28,192,140061,1,0
256,356,140448,1,0
484,192,140835,1,0
256,28,141222,1,0
27,192,141610,2,0,B|58:262|124:287,1,140,0|4
256,240,142771,5,0
256,239,143158,2,0,B|258:287|319:317,2,105,0|0|0
252,168,143932,1,0
252,168,144319,2,0,B|228:102|159:68,2,140
376,100,145481,2,0,B|405:164|476:192,1,140
476,192,146255,5,0
256,356,146642,1,0
36,192,147029,1,0
256,28,147416,1,0
476,192,147803,1,0
256,356,148190,1,0
36,192,148577,2,0,B|120:192,2,70,0|0|4
256,192,167158,6,0,B|227:128|156:100,1,140,0|0
24,232,169481,2,0,B|53:296|124:324,1,140,0|0
128,184,170642,5,2
192,60,171029,1,0
256,184,171416,1,2
320,60,171803,1,0
384,184,172190,1,2
384,184,172577,2,0,B|340:240|428:268|376:324,1,140,0|0
256,64,174126,5,2
32,192,175674,1,2
256,192,176448,1,0
484,192,177222,1,2
192,308,177997,5,2
256,76,178384,1,0
320,308,178771,1,2
320,308,179158,5,0
320,308,179351,2,0,B|360:300|380:248,1,70,0|0
392,124,179932,1,4
392,123,180319,2,0,B|440:116|463:52,2,105,0|0|0
324,136,181093,1,0
184,148,181481,1,0
116,160,181674,1,0
116,160,181868,2,0,B|68:167|45:231,2,105,0|0|0
116,160,182642,1,0
80,296,183029,5,0
216,320,183416,1,0
256,148,183803,1,0
340,340,184190,1,0
392,100,184577,1,0
480,356,184964,2,0,B|524:300|436:272|488:216,1,140,0|4
344,184,186126,5,0
220,116,186513,2,0,B|172:114|137:173,2,105,0|0|0
220,116,187287,1,0
256,252,187674,2,0,B|328:280|356:344,2,140
120,280,188835,2,0,B|48:252|20:188,1,140
20,48,189610,5,0
160,48,189997,1,0
264,48,190384,1,0
332,48,190771,1,0
368,48,191158,1,0
384,48,191545,2,0,B|468:48,2,70,0|0|0
428,180,192319,5,4
428,180,192706,1,0
356,256,192997,1,0
284,180,193287,1,0
284,180,193481,1,0
84,180,193868,5,0
84,180,194061,1,0
84,180,194255,1,0
156,104,194545,1,0
228,180,194835,1,0
228,180,195029,1,0
256,316,195416,5,0
370,233,195803,1,0
326,98,196190,1,0
185,98,196577,1,0
141,233,196964,1,0
256,316,197351,2,0,B|212:260|300:232|248:176,1,140,0|4
252,44,198513,5,0
252,44,198900,1,0
180,120,199190,1,0
256,192,199481,1,0
256,192,199674,1,0
256,332,200061,5,0
256,332,200448,1,0
141,249,200835,1,0
141,249,201222,1,0
185,114,201610,1,0
185,114,201997,1,0
326,114,202384,1,0
326,114,202771,1,0
370,249,203158,1,0
370,249,203545,1,0
256,332,203932,1,0
256,332,204126,5,0
256,332,204319,2,0,B|184:304|156:240,1,140,0|4
159,100,205093,2,0,B|172:53|239:38,2,105,0|0|0
156,168,205868,1,0
296,172,206255,2,0,B|332:176|352:216,1,70
363,279,206642,2,0,B|376:326|443:341,2,105,0|0|0
360,208,207416,2,0,B|388:136|452:108,2,140
220,228,208577,2,0,B|192:300|128:328,2,140
220,100,209739,2,0,B|173:38|104:29,1,140,0|4
20,140,210900,5,0
19,283,211287,2,0,B|24:332|88:357,2,105,0|0|0
72,240,212061,2,0,B|137:212|165:140,1,140
284,68,212835,2,0,B|349:97|377:169,1,140
252,236,213610,2,0,B|187:265|159:337,2,140,0|0|4
256,240,215158,5,0
256,240,215932,2,0,B|321:269|349:341,2,140,4|0|0
256,168,216900,1,0
256,100,217093,2,0,B|256:64,4,35,0|0|0|0|4
