osu file format v12

[General]
AudioFilename: 01 [KEX] OP(TVS) -.mp3
AudioLeadIn: 2000
PreviewTime: 65225
Countdown: 1
SampleSet: Soft
StackLeniency: 0.7
Mode: 0
LetterboxInBreaks: 1
WidescreenStoryboard: 1

[Editor]
DistanceSpacing: 1.2
BeatDivisor: 4
GridSize: 4

[Metadata]
Title:Koko (TV Size)
TitleUnicode:ココ (TV Size)
Artist:Tamurapan
ArtistUnicode:たむらぱん
Creator:Gelbana
Version:Hard
Source:Kyousougiga
Tags:kyousogiga opening 京騒戯画 toei lust meatloafcereal Tamura Ayumi
BeatmapID:311787
BeatmapSetID:121709

[Difficulty]
HPDrainRate:6
CircleSize:4
OverallDifficulty:5
ApproachRate:7
SliderMultiplier:1.6
SliderTickRate:1

[Events]
//Background and Video events
0,0,"kyousoM.jpg",0,0
Video,0,"f.avi"
//Break Periods
//Storyboard Layer 0 (Background)
//Storyboard Layer 1 (Fail)
//Storyboard Layer 2 (Pass)
//Storyboard Layer 3 (Foreground)
//Storyboard Sound Samples
//Background Colour Transformations
3,100,163,162,255

[TimingPoints]
272,352.941176470588,4,2,1,60,1,0
272,-200,4,2,1,60,0,0
10860,-100,4,2,1,60,0,0
22860,-133.333333333333,4,2,1,60,0,0
25683,-100,4,2,1,60,0,0
65213,-100,4,2,1,80,0,1
87801,-100,4,2,1,60,0,0

[HitObjects]
184,112,272,2,0,L|280:108,1,79.9999999999999,8|0,0:0|0:0,0:0:0:0:
384,108,977,1,0,0:0:0:0:
436,216,1330,1,0,0:0:0:0:
436,216,1683,2,0,P|452:256|440:296,1,79.9999999999999,0|0,0:0|0:0,0:0:0:0:
316,284,2389,2,0,L|240:232,1,80,0|0,0:0|0:0,0:0:0:0:
256,100,3095,5,0,0:0:0:0:
316,284,3448,1,0,0:0:0:0:
160,172,3801,1,0,0:0:0:0:
352,172,4154,1,0,0:0:0:0:
196,284,4507,1,8,0:0:0:0:
88,172,5213,6,0,P|52:212|48:244,2,79.9999999999999,0|0|0,0:0|0:0|0:0,0:0:0:0:
308,96,6624,5,0,0:0:0:0:
264,332,7330,1,0,0:0:0:0:
88,172,8036,1,0,0:0:0:0:
256,192,8742,12,8,10154,0:0:0:0:
416,112,10860,5,0,1:0:0:0:
328,152,11036,2,0,L|260:164,5,40
288,160,11566,6,0,P|236:88|160:92,1,160,4|2,0:0|0:0,0:0:0:0:
136,244,12271,2,0,P|180:276|232:280,1,79.9999999999999,0|0,0:0|0:0,0:0:0:0:
284,272,12624,1,2,0:0:0:0:
340,328,12801,1,0,0:0:0:0:
392,268,12977,6,0,P|416:228|404:192,1,79.9999999999999,0|0,0:0|0:0,0:0:0:0:
328,200,13330,1,2,0:0:0:0:
252,172,13507,2,0,P|296:128|336:128,2,79.9999999999999,0|0|0,0:0|0:0|0:0,0:0:0:0:
216,240,14036,2,0,P|156:280|144:280,1,80,2|0,0:0|0:0,0:0:0:0:
68,276,14389,6,0,P|32:204|68:132,1,160,0|2,0:0|0:0,0:0:0:0:
128,84,14918,1,0,0:0:0:0:
212,92,15095,2,0,P|196:32|176:12,2,79.9999999999999,0|0|2,0:0|0:0|0:0,0:0:0:0:
248,164,15624,1,0,0:0:0:0:
328,160,15801,6,0,P|308:216|264:232,1,79.9999999999999,0|0,0:0|0:0,0:0:0:0:
232,272,16154,1,2,0:0:0:0:
156,300,16330,1,0,0:0:0:0:
76,304,16507,2,0,P|44:256|52:212,1,79.9999999999999,0|0,0:0|0:0,0:0:0:0:
120,200,16859,2,0,P|112:128|96:108,1,79.9999999999999,2|0,0:0|0:0,0:0:0:0:
28,112,17213,6,0,P|76:48|168:68,1,160,0|2,0:0|0:0,0:0:0:0:
220,96,17742,1,0,0:0:0:0:
296,52,17918,2,0,P|308:120|296:160,1,79.9999999999999,0|0,0:0|0:0,0:0:0:0:
372,176,18271,1,2,0:0:0:0:
440,244,18448,6,0,P|465:169|455:146,2,79.9999999999999
480,332,18977,2,0,L|392:348|392:348,1,80,2|0,0:0|0:0,0:0:0:0:
340,272,19330,1,0,0:0:0:0:
256,316,19507,1,0,0:0:0:0:
192,364,19683,2,0,P|176:308|200:260,1,79.9999999999999,2|0,0:0|0:0,0:0:0:0:
112,256,20036,5,0,0:0:0:0:
112,256,20212,1,0,0:0:0:0:
152,168,20389,1,2,0:0:0:0:
152,168,20565,1,0,0:0:0:0:
244,196,20742,5,0,0:0:0:0:
244,196,20918,1,0,0:0:0:0:
292,112,21095,1,2,0:0:0:0:
292,112,21271,1,0,0:0:0:0:
256,192,21448,12,8,22859,0:0:0:0:
120,92,23213,6,0,P|76:136|76:152,2,60.0000022888184,0|0|0,0:0|0:0|0:0,0:0:0:0:
188,220,23918,1,0,0:0:0:0:
284,112,24271,5,0,0:0:0:0:
284,112,24448,1,0,0:0:0:0:
396,200,24801,2,0,P|376:236|352:244,1,60.0000022888184,0|0,0:0|0:0,0:0:0:0:
288,260,25154,2,0,P|240:264|220:288,1,60.0000022888184,0|0,0:0|0:0,0:0:0:0:
160,292,25507,1,0,0:0:0:0:
160,292,25683,6,0,P|124:248|164:136,1,160,0|2,0:0|0:0,0:0:0:0:
328,100,26389,2,0,P|320:56|284:28,2,79.9999999999999,0|0|0,0:0|0:0|0:0,0:0:0:0:
244,160,26918,2,0,P|188:140|96:88,2,160,0|0|0,0:0|0:0|0:0,0:0:0:0:
176,228,27801,2,0,L|132:248,2,40,0|0|0,0:0|0:0|0:0,0:0:0:0:
268,252,28154,2,0,P|312:236|348:128,1,160,2|0,0:0|0:0,0:0:0:0:
212,124,28859,5,2,0:0:0:0:
212,124,29036,1,0,0:0:0:0:
212,124,29212,2,0,P|288:100|304:112,1,80,0|0,0:0|0:0,0:0:0:0:
156,244,29742,5,2,0:0:0:0:
304,302,29918,2,0,P|266:313|228:304,1,79.9999999999999,0|0,0:0|0:0,0:0:0:0:
264,216,30271,1,2,0:0:0:0:
332,148,30448,2,0,P|292:104|324:12,1,160,0|0,0:0|0:0,0:0:0:0:
380,76,30977,2,0,P|416:116|416:152,1,80,2|0,0:0|0:0,0:0:0:0:
348,264,31330,6,0,P|424:280|484:224,1,160,0|2,0:0|0:0,0:0:0:0:
232,248,32036,2,0,P|252:300|284:316,2,79.9999999999999,0|0|0,0:0|0:0|0:0,0:0:0:0:
144,180,32565,1,2,0:0:0:0:
144,180,32742,2,0,P|96:208|80:240,2,79.9999999999999,0|0|2,0:0|0:0|0:0,0:0:0:0:
152,80,33271,2,0,P|260:68|324:104,1,160,0|0,0:0|0:0,0:0:0:0:
256,172,33801,2,0,P|232:228|236:260,1,80,2|0,0:0|0:0,0:0:0:0:
336,324,34154,6,0,P|359:292|363:252,1,79.9999999999999,0|0,0:0|0:0,0:0:0:0:
340,176,34507,1,2,0:0:0:0:
420,176,34683,2,0,P|480:204|488:224,2,79.9999999999999,0|0|0,0:0|0:0|0:0,0:0:0:0:
348,100,35213,1,0,0:0:0:0:
256,76,35389,5,2,0:0:0:0:
256,76,35565,2,0,P|168:68|148:80,1,79.9999999999999,0|0,0:0|0:0,0:0:0:0:
208,156,35918,1,2,0:0:0:0:
180,248,36095,2,0,P|258:247|296:172,1,160,0|0,0:0|0:0,0:0:0:0:
208,156,36624,1,2,0:0:0:0:
132,96,36801,1,0,0:0:0:0:
68,28,36977,6,0,P|160:0|210:52,1,160,0|2,0:0|0:0,0:0:0:0:
296,76,37507,1,0,0:0:0:0:
380,128,37683,5,0,0:0:0:0:
454,222,37859,1,0,0:0:0:0:
361,297,38036,1,0,0:0:0:0:
285,203,38212,1,4,0:0:0:0:
256,192,38389,12,0,39801,0:0:0:0:
168,296,40154,6,0,P|228:340|264:336,1,79.9999999999999,2|0,0:0|0:0,0:0:0:0:
248,244,40507,1,0,0:0:0:0:
117,119,40859,2,0,P|80:132|42:120,1,79.9999999999999,0|2,0:0|0:0,0:0:0:0:
188,52,41213,6,0,P|212:112|176:200,1,160,0|2,0:0|0:0,0:0:0:0:
160,292,41742,2,0,P|112:276|96:248,2,79.9999999999999,0|0|0,0:0|0:0|0:0,0:0:0:0:
236,348,42271,1,0,0:0:0:0:
332,344,42448,6,0,P|404:336|460:188,1,240,0|2,0:0|0:0,0:0:0:0:
280,180,43330,2,0,P|304:120|340:104,1,80,0|0,0:0|0:0,0:0:0:0:
396,64,43683,2,0,P|352:24|300:24,1,79.9999999999999,0|2,0:0|0:0,0:0:0:0:
248,48,44036,1,0,0:0:0:0:
216,140,44212,1,0,0:0:0:0:
124,112,44389,6,0,L|148:188,1,79.9999999999999,2|0,0:0|0:0,0:0:0:0:
96,268,44742,2,0,L|70:189,1,80,0|0,0:0|0:0,0:0:0:0:
124,112,45095,2,0,P|160:56|268:60,1,160,2|0,0:0|0:0,0:0:0:0:
343,42,45624,6,0,P|411:70|419:98,2,79.9999999999999,0|2|0,0:0|0:0|0:0,0:0:0:0:
316,124,46154,2,0,P|348:172|336:228,2,79.9999999999999,0|0|2,0:0|0:0|0:0,0:0:0:0:
248,192,46683,1,0,0:0:0:0:
190,275,46859,6,0,P|237:294|284:284,1,80,0|0,0:0|0:0,0:0:0:0:
372,264,47212,1,2,0:0:0:0:
364,360,47389,2,0,P|432:336|452:228,1,160,0|0,0:0|0:0,0:0:0:0:
440,164,47918,1,2,0:0:0:0:
440,164,48095,2,0,P|380:132|376:92,1,79.9999999999999,0|0,0:0|0:0,0:0:0:0:
200,52,48624,6,0,P|124:60|112:76,1,79.9999999999999,2|0,0:0|0:0,0:0:0:0:
100,152,48977,2,0,P|138:158|192:128,1,80,0|2,0:0|0:0,0:0:0:0:
280,284,49507,5,0,0:0:0:0:
280,284,49683,2,0,P|200:284|140:200,1,160,0|2,0:0|0:0,0:0:0:0:
240,144,50213,2,0,P|284:108|390:132,1,160,0|0,0:0|0:0,0:0:0:0:
319,198,50742,1,2,0:0:0:0:
376,272,50918,1,0,0:0:0:0:
432,192,51095,6,0,P|455:117|416:50,1,160,0|2,0:0|0:0,0:0:0:0:
156,80,51801,2,0,P|108:32|80:32,2,79.9999999999999,0|0|2,0:0|0:0|0:0,0:0:0:0:
156,176,52330,5,0,0:0:0:0:
76,124,52507,2,0,P|56:184|76:224,1,79.9999999999999,0|0,0:0|0:0,0:0:0:0:
117,266,52859,1,2,0:0:0:0:
36,356,53036,2,0,P|104:368|188:328,1,160,0|0,0:0|0:0,0:0:0:0:
188,236,53565,2,0,P|144:244|104:288,1,80,2|0,0:0|0:0,0:0:0:0:
256,304,53918,6,0,P|288:236|228:148,1,160,0|2,0:0|0:0,0:0:0:0:
292,52,54448,1,0,0:0:0:0:
380,88,54624,2,0,L|416:164,1,79.9999999999999,0|0,0:0|0:0,0:0:0:0:
460,244,54977,1,2,0:0:0:0:
360,316,55154,5,0,0:0:0:0:
316,240,55330,2,0,L|276:164,1,80,0|0,0:0|0:0,0:0:0:0:
200,192,55683,1,2,0:0:0:0:
196,104,55860,2,0,P|132:128|108:212,1,160,0|0,0:0|0:0,0:0:0:0:
84,304,56389,1,2,0:0:0:0:
84,304,56742,6,0,P|24:252|24:164,1,160,0|2,0:0|0:0,0:0:0:0:
108,216,57271,2,0,P|156:252|164:280,2,79.9999999999999,0|0|0,0:0|0:0|0:0,0:0:0:0:
216,180,57801,2,0,L|320:200,1,80,2|0,0:0|0:0,0:0:0:0:
388,228,58154,6,0,P|376:140|292:100,1,160,0|0,0:0|0:0,0:0:0:0:
404,52,58683,2,0,P|320:24|236:52,1,160,0|0,0:0|0:0,0:0:0:0:
192,116,59213,2,0,L|148:96,4,40,0|0|0|0|4,0:0|0:0|0:0|0:0|0:0,0:0:0:0:
300,284,59918,5,0,0:0:0:0:
116,236,60271,1,0,0:0:0:0:
248,96,60624,1,0,0:0:0:0:
436,140,60977,6,0,L|420:248|420:248,1,80
332,184,61330,2,0,L|312:276|312:276,1,80
220,256,61683,2,0,L|200:336|200:336,1,80
128,272,62036,1,0,0:0:0:0:
140,176,62212,1,0,0:0:0:0:
48,144,62389,6,0,P|132:80|208:100,1,160
360,160,63095,2,0,L|288:112|288:112,1,80
312,212,63448,2,0,L|224:212|224:212,1,80
292,284,63801,2,0,L|208:320|208:320,1,80
128,280,64154,2,0,L|72:200|72:200,1,80
28,136,64507,2,0,P|48:96|40:44,1,80
148,72,64860,2,0,L|160:124,3,40
156,112,65213,6,0,P|248:112|312:144,1,160,0|2,0:0|0:0,0:0:0:0:
384,200,65742,1,0,0:0:0:0:
476,168,65918,2,0,P|468:252|452:268,1,79.9999999999999,0|0,0:0|0:0,0:0:0:0:
384,280,66271,2,0,P|328:312|316:328,1,79.9999999999999,2|0,0:0|0:0,0:0:0:0:
256,252,66624,5,0,0:0:0:0:
280,160,66801,1,0,0:0:0:0:
188,184,66977,1,2,0:0:0:0:
200,88,67154,1,0,0:0:0:0:
200,88,67330,2,0,P|132:88|104:108,1,79.9999999999999,0|0,0:0|0:0,0:0:0:0:
60,20,67683,1,2,0:0:0:0:
60,20,67860,6,0,P|24:88|36:172,1,160,0|0,0:0|0:0,0:0:0:0:
100,240,68389,2,0,L|208:208,1,79.9999999999999,2|0,0:0|0:0,0:0:0:0:
204,308,68742,2,0,L|284:280,1,79.9999999999999,0|0,0:0|0:0,0:0:0:0:
316,192,69095,1,2,0:0:0:0:
228,152,69271,1,0,0:0:0:0:
132,148,69448,6,0,P|116:92|120:72,1,80,0|0,0:0|0:0,0:0:0:0:
208,36,69801,1,2,0:0:0:0:
208,36,69977,2,0,P|260:40|300:56,2,79.9999999999999,0|0|0,0:0|0:0|0:0,0:0:0:0:
120,72,70507,1,2,0:0:0:0:
48,140,70683,6,0,P|32:216|48:248,1,79.9999999999999,0|0,0:0|0:0,0:0:0:0:
110,192,71036,2,0,L|170:276,2,80,0|2|0,0:0|0:0|0:0,0:0:0:0:
206,193,71565,2,0,L|253:259,1,79.9999999999999,0|0,0:0|0:0,0:0:0:0:
328,216,71918,1,2,0:0:0:0:
380,136,72095,1,0,0:0:0:0:
328,56,72271,6,0,P|392:40|472:116,1,160,0|2,0:0|0:0,0:0:0:0:
452,288,72977,2,0,L|364:288,1,80,0|0,0:0|0:0,0:0:0:0:
296,220,73330,1,2,0:0:0:0:
212,264,73507,1,0,0:0:0:0:
176,352,73683,6,0,P|112:292|136:212,1,160,0|2,0:0|0:0,0:0:0:0:
40,200,74212,1,0,0:0:0:0:
40,200,74389,2,0,P|104:140|172:136,1,160,0|2,0:0|0:0,0:0:0:0:
220,52,74918,1,0,0:0:0:0:
220,52,75095,2,0,P|296:92|336:160,1,160,0|2,0:0|0:0,0:0:0:0:
424,184,75624,1,0,0:0:0:0:
424,184,75801,2,0,P|408:248|380:272,1,79.9999999999999,0|0,0:0|0:0,0:0:0:0:
312,220,76154,2,0,P|292:252|292:320,1,79.9999999999999,2|0,0:0|0:0,0:0:0:0:
192,284,76507,6,0,P|140:316|92:312,1,79.9999999999999,0|0,0:0|0:0,0:0:0:0:
108,224,76859,1,2,0:0:0:0:
148,136,77036,1,0,0:0:0:0:
212,64,77213,2,0,P|152:44|100:56,2,79.9999999999999,0|0|2,0:0|0:0|0:0,0:0:0:0:
296,108,77742,1,0,0:0:0:0:
296,108,77918,2,0,P|352:132|376:128,1,80,0|0,0:0|0:0,0:0:0:0:
460,164,78271,1,2,0:0:0:0:
456,264,78448,6,0,P|412:328|312:348,1,160,0|0,0:0|0:0,0:0:0:0:
320,256,78977,2,0,P|260:272|240:312,1,79.9999999999999,2|0,0:0|0:0,0:0:0:0:
160,320,79330,5,0,0:0:0:0:
160,320,79507,1,0,0:0:0:0:
112,236,79683,1,2,0:0:0:0:
112,236,79859,1,0,0:0:0:0:
76,148,80036,1,0,0:0:0:0:
76,148,80212,1,0,0:0:0:0:
120,68,80389,2,0,P|192:72|204:96,1,79.9999999999999,2|0,0:0|0:0,0:0:0:0:
288,76,80742,5,0,0:0:0:0:
360,136,80918,1,0,0:0:0:0:
276,188,81095,1,2,0:0:0:0:
244,280,81271,2,0,P|212:244|164:244,1,79.9999999999999,0|0,0:0|0:0,0:0:0:0:
140,152,81624,1,0,0:0:0:0:
204,80,81801,2,0,P|264:72|296:80,1,79.9999999999999,2|0,0:0|0:0,0:0:0:0:
136,20,82154,6,0,P|100:96|172:160,1,160,0|2,0:0|0:0,0:0:0:0:
300,168,82860,2,0,P|356:224|332:332,1,160,0|2,0:0|0:0,0:0:0:0:
464,152,83565,6,0,P|456:96|432:72,1,79.9999999999999,0|0,0:0|0:0,0:0:0:0:
252,64,84095,2,0,P|312:13|390:11,1,160,0|0,0:0|0:0,0:0:0:0:
344,96,84624,2,0,P|384:160|372:188,1,79.9999999999999,2|0,0:0|0:0,0:0:0:0:
396,252,84977,6,0,P|368:304|344:320,1,79.9999999999999,0|0,0:0|0:0,0:0:0:0:
296,236,85330,1,2,0:0:0:0:
204,208,85507,2,0,P|136:172|128:156,1,79.9999999999999,0|0,0:0|0:0,0:0:0:0:
116,364,86036,2,0,L|224:356,1,79.9999999999999,2|0,0:0|0:0,0:0:0:0:
284,324,86389,1,0,0:0:0:0:
368,280,86566,2,0,P|408:244|440:252,2,79.9999999999999,0|2|0,0:0|0:0|0:0,0:0:0:0:
348,184,87095,6,0,L|320:148,5,40,0|0|0|0|0|0,0:0|0:0|0:0|0:0|0:0|0:0,0:0:0:0:
324,152,87624,2,4,P|248:160|244:172,1,80,0|0,0:0|0:0,0:0:0:0:
