osu file format v9

[General]
AudioFilename: Happy! Lucky! Dochy!.mp3
AudioLeadIn: 1500
PreviewTime: 49698
Countdown: 0
SampleSet: Normal
StackLeniency: 0.7
Mode: 0
LetterboxInBreaks: 1

[Editor]
DistanceSpacing: 1
BeatDivisor: 4
GridSize: 8

[Metadata]
Title:Happy! Lucky! Dochy!
Artist:Tamura Yukari, Kanai Mika & Horie Yui
Creator:Nerv_Mario
Version:Normal
Source:Higurashi no Naku Koro ni Kira
Tags:

[Difficulty]
HPDrainRate:4
CircleSize:4
OverallDifficulty:4
ApproachRate:4
SliderMultiplier:1.5
SliderTickRate:2

[Events]
//Background and Video events
0,0,"Higurashi-Kira.jpg"
//Break Periods
//Storyboard Layer 0 (Background)
//Storyboard Layer 1 (Fail)
//Storyboard Layer 2 (Pass)
//Storyboard Layer 3 (Foreground)
//Storyboard Sound Samples
//Background Colour Transformations
3,100,163,162,255

[TimingPoints]
1060,510.63829787234,4,1,0,70,1,0
17145,-100,4,2,1,80,0,0
17656,-100,4,2,2,80,0,0
17911,-100,4,2,1,80,0,0
19698,-100,4,2,2,80,0,0
19954,-100,4,2,1,80,0,0
33996,-100,4,2,2,80,0,0
34252,-100,4,2,1,80,0,0
35018,-100,4,2,2,80,0,0
35273,-100,4,2,1,80,0,0
38081,-100,4,2,2,80,0,0
38337,-100,4,2,1,80,0,0
39103,-100,4,2,2,80,0,0
39358,-100,4,2,1,80,0,0
42167,-100,4,2,2,80,0,0
42422,-100,4,2,1,80,0,0
43188,-100,4,2,2,80,0,0
43443,-100,4,2,1,80,0,0
46252,-100,4,2,2,80,0,0
46379,-100,4,2,1,80,0,0
47273,-100,4,2,2,80,0,0
47401,-100,4,2,1,80,0,0
47911,-100,4,1,0,70,0,0
50081,-100,4,1,0,70,0,1
50337,-100,4,1,2,70,0,1
50592,-100,4,1,0,70,0,1
54422,-100,4,1,2,70,0,1
54677,-100,4,1,0,70,0,1
55443,-100,4,1,2,70,0,1
55698,-100,4,1,0,70,0,1
57869,-100,4,1,0,70,0,0
57996,-100,4,1,0,70,0,1
58507,-100,4,1,2,70,0,1
58762,-100,4,1,0,70,0,1
59528,-100,4,1,2,70,0,1
59784,-100,4,1,0,70,0,1
62592,-100,4,1,2,70,0,1
62847,-100,4,1,0,70,0,1
63613,-100,4,1,2,70,0,1
63869,-100,4,1,0,70,0,1
66167,-100,4,1,0,70,0,0
66677,-100,4,1,2,70,0,0
66805,-100,4,1,0,70,0,0
67698,-100,4,1,2,70,0,0
67826,-100,4,1,0,70,0,0
86592,-100,4,2,0,5,0,0

[Colours]
Combo1 : 231,135,5
Combo2 : 231,222,67
Combo3 : 106,106,255
Combo4 : 49,253,131

[HitObjects]
48,240,1060,1,0
96,184,1315,2,0,B|176:152|256:184,1,150,2|2
360,80,2337,1,2
424,120,2592,1,0
464,184,2847,1,2
416,328,3358,6,0,B|512:328,2,75,2|0|2
344,328,4124,1,2
344,328,4379,1,2
344,328,4635,1,2
272,200,5145,6,0,B|224:216|192:264,1,75,4|2
96,344,5911,1,2
56,280,6167,1,0
80,208,6422,1,2
104,56,6932,2,0,B|8:56,2,75,2|0|2
256,56,7954,5,2
256,128,8209,2,0,B|272:160|336:192,1,75,2|2
384,192,8720,1,2
456,208,8975,6,0,B|440:256|392:288,1,75,4|0
336,272,9486,2,0,B|176:272,2,150,2|2|2
408,240,10762,1,0
472,200,11018,1,2
392,72,11528,5,2
320,72,11784,1,0
248,72,12039,1,2
176,72,12294,2,0,B|80:72,2,75,2|2|2
56,160,13315,5,4
112,208,13571,2,0,B|176:272|272:272,1,150,2|2
160,144,14592,2,0,B|208:208|320:208,1,150,2|2
440,208,15613,5,6
400,144,15869,2,0,B|336:64,1,75,0|2
304,32,16379,1,2
304,32,16635,1,2
304,32,16890,1,2
208,152,17401,6,0,B|48:152,1,150,4|0
32,304,18422,1,0
96,336,18677,1,8
160,304,18932,1,0
312,304,19443,6,0,B|376:304|376:208|312:208,1,150
168,208,20464,1,2
120,144,20720,1,10
136,72,20975,1,2
208,48,21230,6,0,B|304:48,1,75,0|0
360,48,21741,2,0,B|440:48,1,75,8|0
488,104,22252,1,0
408,232,22762,1,8
264,192,23273,6,0,B|184:192,1,75,0|0
112,192,23784,2,0,B|80:144|128:112,2,75,8|0|0
112,272,24549,1,2
112,272,24805,1,10
112,272,25060,1,2
256,304,25571,6,0,B|288:336|336:336,1,75,4|8
400,336,26081,2,0,B|434:336|466:304,1,75,0|0
496,160,26847,2,0,B|496:80,1,75,8|0
432,128,27358,6,0,B|368:208,1,75,0|0
336,240,27869,2,0,B|336:320,2,75,8|0|0
280,192,28635,1,2
232,136,28890,1,10
184,80,29145,1,2
32,56,29656,5,0
48,128,29911,2,0,B|64:224,1,75,8|0
88,272,30422,2,0,B|168:240|264:288,1,150,0|8
376,320,31443,6,0,B|424:256,1,75,0|0
464,192,31954,2,0,B|368:192,1,75,8|0
312,192,32464,1,2
312,192,32720,1,2
240,192,32975,1,14
240,192,33230,1,2
208,48,33741,6,0,B|128:48|64:112,1,150
64,256,34762,2,0,B|119:311|199:311,1,150
288,192,35784,1,0
360,192,36039,1,8
432,192,36294,6,0,B|464:112,1,75,0|0
400,80,36805,1,2
256,32,37315,1,2
184,48,37571,1,0
112,80,37826,6,0,B|160:144|96:240,1,150,2|0
40,352,38847,2,0,B|200:352,1,150
344,352,39869,1,0
384,288,40124,1,8
352,224,40379,6,0,B|256:224,1,75,0|2
200,224,40890,1,2
48,224,41401,1,2
32,152,41656,1,4
48,80,41911,6,0,B|128:80|208:24,1,150,2|0
336,40,42932,2,0,B|416:56|464:152,1,150
480,280,43954,1,0
416,320,44209,1,8
352,352,44464,1,0
288,320,44720,6,0,B|208:256,1,75,0|2
104,184,45486,1,2
40,136,45741,1,4
40,208,45996,6,0,B|40:336,2,112.5,2|0|0
40,136,47018,2,0,B|40:24,2,112.5,0|0|0
40,208,48039,5,4
192,208,48549,1,4
344,208,49060,1,4
480,32,49826,5,0
408,48,50081,2,0,B|344:48|360:112|264:112,1,150
128,112,51103,1,0
96,184,51358,2,0,B|64:264,1,75,8|0
200,320,52124,5,0
256,368,52379,1,8
312,320,52635,1,0
256,184,53145,2,0,B|256:88,2,75,2|10|2
256,256,53911,5,0
328,256,54167,2,0,B|392:256|392:176|456:176,1,150,0|2
376,48,55188,2,0,B|296:80|200:40,1,150,0|2
80,32,56209,5,0
80,32,56464,2,0,B|48:184,1,150,8|0
40,256,57230,1,2
40,256,57486,1,10
40,256,57741,1,2
168,336,58252,6,0,B|344:336,1,150
392,336,59018,1,0
464,336,59273,2,0,B|416:272|464:192,1,150
464,48,60294,5,0
400,96,60549,1,8
336,144,60805,1,0
184,144,61315,2,0,B|120:80,2,75,2|10|2
248,192,62081,5,0
320,192,62337,2,0,B|320:272|256:272|192:272,1,150,0|2
64,272,63358,2,0,B|32:112,1,150,0|2
168,48,64379,6,0,B|264:48,1,75,0|8
320,48,64890,1,0
448,128,65401,1,2
496,192,65656,1,10
448,256,65911,1,2
408,320,66167,5,0
336,320,66422,2,0,B|208:320|208:192|64:192,2,300,0|0|4
488,320,68975,5,4
488,168,69486,1,4
488,16,69996,1,4
368,112,70507,5,0
296,112,70762,2,0,B|296:32|248:32|184:32,1,150,2|2
72,120,71784,1,2
56,192,72039,1,0
72,264,72294,1,2
200,336,72805,6,0,B|280:336,2,75,2|0|2
128,336,73571,1,2
128,336,73826,1,2
128,336,74081,1,2
176,192,74592,6,0,B|256:192,1,75,4|2
400,192,75358,1,2
448,128,75613,1,0
456,56,75869,1,2
304,56,76379,2,0,B|304:152,2,75,2|0|2
152,56,77401,5,2
96,104,77656,2,0,B|64:136|48:168,1,75,2|2
32,232,78167,1,2
104,232,78422,6,0,B|184:232,1,75,4|0
256,232,78932,2,0,B|320:232|320:312|400:312,2,150,2|2|2
184,232,80209,1,0
112,232,80464,1,2
56,88,80975,5,2
112,32,81230,1,0
184,32,81486,1,2
240,88,81741,2,0,B|320:88,2,75,2|2|2
128,192,82762,5,4
200,192,83018,2,0,B|264:224|360:192,1,150,2|2
464,96,84039,2,0,B|384:128|304:96,1,150,2|2
176,48,85060,5,2
104,48,85315,2,0,B|104:144,1,75,4|2
104,200,85826,1,2
104,200,86081,1,2
104,200,86337,1,2
256,192,86847,12,0,88890
