osu file format v9

[General]
AudioFilename: Happy! Lucky! Dochy!.mp3
AudioLeadIn: 1500
PreviewTime: 49698
Countdown: 0
SampleSet: Normal
StackLeniency: 0.7
Mode: 0
LetterboxInBreaks: 1

[Editor]
DistanceSpacing: 2
BeatDivisor: 4
GridSize: 8

[Metadata]
Title:Happy! Lucky! Dochy!
Artist:Tamura Yukari, Kanai Mika & Horie Yui
Creator:Nerv_Mario
Version:Hard
Source:Higurashi no Naku Koro ni Kira
Tags:

[Difficulty]
HPDrainRate:6
CircleSize:4
OverallDifficulty:7
ApproachRate:7
SliderMultiplier:2.3
SliderTickRate:2

[Events]
//Background and Video events
0,0,"Higurashi-Kira.jpg"
//Break Periods
//Storyboard Layer 0 (Background)
//Storyboard Layer 1 (Fail)
//Storyboard Layer 2 (Pass)
//Storyboard Layer 3 (Foreground)
//Storyboard Sound Samples
//Background Colour Transformations
3,100,163,162,255

[TimingPoints]
1060,510.63829787234,4,1,0,70,1,0
17145,-100,4,2,1,80,0,0
47911,-100,4,1,0,70,0,0
50081,-100,4,1,0,70,0,1
50337,-100,4,1,2,70,0,1
50592,-100,4,1,0,70,0,1
57869,-100,4,1,0,70,0,0
57996,-100,4,1,0,70,0,1
58507,-100,4,1,2,70,0,1
58762,-100,4,1,0,70,0,1
66167,-100,4,1,0,70,0,0
86847,-100,4,2,0,5,0,0

[Colours]
Combo1 : 231,135,5
Combo2 : 231,222,67
Combo3 : 106,106,255
Combo4 : 49,253,131

[HitObjects]
192,192,1060,2,0,B|192:112|112:112,1,115,4|2
48,224,1571,1,0
136,336,1826,1,2
136,336,1954,2,0,B|328:336,1,172.5,0|2
480,224,2592,1,0
480,224,2847,1,2
416,104,3103,6,0,B|376:152|376:152|312:176,1,115,0|2
96,104,3613,2,0,B|136:152|136:152|200:176,1,115,0|2
256,56,4124,1,2
256,192,4379,1,2
256,192,4635,1,2
256,344,4890,5,0
256,344,5018,2,0,B|160:328|64:280,1,172.5,0|2
32,168,5656,1,0
96,48,5911,1,2
96,48,6039,2,0,B|224:48,1,115
280,48,6422,1,2
240,176,6677,1,0
376,176,6932,1,2
432,48,7188,6,0,B|480:176,1,115,0|2
352,224,7698,2,0,B|400:352,1,115,0|2
208,336,8209,1,2
304,160,8464,1,2
144,48,8720,1,2
48,144,8975,5,4
48,144,9103,1,0
48,144,9230,1,0
48,280,9486,1,2
152,192,9741,2,0,B|280:192,1,115,0|2
240,256,10124,2,0,B|176:176|240:96,1,172.5,0|2
360,160,10762,1,0
440,48,11018,1,2
304,48,11273,5,0
168,48,11528,1,2
80,160,11784,1,0
216,160,12039,1,2
352,160,12294,2,0,B|480:160,2,115,2|2|2
248,256,13060,6,0,B|312:256,1,57.5
376,256,13315,1,4
376,256,13571,1,2
464,152,13826,2,0,B|416:104|352:152,1,115,0|2
288,160,14209,2,0,B|192:160|112:112,1,172.5,0|2
122,118,14847,1,0
64,240,15103,1,2
200,208,15358,6,0,B|264:96,1,115,4|2
280,248,15869,2,0,B|216:360,1,115,4|2
64,176,16379,1,2
256,48,16635,1,2
448,176,16890,1,2
448,176,17401,5,4
320,224,17656,1,8
192,176,17911,1,0
64,224,18167,1,8
128,104,18422,2,0,B|128:232,1,115,0|8
128,288,18805,1,0
248,224,19060,1,0
248,224,19188,1,8
248,88,19443,6,0,B|296:56|360:40,1,115,0|8
480,104,19954,2,0,B|416:120|352:104,2,115,0|8|2
480,104,20592,1,2
256,72,20847,1,2
32,104,21103,2,0,B|96:104,1,57.5,2|10
112,240,21486,5,0
208,336,21741,1,8
344,336,21996,1,0
448,240,22252,1,8
280,24,22762,1,8
280,24,23273,6,0,B|280:152,1,115,8|0
400,208,23784,1,8
280,280,24039,2,0,B|248:344|168:344,1,115,0|8
144,208,24550,1,2
96,80,24805,1,10
144,208,25060,1,2
256,128,25315,5,8
256,128,25443,1,0
328,128,25571,2,0,B|456:128,1,115,4|8
360,240,26081,2,0,B|488:240,2,115,0|8|0
224,240,26847,1,8
224,240,26975,2,0,B|144:176|144:304|64:208,1,172.5,0|8
56,80,27613,5,0
192,80,27869,1,8
304,160,28124,1,0
304,296,28379,1,8
208,192,28635,1,2
208,192,28762,2,0,B|96:256,1,115,2|2
232,176,29273,2,0,B|296:144,1,57.5,2|10
344,120,29528,5,0
344,120,29656,1,0
440,224,29911,1,8
360,336,30167,1,0
240,272,30422,2,0,B|128:368|16:256,2,230,8|8|8
240,272,31571,1,0
240,272,31698,1,0
136,176,31954,5,8
32,80,32209,2,0,B|80:48|144:48,1,115,0|10
368,48,32720,1,2
464,256,32975,1,14
368,48,33230,1,2
304,168,33486,5,8
304,168,33613,1,0
304,168,33741,2,0,B|304:232|224:248,1,115,4|8
96,248,34252,2,0,B|96:184|32:152,1,115,0|8
176,176,34762,2,0,B|176:48,2,115,0|8|0
176,312,35528,5,8
240,192,35784,1,0
240,328,36039,1,8
304,208,36294,1,0
304,344,36549,2,0,B|416:344|448:344|480:216,2,230,8|8|8
168,336,37826,5,2
80,224,38081,1,8
168,336,38337,2,0,B|280:272,1,115,0|8
392,224,38847,1,0
480,112,39103,1,8
392,224,39358,2,0,B|280:176,1,115,0|8
168,112,39869,5,0
48,40,40124,1,8
48,176,40379,2,0,B|16:224|48:288,2,115,0|10|2
120,176,41018,1,2
256,176,41273,1,2
464,208,41656,5,12
384,320,41911,2,0,B|256:320,1,115,0|8
168,224,42422,2,0,B|296:224,1,115,0|8
184,320,42932,2,0,B|56:320,1,115,0|8
168,224,43443,1,0
72,120,43698,1,8
176,32,43954,6,0,B|224:160,1,115,0|8
336,32,44464,2,0,B|288:160,1,115,0|8
256,272,44975,1,2
120,232,45230,1,8
256,272,45486,1,2
392,232,45741,5,12
456,112,45996,2,0,B|344:144,1,115,2|8
432,40,46507,2,0,B|320:72,1,115,0|8
192,128,47018,1,0
192,128,47273,1,8
72,56,47528,2,0,B|40:104|72:168,1,115,0|8
256,192,48039,5,4
256,160,48549,1,4
88,344,49060,1,4
256,240,49315,1,2
424,344,49571,1,2
256,240,49826,5,0
88,240,50081,2,0,B|88:96|232:96,1,230,4|0
368,112,50847,1,8
448,224,51103,2,0,B|448:288|512:320,1,115,0|8
368,288,51613,1,0
368,288,51869,1,8
232,288,52124,5,0
272,152,52379,1,8
136,152,52635,1,0
168,288,52890,1,8
136,152,53145,2,0,B|136:24,2,115,2|10|2
40,256,53911,5,8
168,200,54167,2,0,B|232:152|296:216,1,115,0|8
296,64,54677,2,0,B|360:112|424:48,1,115,2|8
456,192,55188,1,0
408,320,55443,1,8
360,192,55698,2,0,B|232:192,1,115,2|8
104,192,56209,5,0
40,320,56464,1,8
176,320,56720,2,0,B|240:208,1,115,0|8
304,96,57230,1,2
432,288,57486,1,10
304,96,57741,1,2
168,96,57996,5,12
304,96,58252,2,0,B|400:336,1,230,0|0
248,320,59018,1,8
112,320,59273,2,0,B|32:320|32:208,2,115,0|8|0
248,320,60039,1,8
304,192,60294,6,0,B|432:192,1,115,0|8
208,192,60805,2,0,B|80:192,1,115,0|8
136,64,61315,1,2
256,136,61571,1,10
368,64,61826,1,2
456,176,62081,6,0,B|392:160|360:224,1,115,8|0
448,336,62592,1,8
448,336,62847,1,2
320,288,63103,2,0,B|192:320,1,115,8|0
72,352,63613,1,8
72,352,63869,1,2
48,216,64124,5,8
184,216,64379,2,0,B|248:216|272:152,2,115,0|8|0
48,216,65145,1,8
112,96,65401,1,2
336,160,65656,1,10
184,336,65911,1,2
184,336,66167,5,8
56,288,66422,1,0
184,232,66677,2,0,B|328:232,1,115,8|0
440,232,67188,1,8
344,128,67443,1,0
208,128,67698,2,0,B|80:128,1,115,8|0
93,128,68209,1,0
93,128,68464,5,4
256,352,68975,1,4
480,192,69486,1,4
256,32,69996,1,4
72,240,70507,6,0,B|72:304|136:336,1,115,0|2
264,336,71018,2,0,B|312:336|312:288|392:288,1,115,0|2
440,288,71401,2,0,B|504:192|408:96,1,172.5,0|2
320,48,72039,1,0
208,128,72294,1,2
96,48,72549,6,0,B|48:160,1,115,0|2
168,224,73060,2,0,B|120:336,1,115,0|2
264,336,73571,1,2
264,200,73826,1,2
264,64,74081,1,2
384,128,74337,5,0
384,128,74464,1,0
384,128,74592,1,4
384,264,74847,1,2
264,200,75103,2,0,B|264:264|200:296,1,115,0|2
136,312,75486,1,0
40,216,75741,1,0
40,144,75869,2,0,B|40:16,2,115,2|0|2
160,216,76635,6,0,B|192:280|272:280,1,115,0|2
216,144,77145,2,0,B|344:144,1,115,0|2
448,64,77656,1,2
224,64,77911,1,2
448,144,78167,1,2
480,280,78422,5,4
480,280,78549,1,0
408,280,78677,2,0,B|264:280,1,115,0|2
168,336,79188,1,0
32,336,79443,1,2
64,272,79571,2,0,B|160:112,1,172.5,0|2
256,216,80209,1,0
256,216,80464,1,2
256,80,80720,5,0
392,80,80975,1,2
328,200,81230,1,0
464,200,81486,1,2
392,320,81741,2,0,B|264:320,2,115,2|2|2
464,200,82507,6,0,B|464:136,1,57.5
464,72,82762,1,4
464,72,83018,1,2
328,72,83273,2,0,B|264:88|232:136,1,115,0|2
192,192,83656,1,0
384,280,84039,1,2
256,336,84294,2,0,B|128:336,1,115,0|2
144,200,84805,6,0,B|112:136|160:72,1,115,4|2
368,88,85315,2,0,B|405:134|373:198,1,115,4|2
256,272,85826,2,0,B|256:208,1,57.5,2|0
256,144,86081,2,0,B|256:88,2,57.5,2|0|2
256,144,86592,1,4
256,192,86847,12,0,88890
