osu file format v14

[General]
AudioFilename: Happy damnae sama loves tvsizes.mp3
AudioLeadIn: 0
PreviewTime: 50081
Countdown: 0
SampleSet: None
StackLeniency: 0.7
Mode: 0
LetterboxInBreaks: 0
WidescreenStoryboard: 0

[Editor]
Bookmarks: 33740,66421
DistanceSpacing: 1.1
BeatDivisor: 4
GridSize: 4
TimelineZoom: 1.6

[Metadata]
Title:Happy! Lucky! Dochy!
TitleUnicode:Happy! Lucky! Dochy!
Artist:Tamura Yukari, Kanai Mika & Horie Yui
ArtistUnicode:Tamura Yukari, Kanai Mika & Horie Yui
Creator:Naitoshi
Version:Happy Damnae Likes To Listen Kawaii TVsizes
Source:Higurashi no Naku Koro ni Kira
Tags:EvilElvis Kyubey Irreversible Collaboration Birthday Damnae the Greatest
BeatmapID:776554
BeatmapSetID:352393

[Difficulty]
HPDrainRate:7
CircleSize:4
OverallDifficulty:7
ApproachRate:9
SliderMultiplier:1.7
SliderTickRate:1

[Events]
//Background and Video events
0,0,"14456.jpg",0,0
//Break Periods
//Storyboard Layer 0 (Background)
//Storyboard Layer 1 (Fail)
//Storyboard Layer 2 (Pass)
//Storyboard Layer 3 (Foreground)
//Storyboard Sound Samples

[TimingPoints]
1060,255.31914893617,4,2,1,80,1,0
15357,-90.9090909090909,4,2,1,80,0,0
17400,-100,4,2,1,80,0,0
25315,-100,4,2,1,60,0,0
25379,-100,4,2,1,80,0,0
26464,-100,4,2,1,40,0,0
26591,-100,4,2,1,80,0,0
26719,-100,4,2,1,40,0,0
26847,-100,4,2,1,80,0,0
30549,-100,4,2,1,40,0,0
30677,-100,4,2,1,80,0,0
30804,-100,4,2,1,40,0,0
30932,-100,4,2,1,80,0,0
31187,-100,4,2,1,60,0,0
31251,-100,4,2,1,80,0,0
32208,-100,4,2,1,60,0,0
32272,-100,4,2,1,80,0,0
32974,-90.9090909090909,4,2,1,80,0,0
33740,-100,4,2,1,80,0,0
50081,-100,4,2,1,80,0,1
66421,-100,4,2,1,80,0,0
67442,-83.3333333333333,4,2,1,80,0,0
68464,-100,4,2,1,80,0,0
87868,-100,4,2,1,40,0,0
88889,-100,4,2,1,20,0,0

[Colours]
Combo1 : 17,254,176
Combo2 : 173,255,95
Combo3 : 255,88,100
Combo4 : 255,94,55

[HitObjects]
423,307,549,5,0,1:0:0:0:
417,319,677,5,0,1:0:0:0:
408,307,804,5,0,1:0:0:0:
429,321,932,5,0,1:0:0:0:
408,328,1060,6,0,B|305:339|338:295|231:309,1,170,4|8,1:0|1:0,0:0:0:0:
176,254,1442,1,0,0:0:0:0:
107,203,1570,2,0,P|98:244|108:291,1,85,2|0,1:0|0:0,0:0:0:0:
264,222,1825,1,10,1:0:0:0:
200,165,1953,6,0,P|132:181|38:129,1,170,2|0,1:0|0:0,0:0:0:0:
51,26,2336,2,0,P|87:18|146:31,1,85,10|0,1:0|0:0,0:0:0:0:
295,67,2591,2,0,P|258:74|199:61,1,85,2|0,1:0|0:0,0:0:0:0:
273,155,2847,2,0,P|272:200|268:239,1,85,10|0,1:0|0:0,0:0:0:0:
297,329,3102,6,0,P|290:267|368:195,1,170,4|10,1:0|1:0,0:0:0:0:
446,192,3485,1,0,0:0:0:0:
487,266,3613,2,0,P|440:275|386:258,1,85,2|0,1:0|0:0,0:0:0:0:
408,119,3868,2,0,P|455:110|509:127,1,85,10|0,1:0|0:0,0:0:0:0:
217,229,4123,6,0,L|126:214,1,85,4|0,1:2|0:0,0:0:0:0:
216,55,4379,2,0,L|129:72,1,85,4|0,1:2|0:0,0:0:0:0:
202,149,4634,5,2,1:0:0:0:
297,89,4762,1,2,1:0:0:0:
337,161,4889,5,8,1:0:0:0:
278,9,5017,1,2,1:0:0:0:
389,82,5145,6,0,P|381:149|390:263,1,170,6|8,1:0|1:0,0:0:0:0:
340,335,5528,1,0,0:0:0:0:
257,287,5655,2,0,L|260:191,1,85,2|0,1:0|0:0,0:0:0:0:
138,314,5911,1,10,1:0:0:0:
224,353,6038,6,0,P|218:291|126:231,1,170,2|0,1:0|0:0,0:0:0:0:
95,156,6421,2,0,P|65:193|61:235,1,85,10|0,1:0|0:0,0:0:0:0:
173,142,6677,2,0,P|145:94|115:80,1,85,2|0,1:0|0:0,0:0:0:0:
193,38,6932,2,0,L|286:34,1,85,10|0,1:0|0:0,0:0:0:0:
501,104,7187,6,0,P|447:41|365:34,1,170,4|10,1:0|1:0,0:0:0:0:
256,155,7570,1,0,0:0:0:0:
333,267,7698,2,0,P|376:275|430:264,1,85,2|0,1:0|0:0,0:0:0:0:
416,114,7953,2,0,P|373:106|319:117,1,85,10|0,1:0|0:0,0:0:0:0:
398,193,8208,6,0,L|495:185,1,85,4|0,1:2|0:0,0:0:0:0:
316,194,8464,2,0,L|219:186,1,85,4|0,1:2|1:0,0:0:0:0:
159,139,8719,5,2,1:0:0:0:
169,253,8847,1,2,1:0:0:0:
134,239,8974,5,8,1:0:0:0:
128,164,9102,1,2,1:0:0:0:
54,242,9230,6,0,P|54:174|41:69,1,170,6|8,1:0|1:0,0:0:0:0:
160,18,9613,1,0,0:0:0:0:
238,60,9740,2,0,P|233:109|234:151,1,85,2|0,1:0|0:0,0:0:0:0:
325,212,9996,1,10,1:0:0:0:
276,318,10123,6,0,B|176:326|201:277|113:284,1,170,2|0,1:0|0:0,0:0:0:0:
57,209,10506,2,0,P|93:199|148:203,1,85,10|0,1:0|0:0,0:0:0:0:
140,365,10762,2,0,P|97:367|56:357,1,85,2|0,1:0|0:0,0:0:0:0:
25,268,11017,2,0,L|13:173,1,85,10|0,1:0|0:0,0:0:0:0:
202,85,11272,6,0,P|216:146|212:253,1,170,4|10,1:0|1:0,0:0:0:0:
327,366,11655,1,0,0:0:0:0:
450,271,11783,2,0,P|445:217|444:184,1,85,2|0,1:0|0:0,0:0:0:0:
296,212,12038,2,0,P|300:254|303:296,1,85,10|0,1:0|0:0,0:0:0:0:
365,107,12294,6,0,L|355:14,1,85,4|0,1:2|0:0,0:0:0:0:
151,108,12549,2,0,L|170:14,1,85,4|0,1:2|0:0,0:0:0:0:
288,116,12804,5,2,1:0:0:0:
247,92,12932,1,2,1:0:0:0:
285,81,13059,5,8,1:0:0:0:
256,121,13187,1,2,1:0:0:0:
270,103,13315,6,0,B|295:193|250:178|277:277,1,170,6|8,1:0|1:0,0:0:0:0:
339,344,13698,1,0,0:0:0:0:
398,264,13825,2,0,P|441:257|491:261,1,85,2|0,1:0|0:0,0:0:0:0:
512,153,14081,1,8,1:0:0:0:
449,98,14208,6,0,P|394:81|283:106,1,170,2|0,1:0|0:0,0:0:0:0:
148,30,14591,2,0,P|165:62|206:107,1,85,10|0,1:0|0:0,0:0:0:0:
169,241,14847,2,0,P|206:214|231:183,1,85,2|0,1:0|0:0,0:0:0:0:
132,157,15102,2,0,L|39:154,1,85,10|0,1:0|0:0,0:0:0:0:
23,75,15357,6,0,P|35:178|30:268,1,187.000005706787,4|8,1:0|1:0,0:0:0:0:
137,335,15740,1,0,0:0:0:0:
263,283,15868,2,0,P|259:189|270:97,1,187.000005706787,4|8,1:0|1:0,0:0:0:0:
217,29,16251,1,0,0:0:0:0:
45,76,16379,5,4,1:2:0:0:
71,165,16506,1,4,0:3:0:0:
162,145,16634,1,4,1:2:0:0:
184,236,16762,1,8,0:3:0:0:
91,258,16889,1,0,1:0:0:0:
71,165,17017,1,0,1:0:0:0:
248,183,17145,5,0,1:0:0:0:
248,183,17400,6,0,P|290:179|334:191,1,85,4|2,1:0|0:0,0:0:0:0:
335,304,17655,2,0,P|294:314|251:310,1,85,8|2,1:0|0:0,0:0:0:0:
406,239,17911,2,0,L|416:143,1,85,0|2,1:0|0:0,0:0:0:0:
467,87,18166,1,8,1:0:0:0:
467,87,18294,1,2,0:0:0:0:
407,26,18421,6,0,P|350:31|310:28,1,85,2|0,1:0|0:0,0:0:0:0:
250,77,18677,2,0,L|159:71,1,85,8|2,1:0|1:0,0:0:0:0:
91,28,18932,2,0,P|41:47|17:170,1,170,2|8,0:0|1:0,0:0:0:0:
124,218,19315,1,2,0:0:0:0:
208,196,19442,6,0,P|177:146|142:123,1,85,0|2,1:0|0:0,0:0:0:0:
114,314,19698,2,0,P|163:301|196:273,1,85,8|2,1:0|0:0,0:0:0:0:
51,174,19953,2,0,P|40:220|48:269,1,85,0|2,1:0|0:0,0:0:0:0:
86,95,20208,2,0,L|51:13,1,85,10|2,1:0|0:0,0:0:0:0:
268,90,20464,5,6,1:0:0:0:
350,175,20591,2,0,L|366:83,1,85,2|8,0:1|1:0,0:0:0:0:
185,172,20847,2,2,L|153:-7,1,170,4|0,1:2|1:0,1:0:0:0:
265,175,21230,6,0,L|256:265,1,85,8|2,1:0|0:0,0:0:0:0:
353,346,21485,2,0,P|356:301|340:250,1,85,0|2,1:0|0:0,0:0:0:0:
173,262,21740,2,0,P|162:303|166:345,1,85,8|2,1:0|0:0,0:0:0:0:
265,175,21996,2,0,L|253:78,1,85,0|2,1:0|0:0,0:0:0:0:
311,26,22251,1,10,1:0:0:0:
311,26,22379,1,2,0:0:0:0:
385,72,22506,6,0,P|434:77|483:74,1,85,0|2,1:0|0:0,0:0:0:0:
364,219,22762,2,0,P|413:214|462:217,1,85,8|2,1:0|1:0,0:0:0:0:
336,138,23017,2,0,P|342:198|336:324,1,170,0|8,0:0|1:0,0:0:0:0:
265,360,23400,1,2,0:0:0:0:
188,302,23528,6,0,P|185:253|190:209,1,85,0|2,1:0|0:0,0:0:0:0:
59,105,23783,2,0,P|100:122|147:148,1,85,8|2,1:0|0:0,0:0:0:0:
312,112,24038,2,0,P|257:137|231:159,1,85,0|2,1:0|0:0,0:0:0:0:
68,227,24294,1,8,1:0:0:0:
68,227,24549,6,0,P|67:279|79:326,1,85,2|0,1:0|0:0,0:0:0:0:
284,293,24804,2,0,P|285:250|276:209,1,85,10|0,1:0|0:0,0:0:0:0:
169,149,25059,2,0,L|181:329,1,170,2|4,1:0|0:0,0:0:0:0:
250,376,25442,1,2,0:0:0:0:
346,341,25570,6,0,P|388:331|430:326,1,85,4|2,1:2|0:0,0:0:0:0:
512,259,25825,2,0,P|469:253|428:244,1,85,8|2,1:0|0:0,0:0:0:0:
354,191,26081,2,0,P|294:201|260:211,1,85,0|2,1:0|0:0,0:0:0:0:
180,175,26336,1,8,1:0:0:0:
180,175,26464,1,8,1:0:0:0:
77,172,26591,6,0,P|67:126|71:69,1,85,2|8,1:0|0:1,0:0:0:0:
125,27,26847,1,8,1:0:0:0:
203,78,26974,2,0,P|281:77|377:67,1,170,2|0,1:0|1:0,0:0:0:0:
504,12,27357,6,0,P|462:12|420:9,1,85,8|0,1:0|0:0,0:0:0:0:
410,140,27613,2,0,P|452:140|495:144,1,85,0|2,1:0|0:0,0:0:0:0:
377,212,27868,2,0,P|336:231|308:259,1,85,8|2,1:0|0:0,0:0:0:0:
257,355,28123,2,0,P|240:306|239:251,1,85,0|2,1:0|0:0,0:0:0:0:
341,349,28379,2,0,P|386:355|429:342,1,85,8|2,1:0|0:0,0:0:0:0:
256,182,28634,5,2,1:0:0:0:
186,131,28762,2,0,L|74:142,1,85,2|8,1:0|1:0,0:0:0:0:
20,304,29017,2,2,P|76:309|144:213,1,170,4|0,0:0|0:0,1:0:0:0:
219,268,29400,1,8,1:0:0:0:
219,268,29528,1,2,0:0:0:0:
320,198,29655,6,0,P|292:202|230:187,1,85,0|2,1:0|0:0,0:0:0:0:
244,60,29911,2,0,P|272:56|334:71,1,85,8|2,1:0|0:0,0:0:0:0:
434,13,30166,2,0,P|366:41|357:137,1,170,0|8,1:0|1:0,0:0:0:0:
417,206,30549,1,8,1:0:0:0:
501,138,30677,6,0,P|463:130|418:101,1,85,2|8,1:0|1:0,0:0:0:0:
459,298,30932,2,0,P|485:259|517:233,1,85,8|2,1:0|1:0,0:0:0:0:
337,212,31187,2,0,B|239:221|258:181|166:191,1,170,4|8,0:0|1:0,0:0:0:0:
66,258,31570,1,2,0:0:0:0:
151,348,31698,6,0,P|159:292|148:261,1,85,0|2,1:0|0:0,0:0:0:0:
7,110,31953,2,0,P|-2:151|6:192,1,85,8|2,1:0|0:0,0:0:0:0:
101,84,32208,2,0,L|96:0,1,85,4|2,0:0|0:0,0:0:0:0:
292,91,32464,6,0,L|198:102,1,85,10|0,1:0|0:0,0:0:0:0:
297,245,32719,2,0,L|203:232,1,85,2|0,1:0|0:0,0:0:0:0:
423,146,32974,6,0,B|432:101|432:101|412:44,1,93.5000028533937,4|2,1:0|1:0,0:0:0:0:
504,224,33230,2,0,B|437:213|437:213|399:173|399:173|328:158,1,187.000005706787,4|2,1:2|1:0,0:0:0:0:
266,184,33613,1,0,0:0:0:0:
195,256,33740,6,0,P|212:298|269:342,1,85,4|0,1:0|0:0,0:0:0:0:
140,193,33996,2,0,P|95:186|28:214,1,85,2|2,1:2|0:0,0:0:0:0:
222,176,34251,2,0,P|249:140|259:68,1,85
149,29,34506,2,0,L|167:113,1,85,2|2,1:2|0:0,0:0:0:0:
403,44,34762,2,0,B|358:31|358:31|300:46,1,93.5000028533937,0|0,1:0|0:0,0:0:0:0:
450,103,35017,1,2,1:2:0:0:
260,102,35145,2,0,P|252:154|276:281,1,170,2|0,0:0|1:0,0:0:0:0:
214,357,35528,2,0,P|183:300|172:255,1,85,2|2,1:2|0:0,0:0:0:0:
346,127,35783,6,0,P|377:184|388:229,1,85,0|0,1:0|0:0,0:0:0:0:
479,242,36038,2,0,P|482:200|473:159,1,85,2|2,1:2|0:0,0:0:0:0:
277,189,36293,2,0,P|279:232|295:271,1,85
408,336,36549,2,0,L|305:365,1,85,2|2,1:2|0:0,0:0:0:0:
192,316,36804,1,0,1:0:0:0:
356,206,36932,1,0,1:0:0:0:
173,133,37059,1,4,1:2:0:0:
124,250,37187,2,0,B|181:240|181:240|231:197|231:197|304:184,1,170,2|2,0:1|1:0,0:0:0:0:
179,325,37570,2,0,L|90:340,1,85,2|0,1:0|0:0,0:0:0:0:
95,107,37825,6,0,P|145:114|182:143,1,85,4|0,1:0|0:0,0:0:0:0:
119,21,38081,2,0,P|76:20|38:39,1,85,2|2,1:2|0:0,0:0:0:0:
193,151,38336,2,0,P|236:152|274:133,1,85
362,19,38591,2,0,L|375:102,1,85,2|2,1:2|0:0,0:0:0:0:
259,217,38847,2,0,L|272:134,1,85
284,41,39102,1,2,1:2:0:0:
348,270,39230,2,0,L|377:79,1,170,2|0,0:0|0:0,0:0:0:0:
446,250,39613,2,0,L|459:167,1,85,2|2,1:2|0:0,0:0:0:0:
273,335,39868,6,0,P|317:342|378:341,1,85
174,224,40123,2,0,P|218:217|279:218,1,85,2|2,1:2|0:0,0:0:0:0:
79,344,40379,2,0,P|123:340|182:324,1,85
383,165,40634,1,2,1:0:0:0:
383,165,40889,1,2,1:0:0:0:
78,174,41017,1,2,1:0:0:0:
78,174,41272,2,2,P|71:235|82:359,1,170,2|0,1:0|0:0,1:0:0:0:
254,111,41655,2,0,P|198:106|124:116,1,127.5,4|0,1:2|0:0,0:0:0:0:
177,182,41911,6,0,P|147:133|95:95,1,85,6|0,1:0|0:0,0:0:0:0:
257,207,42166,2,0,P|273:262|266:326,1,85,8|0,1:0|0:0,0:0:0:0:
254,111,42421,2,0,L|347:94,1,85,2|0,1:0|0:0,0:0:0:0:
466,180,42677,2,0,L|373:163,1,85,10|0,1:0|0:0,0:0:0:0:
273,289,42932,6,0,P|320:287|368:270,1,85,6|0,1:0|0:0,0:0:0:0:
478,370,43187,2,0,P|431:367|383:351,1,85,10|0,1:0|0:0,0:0:0:0:
177,182,43442,2,0,P|166:223|160:265,1,85,4|0,1:2|0:0,0:0:0:0:
72,372,43697,2,0,P|66:328|58:287,1,85,10|0,1:0|0:0,0:0:0:0:
100,31,43953,6,0,P|141:25|200:38,1,85,2|0,1:0|0:0,0:0:0:0:
177,182,44208,2,0,P|136:188|77:175,1,85,10|0,1:0|0:0,0:0:0:0:
230,108,44464,2,0,L|323:110,1,85,2|0,1:0|0:0,0:0:0:0:
273,289,44719,1,10,1:0:0:0:
167,192,44847,1,0,0:0:0:0:
373,190,44974,2,0,P|367:236|349:277,1,85,6|0,1:0|0:0,0:0:0:0:
157,202,45230,1,4,1:2:0:0:
247,95,45357,2,0,B|341:60|334:121|413:91,1,170,2|2,1:0|0:1,0:0:0:0:
147,212,45740,2,0,P|124:156|151:95,1,127.5,4|0,1:2|0:0,0:0:0:0:
169,81,45996,6,0,P|127:66|61:61,1,85,6|0,1:0|0:0,0:0:0:0:
53,233,46251,2,0,P|96:231|160:210,1,85,4|0,1:2|0:0,0:0:0:0:
283,278,46506,2,0,P|240:280|176:301,1,85,2|0,1:0|0:0,0:0:0:0:
405,153,46762,2,0,P|372:179|334:199,1,85,4|0,1:2|0:0,0:0:0:0:
453,313,47017,6,0,P|411:311|368:317,1,85,2|0,1:0|0:0,0:0:0:0:
157,202,47272,2,0,P|198:203|241:197,1,85,4|0,1:2|0:0,0:0:0:0:
205,362,47528,2,0,L|205:275,1,85,2|0,1:0|0:0,0:0:0:0:
405,153,47783,2,0,L|405:240,1,85,4|0,1:2|0:0,0:0:0:0:
267,38,48038,5,6,1:0:0:0:
266,55,48549,5,4,1:0:0:0:
265,71,49059,5,4,1:0:0:0:
150,86,49315,6,0,P|138:36|143:-20,1,85,8|8,1:0|1:0,0:0:0:0:
196,176,49570,2,2,P|128:163|66:179,1,127.5,4|0,1:2|0:0,1:0:0:0:
48,192,49825,5,4,1:2:0:0:
48,192,50081,6,0,P|32:144|40:92,1,85,6|0,1:0|0:0,0:0:0:0:
164,192,50336,2,0,P|149:231|150:273,1,85,8|0,1:0|1:0,0:0:0:0:
370,296,50591,2,0,P|326:240|222:256,1,170,2|8,1:0|1:0,0:0:0:0:
285,323,50974,1,0,0:0:0:0:
392,152,51102,6,0,L|376:56,1,85,2|0,1:0|0:0,0:0:0:0:
220,161,51357,2,0,L|236:257,1,85,10|0,1:0|1:0,0:0:0:0:
400,128,51613,2,0,L|384:32,1,85,2|0,1:0|0:0,0:0:0:0:
204,180,51868,2,0,L|220:276,1,85,10|0,1:0|0:0,0:0:0:0:
120,96,52123,6,0,P|68:80|0:124,1,127.5,6|0,1:0|0:0,0:0:0:0:
0,124,52379,2,0,P|52:108|120:152,1,127.5,10|0,1:0|0:0,0:0:0:0:
51,183,52634,2,0,L|24:316,1,127.5,2|0,1:0|0:0,0:0:0:0:
89,361,52889,2,0,L|107:278,1,85,10|8,1:0|1:0,0:0:0:0:
180,220,53145,5,4,1:2:0:0:
288,272,53272,1,0,0:0:0:0:
376,192,53400,1,4,1:2:0:0:
375,347,53528,2,0,B|406:305|406:305|371:175,1,170,2|2,1:0|1:0,0:0:0:0:
408,104,53911,2,0,P|452:88|516:104,1,85,8|0,1:0|0:0,0:0:0:0:
256,40,54166,6,0,P|212:24|148:40,1,85,2|0,1:0|0:0,0:0:0:0:
80,104,54421,2,0,L|92:196,1,85,10|0,1:0|1:0,0:0:0:0:
36,252,54677,2,0,P|108:224|208:220,1,170,4|10,1:2|1:0,0:0:0:0:
124,252,55059,1,0,1:0:0:0:
256,344,55187,6,0,P|300:360|364:344,1,85,2|0,1:0|0:0,0:0:0:0:
432,280,55442,2,0,L|420:188,1,85,10|0,1:0|1:0,0:0:0:0:
476,132,55698,2,0,P|404:160|304:164,1,170,4|10,1:2|1:0,0:0:0:0:
256,40,56081,1,0,1:0:0:0:
152,108,56208,6,0,B|108:92|108:92|36:100,1,85,2|0,1:0|0:0,0:0:0:0:
172,296,56464,2,0,B|156:340|156:340|164:412,1,85,8|0,1:0|1:0,0:0:0:0:
360,276,56719,2,0,B|404:292|404:292|476:284,1,85,2|0,1:0|0:0,0:0:0:0:
340,88,56975,2,0,B|356:44|356:44|348:-28,1,85,10|8,1:0|1:0,0:0:0:0:
144,104,57230,5,4,1:2:0:0:
240,128,57357,1,0,0:0:0:0:
152,132,57485,1,4,1:2:0:0:
248,156,57613,2,0,P|216:232|200:320,1,170,2|4,1:0|0:0,0:0:0:0:
296,368,57996,2,0,L|388:360,1,85,10|0,1:0|0:0,0:0:0:0:
488,192,58251,6,0,P|472:108|440:30,1,170,6|8,1:0|1:0,0:0:0:0:
71,30,58762,2,0,P|39:108|24:192,1,170,6|8,1:0|1:0,0:0:0:0:
96,264,59145,1,0,1:0:0:0:
192,208,59272,6,0,L|280:204,1,85,2|0,1:0|0:0,0:0:0:0:
480,308,59528,2,0,L|392:304,1,85,10|0,1:0|0:0,0:0:0:0:
196,192,59783,2,0,L|284:188,1,85,2|0,1:0|0:0,0:0:0:0:
496,320,60039,2,0,L|408:316,1,85,10|8,1:0|1:0,0:0:0:0:
244,200,60294,6,0,P|224:136|260:68,1,127.5,2|0,1:0|0:0,0:0:0:0:
304,36,60549,2,0,P|324:80|308:120,1,85,10|0,1:0|0:0,0:0:0:0:
172,144,60804,2,0,L|32:128,1,127.5,2|0,1:0|0:0,0:0:0:0:
12,160,61059,2,0,L|100:152,1,85,2|0,1:0|0:0,0:0:0:0:
156,228,61315,5,4,1:2:0:0:
256,32,61570,1,4,1:2:0:0:
460,128,61825,1,4,1:2:0:0:
468,136,62081,6,0,L|452:232,1,85,10|8,1:0|1:0,0:0:0:0:
408,316,62336,2,0,B|368:296|368:296|228:312,1,170,6|10,1:0|1:0,0:0:0:0:
160,364,62719,1,0,0:0:0:0:
88,304,62847,2,0,B|13:258|57:218|-20:170,1,170,4|10,1:2|1:0,0:3:0:0:
8,80,63230,1,0,1:0:0:0:
104,68,63357,6,0,B|144:88|144:88|284:72,1,170,2|10,1:0|1:0,0:0:0:0:
352,20,63740,1,0,1:0:0:0:
424,80,63868,2,0,B|448:164|388:164|412:252,1,170,4|4,1:2|1:2,0:3:0:0:
504,304,64251,1,0,0:0:0:0:
380,352,64379,6,0,L|284:336,1,85,2|0,1:0|0:0,0:0:0:0:
52,368,64634,2,0,L|148:352,1,85,8|0,1:0|0:0,0:0:0:0:
364,332,64889,2,0,L|268:316,1,85,2|0,1:0|0:0,0:0:0:0:
36,348,65144,2,0,L|132:332,1,85,10|0,1:0|1:0,0:0:0:0:
176,224,65400,6,0,P|178:165|162:128,1,85,4|0,1:2|0:0,0:0:0:0:
24,134,65655,2,0,P|12:174|17:216,1,85,4|0,1:2|1:0,0:0:0:0:
112,272,65911,2,0,B|199:249|191:296|288:270,1,170,6|10,1:0|1:0,0:0:0:0:
379,238,66294,1,0,0:0:0:0:
384,128,66421,6,0,P|372:84|336:64,1,85,4|0,1:2|0:0,0:0:0:0:
171,64,66677,2,0,P|137:87|128:128,1,85,4|0,1:2|0:0,0:0:0:0:
128,255,66932,2,0,P|137:296|171:319,1,85,4|0,1:2|0:0,0:0:0:0:
340,319,67188,2,0,P|374:296|384:256,1,85,4|0,1:2|0:0,0:0:0:0:
414,123,67442,6,0,P|398:71|334:31,1,101.999996887207,4|0,1:2|0:0,0:0:0:0:
148,40,67698,2,0,P|111:74|98:123,1,101.999996887207,4|0,1:2|0:0,0:0:0:0:
98,260,67953,2,0,P|111:309|148:343,1,101.999996887207,4|0,1:2|0:0,0:0:0:0:
363,343,68209,2,0,P|400:309|414:261,1,101.999996887207,4|0,1:2|0:0,0:0:0:0:
308,188,68464,5,4,1:0:0:0:
288,200,68974,1,4,1:0:0:0:
268,216,69485,2,0,P|224:216|176:208,1,85,4|0,1:0|0:0,0:0:0:0:
64,276,69740,2,0,P|56:324|64:360,1,85,8|8,1:0|1:0,0:0:0:0:
152,316,69996,1,2,1:0:0:0:
232,364,70124,1,0,0:0:0:0:
316,320,70251,1,8,1:0:0:0:
396,368,70379,1,8,1:0:0:0:
492,264,70506,6,0,P|504:168|480:84,1,170,6|8,1:0|1:0,0:0:0:0:
332,80,70889,1,0,0:0:0:0:
332,80,71017,2,0,P|367:102|416:120,1,85,2|0,1:0|0:0,0:0:0:0:
264,152,71272,1,8,1:0:0:0:
264,152,71400,6,0,P|176:148|80:156,1,170,2|0,1:0|0:0,0:0:0:0:
80,248,71783,2,0,L|168:236,1,85,10|0,1:0|0:0,0:0:0:0:
104,68,72038,2,0,L|19:79,1,85,2|0,1:0|0:0,0:0:0:0:
188,84,72294,2,0,P|184:36|164:0,1,85,10|0,1:0|0:0,0:0:0:0:
265,42,72549,6,0,P|350:41|442:32,1,170,6|8,1:0|1:0,0:0:0:0:
497,109,72932,1,0,0:0:0:0:
423,145,73059,2,0,P|371:140|328:141,1,85,2|0,1:0|0:0,0:0:0:0:
345,320,73315,2,0,P|387:319|429:315,1,85,10|0,1:0|0:0,0:0:0:0:
480,223,73570,6,0,L|396:236,1,85,4|0,1:2|0:0,0:0:0:0:
249,143,73825,2,0,L|256:228,1,85,4|0,1:2|0:0,0:0:0:0:
332,160,74081,1,2,1:0:0:0:
308,80,74208,1,2,1:0:0:0:
224,64,74336,1,8,1:0:0:0:
168,128,74464,1,2,1:0:0:0:
79,143,74591,6,0,P|164:139|249:143,1,170,6|8,1:0|1:0,0:0:0:0:
40,244,74974,1,0,0:0:0:0:
40,244,75102,2,0,L|132:232,1,85,2|0,1:0|0:0,0:0:0:0:
272,260,75357,1,10,1:0:0:0:
224,344,75485,6,0,L|236:160,1,170,2|0,1:0|0:0,0:0:0:0:
356,252,75868,2,0,P|348:296|308:340,1,85,10|0,1:0|0:0,0:0:0:0:
312,180,76123,2,0,P|354:164|412:177,1,85,2|0,1:0|0:0,0:0:0:0:
272,260,76379,2,0,L|156:264,1,85,10|0,1:0|0:0,0:0:0:0:
32,268,76634,6,0,P|28:312|40:360,1,85,6|0,1:0|0:0,0:0:0:0:
112,224,76889,1,10,1:0:0:0:
112,224,77017,1,0,0:0:0:0:
112,224,77145,2,0,P|116:180|104:132,1,85,2|0,1:0|0:0,0:0:0:0:
52,60,77400,1,10,1:0:0:0:
128,16,77528,1,0,0:0:0:0:
184,88,77655,6,0,L|276:92,1,85,4|0,1:2|0:0,0:0:0:0:
328,176,77911,2,0,L|420:172,1,85,4|0,1:2|1:0,0:0:0:0:
420,36,78166,1,2,1:0:0:0:
404,128,78294,1,2,1:0:0:0:
388,220,78421,1,8,1:0:0:0:
372,312,78549,1,2,1:0:0:0:
276,292,78677,6,0,P|200:284|100:296,1,170,6|8,1:0|1:0,0:0:0:0:
88,180,79059,1,0,0:0:0:0:
88,180,79187,2,0,P|96:128|96:88,1,85,2|0,1:0|0:0,0:0:0:0:
8,160,79442,1,10,1:0:0:0:
8,160,79570,6,0,L|184:152,1,170,2|0,1:0|0:0,0:0:0:0:
300,208,79953,2,0,L|396:216,1,85,10|0,1:0|0:0,0:0:0:0:
240,292,80208,2,0,L|144:300,1,85,2|0,1:0|0:0,0:0:0:0:
420,292,80464,2,0,P|456:264|468:212,1,85,10|0,1:0|0:0,0:0:0:0:
488,113,80719,5,6,1:0:0:0:
488,113,80974,2,0,L|389:103,1,85,8|0,1:0|0:0,0:0:0:0:
253,224,81230,2,0,L|352:234,1,85,2|0,1:0|0:0,0:0:0:0:
278,61,81485,2,0,L|179:51,1,85,10|0,1:0|0:0,0:0:0:0:
247,140,81740,6,0,P|289:139|332:144,1,85,4|0,1:2|0:0,0:0:0:0:
106,166,81996,2,0,P|107:207|101:263,1,85,4|0,1:2|0:0,0:0:0:0:
258,276,82251,1,2,1:0:0:0:
192,194,82379,1,2,1:0:0:0:
73,337,82506,5,8,1:0:0:0:
174,315,82634,1,2,1:0:0:0:
324,328,82762,6,0,P|416:320|512:328,1,170,6|8,1:0|1:0,0:0:0:0:
392,212,83145,1,0,0:0:0:0:
392,212,83272,2,0,L|376:308,1,85,2|0,1:0|0:0,0:0:0:0:
488,228,83528,1,10,1:0:0:0:
488,228,83655,6,0,L|448:60,1,170,2|0,1:0|0:0,0:0:0:0:
304,2,84038,2,0,P|280:37|264:76,1,85,10|0,1:0|0:0,0:0:0:0:
276,168,84294,2,0,L|396:136,1,85,2|0,1:0|0:0,0:0:0:0:
188,140,84549,2,0,P|188:180|212:240,1,85,10|0,1:0|0:0,0:0:0:0:
300,336,84804,6,0,L|276:168,1,170,4|8,1:0|1:0,0:0:0:0:
216,288,85187,1,0,0:0:0:0:
216,288,85315,2,0,L|196:388,1,85,4|0,1:0|0:0,0:0:0:0:
70,274,85570,2,0,P|61:216|79:158,1,85,8|0,1:0|0:0,0:0:0:0:
234,198,85825,5,4,1:2:0:0:
145,228,85953,1,4,0:3:0:0:
160,130,86081,1,4,1:2:0:0:
249,100,86209,1,8,0:3:0:0:
323,168,86336,1,4,1:2:0:0:
145,228,86591,5,0,1:0:0:0:
454,293,86847,5,4,1:0:0:0:
256,192,86911,12,0,89017,2:0:0:0:
