osu file format v12

[General]
AudioFilename: 05. You & Me.mp3
AudioLeadIn: 1500
PreviewTime: 21534
Countdown: 0
SampleSet: Normal
StackLeniency: 0.7
Mode: 0
LetterboxInBreaks: 0

[Editor]
DistanceSpacing: 0.7
BeatDivisor: 3
GridSize: 4

[Metadata]
Title:You & Me
TitleUnicode:You & Me
Artist:Tamura Yukari feat. motsu from m.o.v.e
ArtistUnicode:田村ゆかり feat. motsu from m.o.v.e
Creator:cRyo[iceeicee]
Version:Insane
Source:Card Gakuen
Tags:Everlasting Gift Climbb65588 aabc271 inaba-tan
BeatmapID:210078
BeatmapSetID:67093

[Difficulty]
HPDrainRate:7
CircleSize:4
OverallDifficulty:7
ApproachRate:9
SliderMultiplier:1.8
SliderTickRate:2

[Events]
//Background and Video events
0,0,"BG.jpg",0,0
//Break Periods
2,86304,96754
//Storyboard Layer 0 (Background)
//Storyboard Layer 1 (Fail)
//Storyboard Layer 2 (Pass)
//Storyboard Layer 3 (Foreground)
//Storyboard Sound Samples
//Background Colour Transformations
3,100,163,162,255

[TimingPoints]
-896,375,4,1,1,35,1,0
229,-100,4,2,1,45,0,0
791,-100,4,1,1,45,0,0
814,-100,4,1,1,75,0,0
1541,-100,4,1,1,45,0,0
1564,-100,4,1,1,75,0,0
2291,-100,4,1,1,45,0,0
2314,-100,4,1,1,75,0,0
2572,-100,4,1,1,55,0,0
2854,-100,4,1,1,75,0,0
3791,-100,4,1,1,45,0,0
3814,-100,4,1,1,75,0,0
4541,-100,4,1,1,45,0,0
4564,-100,4,1,1,75,0,0
6229,-100,4,1,1,45,0,0
6604,-100,4,1,1,25,0,0
8010,-100,4,1,1,45,0,0
9229,-83.3333333333333,4,1,1,55,0,0
9604,-83.3333333333333,4,1,1,65,0,0
20854,-83.3333333333333,4,1,1,25,0,0
21041,-83.3333333333333,4,2,1,55,0,0
21604,-100,4,1,1,45,0,0
21791,-100,4,2,1,55,0,0
21979,-100,4,1,1,55,0,0
22079,-100,4,2,1,55,0,0
22354,-100,4,1,1,55,0,0
22454,-100,4,2,1,55,0,0
22729,-100,4,1,1,55,0,0
22829,-100,4,2,1,55,0,0
23104,-100,4,1,1,55,0,0
23204,-100,4,2,1,55,0,0
23479,-100,4,1,1,55,0,0
23579,-100,4,2,1,55,0,0
23854,-100,4,1,1,55,0,0
23954,-100,4,2,1,55,0,0
24229,-100,4,1,1,55,0,0
24329,-100,4,2,1,45,0,0
24604,-100,4,1,1,55,0,0
24704,-100,4,2,1,55,0,0
24979,-100,4,1,1,55,0,0
25079,-100,4,2,1,55,0,0
25354,-100,4,1,1,55,0,0
25454,-100,4,2,1,55,0,0
25729,-100,4,1,1,55,0,0
25829,-100,4,2,1,55,0,0
26104,-100,4,1,1,55,0,0
26204,-100,4,2,1,55,0,0
26479,-100,4,1,1,55,0,0
26579,-100,4,2,1,55,0,0
26854,-100,4,1,1,55,0,0
26954,-100,4,2,1,55,0,0
27229,-100,4,1,1,55,0,0
27329,-100,4,2,2,65,0,0
27979,-100,4,1,1,55,0,0
28079,-100,4,2,1,55,0,0
28354,-100,4,1,1,55,0,0
28541,-100,4,1,1,65,0,0
28822,-100,4,2,1,55,0,0
29479,-100,4,1,1,55,0,0
29579,-100,4,2,1,55,0,0
29854,-100,4,1,1,55,0,0
30041,-100,4,1,1,65,0,0
30322,-100,4,2,2,55,0,0
30979,-100,4,1,1,65,0,0
31072,-100,4,2,1,55,0,0
31354,-100,4,1,1,55,0,0
31454,-100,4,2,1,55,0,0
31729,-100,4,1,1,65,0,0
31829,-100,4,2,1,55,0,0
32010,-100,4,1,1,70,0,0
32666,-100,4,3,1,50,0,0
33041,-100,4,3,1,60,0,0
33229,-100,4,3,1,70,0,0
33416,-100,4,3,1,80,0,0
33510,-100,4,1,2,55,0,0
33697,-100,4,2,1,55,0,0
33979,-100,4,1,1,65,0,0
34079,-100,4,2,1,65,0,0
34354,-100,4,1,1,65,0,0
34454,-100,4,2,1,65,0,0
34729,-100,4,1,1,65,0,0
34829,-100,4,2,1,65,0,0
35104,-100,4,1,1,65,0,0
35204,-100,4,2,1,65,0,0
35479,-100,4,1,2,65,0,0
36697,-100,4,2,1,65,0,0
36979,-100,4,1,1,65,0,0
37079,-100,4,2,1,65,0,0
37354,-100,4,1,1,65,0,0
37454,-100,4,2,1,65,0,0
37729,-100,4,1,1,65,0,0
37829,-100,4,2,1,65,0,0
38104,-100,4,1,1,65,0,0
38204,-100,4,2,1,65,0,0
38479,-100,4,1,1,65,0,0
38579,-100,4,2,1,65,0,0
38854,-100,4,3,1,55,0,0
39229,-100,4,3,1,60,0,0
39604,-100,4,1,1,55,0,0
39697,-100,4,2,1,55,0,0
39979,-100,4,1,1,65,0,0
40079,-100,4,2,1,65,0,0
40354,-100,4,1,2,55,0,0
40454,-100,4,2,1,65,0,0
40729,-100,4,1,1,65,0,0
40829,-100,4,2,1,65,0,0
41104,-100,4,1,1,65,0,0
41204,-100,4,2,1,65,0,0
41479,-100,4,1,1,65,0,0
41579,-100,4,2,1,65,0,0
41854,-100,4,1,2,60,0,0
41954,-100,4,2,1,65,0,0
42229,-100,4,1,1,65,0,0
42329,-100,4,2,1,65,0,0
42604,-100,4,1,2,65,0,0
42704,-100,4,2,1,65,0,0
42979,-100,4,1,1,65,0,0
43079,-100,4,2,1,65,0,0
43635,-100,4,1,1,50,0,0
43829,-100,4,2,1,65,0,0
44010,-100,4,3,1,55,0,0
44479,-100,4,3,1,60,0,0
44854,-100,4,2,1,55,0,0
45041,-100,4,2,1,65,0,0
45604,-125,4,1,1,65,0,0
45791,-125,4,2,1,55,0,0
46166,-125,4,1,1,65,0,0
46260,-125,4,2,1,65,0,0
46822,-125,4,1,1,65,0,0
47197,-125,4,2,1,65,0,0
47385,-125,4,1,2,65,0,0
47760,-125,4,2,1,65,0,0
48604,-125,4,1,1,60,0,0
48704,-125,4,2,1,65,0,0
49166,-125,4,1,1,65,0,0
49266,-125,4,2,1,65,0,0
49916,-100,4,1,1,65,0,0
50666,-100,4,2,1,55,0,0
50854,-100,4,3,1,65,0,0
51416,-100,4,1,1,55,0,0
52354,-100,4,1,1,65,0,0
53104,-100,4,1,1,70,0,0
57229,-100,4,2,1,65,0,0
57329,-100,4,1,1,65,0,0
57697,-100,4,2,1,65,0,0
57979,-100,4,1,1,65,0,0
58079,-100,4,2,1,65,0,0
58354,-100,4,1,1,65,0,0
58454,-100,4,2,1,65,0,0
58729,-100,4,1,1,65,0,0
58829,-100,4,2,1,65,0,0
59104,-100,4,1,1,65,0,0
59204,-100,4,2,1,65,0,0
59479,-100,4,1,1,65,0,0
59579,-100,4,2,1,65,0,0
59854,-100,4,1,1,65,0,0
59954,-100,4,2,1,65,0,0
60229,-100,4,1,1,65,0,0
60329,-100,4,2,1,65,0,0
60604,-100,4,1,1,65,0,0
60704,-100,4,2,1,65,0,0
60979,-100,4,1,1,65,0,0
61079,-100,4,2,1,65,0,0
61354,-100,4,1,1,65,0,0
61454,-100,4,2,1,65,0,0
61729,-100,4,1,1,65,0,0
61829,-100,4,2,1,65,0,0
62104,-100,4,1,2,65,0,0
62666,-100,4,2,1,65,0,0
63229,-100,4,1,1,65,0,0
63510,-100,4,1,1,45,0,0
63604,-100,4,1,2,65,0,0
63704,-100,4,2,1,65,0,0
63979,-100,4,1,1,65,0,0
64079,-100,4,2,1,65,0,0
64354,-100,4,1,2,65,0,0
64454,-100,4,2,1,65,0,0
64729,-100,4,1,1,65,0,0
64829,-100,4,2,1,65,0,0
65104,-100,4,1,2,65,0,0
65204,-100,4,2,1,65,0,0
65479,-100,4,1,1,65,0,0
65579,-100,4,2,1,65,0,0
66229,-100,4,1,1,65,0,0
66329,-100,4,2,1,65,0,0
66604,-100,4,1,1,65,0,0
66704,-100,4,2,1,65,0,0
66979,-100,4,1,1,65,0,0
67079,-100,4,2,1,65,0,0
67354,-100,4,1,1,65,0,0
67454,-100,4,2,1,65,0,0
67729,-100,4,1,1,65,0,0
67829,-100,4,2,1,65,0,0
68104,-100,4,1,1,65,0,0
68666,-100,4,1,1,75,0,0
69041,-100,4,2,1,65,0,0
69604,-100,4,1,1,65,0,0
69697,-100,4,2,1,65,0,0
69979,-100,4,1,1,65,0,0
70079,-100,4,2,1,65,0,0
70354,-100,4,1,1,65,0,0
70454,-100,4,2,1,65,0,0
70729,-100,4,1,1,65,0,0
70829,-100,4,2,1,65,0,0
71104,-100,4,1,1,65,0,0
71204,-100,4,2,1,65,0,0
71479,-100,4,1,1,65,0,0
71579,-100,4,2,1,65,0,0
71854,-100,4,1,1,65,0,0
71954,-100,4,2,1,65,0,0
72229,-100,4,1,1,65,0,0
72329,-100,4,2,1,65,0,0
72604,-100,4,1,1,65,0,0
72704,-100,4,2,1,65,0,0
72979,-100,4,1,1,65,0,0
73079,-100,4,2,1,65,0,0
73354,-100,4,1,1,65,0,0
73454,-100,4,2,1,65,0,0
73729,-100,4,1,1,65,0,0
73829,-100,4,2,1,65,0,0
74104,-100,4,1,2,65,0,0
74760,-100,4,2,1,65,0,0
75229,-100,4,1,1,65,0,0
75329,-100,4,2,1,65,0,0
75604,-100,4,1,2,65,0,0
75704,-100,4,2,1,65,0,0
75979,-100,4,1,1,65,0,0
76079,-100,4,2,1,65,0,0
76354,-100,4,1,2,65,0,0
76454,-100,4,2,1,65,0,0
76729,-100,4,1,1,65,0,0
76829,-100,4,2,1,65,0,0
77104,-100,4,1,2,65,0,0
77204,-100,4,2,1,65,0,0
77479,-100,4,1,1,65,0,0
77579,-100,4,2,1,65,0,0
78229,-100,4,1,1,65,0,0
78329,-100,4,2,1,65,0,0
78604,-100,4,1,2,65,0,0
78704,-100,4,2,1,65,0,0
78979,-100,4,1,1,65,0,0
79079,-100,4,2,1,65,0,0
79354,-100,4,1,2,65,0,0
79454,-100,4,2,1,65,0,0
79729,-100,4,1,1,65,0,0
79829,-100,4,2,1,65,0,0
80104,-100,4,1,2,65,0,0
80204,-100,4,2,1,65,0,0
80479,-100,4,1,1,65,0,0
80572,-100,4,1,2,65,0,0
80760,-100,4,2,1,65,0,0
81229,-125,4,1,1,65,0,0
82260,-125,4,2,1,70,0,0
82541,-125,4,2,1,65,0,0
82822,-125,4,1,1,50,0,0
83104,-125,4,1,1,65,0,0
83760,-125,4,3,1,60,0,0
84604,-125,4,1,2,45,0,0
85729,-125,4,1,2,85,0,0
86104,-125,4,1,1,85,0,0
96604,-125,4,1,1,45,0,0
98104,-125,4,1,1,65,0,0
98291,-125,4,1,2,35,0,0
103729,-90.9090909090909,4,1,1,55,0,0
104104,-100,4,1,1,55,0,0
104572,-100,4,2,1,55,0,0
104854,-100,4,1,1,55,0,0
104954,-100,4,2,1,65,0,0
105416,-100,4,2,1,55,0,0
105791,-100,4,1,1,45,0,0
106079,-100,4,2,1,55,0,0
106354,-100,4,1,1,55,0,0
106454,-100,4,2,1,65,0,0
106822,-100,4,2,1,55,0,0
107479,-100,4,1,1,65,0,0
107579,-100,4,2,1,55,0,0
107854,-100,4,1,1,55,0,0
107954,-100,4,2,1,55,0,0
108229,-100,4,1,1,55,0,0
108329,-100,4,2,1,55,0,0
108510,-100,4,1,1,65,0,0
109166,-100,4,3,1,50,0,0
109447,-100,4,3,1,60,0,0
109635,-100,4,3,1,70,0,0
109822,-100,4,3,1,80,0,0
110010,-100,4,1,2,55,0,0
110197,-100,4,2,1,55,0,0
110479,-100,4,1,1,65,0,0
110579,-100,4,2,1,65,0,0
110854,-100,4,1,1,65,0,0
110954,-100,4,2,1,65,0,0
111229,-100,4,1,1,65,0,0
111329,-100,4,2,1,65,0,0
111604,-100,4,1,1,65,0,0
111704,-100,4,2,1,65,0,0
111979,-100,4,1,2,65,0,0
113291,-100,4,1,1,65,0,0
113572,-100,4,2,1,65,0,0
113854,-100,4,1,1,65,0,0
113954,-100,4,2,1,65,0,0
114229,-100,4,1,1,65,0,0
114329,-100,4,2,1,65,0,0
114604,-100,4,1,1,65,0,0
114791,-100,4,1,1,50,0,0
114979,-100,4,1,1,65,0,0
115079,-100,4,2,1,65,0,0
115354,-100,4,3,1,50,0,0
115729,-100,4,3,1,55,0,0
116104,-100,4,1,1,65,0,0
116204,-100,4,2,1,65,0,0
116479,-100,4,1,1,65,0,0
116579,-100,4,2,1,65,0,0
116854,-100,4,1,2,58,0,0
116954,-100,4,2,1,65,0,0
117229,-100,4,1,1,65,0,0
117329,-100,4,2,1,65,0,0
117604,-100,4,1,1,65,0,0
117704,-100,4,2,1,65,0,0
117979,-100,4,1,1,65,0,0
118079,-100,4,2,1,65,0,0
118354,-100,4,1,2,65,0,0
118454,-100,4,2,1,65,0,0
118729,-100,4,1,1,65,0,0
118829,-100,4,2,1,65,0,0
119104,-100,4,1,2,65,0,0
119479,-100,4,1,1,65,0,0
119579,-100,4,1,2,65,0,0
119854,-100,4,2,1,65,0,0
120041,-100,4,1,1,55,0,0
120329,-100,4,2,1,65,0,0
120604,-100,4,1,1,65,0,0
120697,-100,4,2,1,65,0,0
120979,-100,4,1,1,65,0,0
121166,-100,4,3,1,50,0,0
121354,-100,4,3,1,60,0,0
121541,-100,4,3,1,70,0,0
121729,-100,4,3,1,80,0,0
121916,-100,4,2,1,90,0,0
122104,-125,4,1,1,55,0,0
122291,-125,4,2,1,65,0,0
122666,-125,4,1,1,65,0,0
122766,-125,4,2,1,65,0,0
123416,-125,4,1,1,65,0,0
123697,-125,4,2,1,65,0,0
123885,-125,4,1,2,65,0,0
124072,-125,4,2,1,65,0,0
124916,-125,4,1,1,65,0,0
125291,-125,4,2,1,65,0,0
125666,-125,4,1,1,65,0,0
125766,-125,4,2,1,65,0,0
126416,-100,4,1,1,65,0,0
127354,-100,4,3,1,65,0,0
127916,-100,4,1,1,55,0,0
128854,-100,4,1,1,65,0,0
129604,-100,4,1,1,75,0,0
133729,-100,4,2,1,65,0,0
133829,-100,4,1,1,65,0,0
134197,-100,4,2,1,65,0,0
134479,-100,4,1,1,65,0,0
134579,-100,4,2,1,65,0,0
134854,-100,4,1,1,65,0,0
134954,-100,4,2,1,65,0,0
135229,-100,4,1,1,65,0,0
135329,-100,4,2,1,65,0,0
135604,-100,4,1,1,65,0,0
135704,-100,4,2,1,65,0,0
135979,-100,4,1,1,65,0,0
136079,-100,4,2,1,65,0,0
136354,-100,4,1,1,65,0,0
136454,-100,4,2,1,65,0,0
136729,-100,4,1,1,65,0,0
136829,-100,4,2,1,65,0,0
137104,-100,4,1,1,65,0,0
137204,-100,4,2,1,65,0,0
137479,-100,4,1,1,65,0,0
137579,-100,4,2,1,65,0,0
137854,-100,4,1,1,65,0,0
137954,-100,4,2,1,65,0,0
138229,-100,4,1,1,65,0,0
138329,-100,4,2,1,65,0,0
138604,-100,4,1,2,65,0,0
139166,-100,4,2,1,65,0,0
139729,-100,4,1,1,65,0,0
139829,-100,4,2,1,65,0,0
140104,-100,4,1,2,65,0,0
140197,-100,4,2,1,65,0,0
140479,-100,4,1,1,65,0,0
140579,-100,4,2,1,65,0,0
140854,-100,4,1,2,65,0,0
140954,-100,4,2,1,65,0,0
141229,-100,4,1,1,65,0,0
141329,-100,4,2,1,65,0,0
141604,-100,4,1,2,65,0,0
141704,-100,4,2,1,65,0,0
141979,-100,4,1,1,65,0,0
142079,-100,4,2,1,65,0,0
142729,-100,4,1,1,65,0,0
142829,-100,4,2,1,65,0,0
143104,-100,4,1,1,65,0,0
143204,-100,4,2,1,65,0,0
143479,-100,4,1,1,65,0,0
143579,-100,4,2,1,65,0,0
143854,-100,4,1,1,65,0,0
143954,-100,4,2,1,65,0,0
144229,-100,4,1,1,65,0,0
144329,-100,4,2,1,65,0,0
144604,-100,4,1,1,65,0,0
145166,-100,4,1,1,75,0,0
145541,-100,4,2,1,65,0,0
146104,-100,4,1,1,65,0,0
146204,-100,4,2,1,65,0,0
146479,-100,4,1,1,65,0,0
146579,-100,4,2,1,65,0,0
146854,-100,4,1,1,65,0,0
146954,-100,4,2,1,65,0,0
147229,-100,4,1,1,65,0,0
147329,-100,4,2,1,65,0,0
147604,-100,4,1,1,65,0,0
147704,-100,4,2,1,65,0,0
147979,-100,4,1,1,65,0,0
148079,-100,4,2,1,65,0,0
148354,-100,4,1,1,65,0,0
148454,-100,4,2,1,65,0,0
148729,-100,4,1,1,65,0,0
148829,-100,4,2,1,65,0,0
149104,-100,4,1,1,65,0,0
149204,-100,4,2,1,65,0,0
149479,-100,4,1,1,65,0,0
149579,-100,4,2,1,65,0,0
149854,-100,4,1,1,65,0,0
149954,-100,4,2,1,65,0,0
150229,-100,4,1,1,65,0,0
150329,-100,4,2,1,65,0,0
150604,-100,4,1,2,65,0,0
151166,-100,4,2,1,65,0,0
151729,-100,4,1,1,65,0,0
151829,-100,4,2,2,65,0,0
152104,-100,4,1,2,65,0,0
152204,-100,4,2,2,65,0,0
152479,-100,4,1,1,65,0,0
152579,-100,4,2,1,65,0,0
152854,-100,4,1,2,65,0,0
152954,-100,4,2,1,65,0,0
153229,-100,4,1,1,65,0,0
153329,-100,4,2,1,65,0,0
153604,-100,4,1,2,65,0,0
153704,-100,4,2,1,65,0,0
153979,-100,4,1,1,65,0,0
154079,-100,4,2,1,65,0,0
154729,-100,4,1,1,65,0,0
154829,-100,4,2,1,65,0,0
155104,-100,4,1,2,65,0,0
155204,-100,4,2,1,65,0,0
155479,-100,4,1,1,65,0,0
155579,-100,4,2,1,65,0,0
155854,-100,4,1,2,65,0,0
155954,-100,4,2,1,65,0,0
156229,-100,4,1,1,65,0,0
156329,-100,4,2,1,65,0,0
156604,-100,4,1,2,65,0,0
156704,-100,4,2,1,65,0,0
156979,-100,4,1,1,65,0,0
157166,-100,4,1,2,65,0,0
157354,-100,4,2,1,65,0,0
157729,-100,4,3,1,60,0,0
158104,-100,4,1,1,65,0,0
158854,-100,4,2,1,60,0,0
158954,-100,4,1,1,65,0,0
161479,-100,4,1,1,45,0,0
163729,-100,4,1,1,75,0,0
164197,-100,4,1,1,45,0,0
166729,-100,4,1,1,85,0,0
169916,-83.3333333333333,4,3,1,85,0,0
171604,-83.3333333333333,4,1,1,85,0,0
172166,-100,4,1,1,85,0,0
173104,-83.3333333333333,4,1,1,75,0,0
173197,-83.3333333333333,4,3,1,85,0,0
174604,-83.3333333333333,4,1,1,75,0,0
176010,-83.3333333333333,4,3,1,85,0,0
182104,-83.3333333333333,4,1,1,65,0,0
182204,-83.3333333333333,4,3,1,85,0,0
182854,-83.3333333333333,4,1,1,65,0,0
182954,-83.3333333333333,4,3,1,85,0,0
183604,-83.3333333333333,4,1,1,75,0,0
189229,-83.3333333333333,4,2,1,65,0,0
189604,-100,4,1,1,65,0,0
189697,-100,4,2,1,65,0,0
189979,-100,4,1,1,65,0,0
190079,-100,4,2,1,65,0,0
190354,-100,4,1,1,65,0,0
190454,-100,4,2,1,65,0,0
190729,-100,4,1,1,65,0,0
190829,-100,4,2,1,65,0,0
191104,-100,4,1,1,65,0,0
191204,-100,4,2,1,65,0,0
191479,-100,4,1,1,65,0,0
191579,-100,4,2,1,65,0,0
191854,-100,4,1,1,65,0,0
191954,-100,4,2,1,65,0,0
192229,-100,4,1,1,65,0,0
192329,-100,4,2,1,65,0,0
192604,-100,4,1,1,65,0,0
192704,-100,4,2,1,65,0,0
192979,-100,4,1,1,65,0,0
193079,-100,4,2,1,65,0,0
193354,-100,4,1,1,65,0,0
193454,-100,4,2,1,65,0,0
193729,-100,4,1,1,65,0,0
193829,-100,4,2,1,65,0,0
194104,-100,4,1,2,65,0,0
194760,-100,4,2,1,65,0,0
195229,-100,4,1,1,65,0,0
195329,-100,4,2,1,65,0,0
195604,-100,4,1,2,65,0,0
195697,-100,4,2,1,65,0,0
195979,-100,4,1,1,65,0,0
196079,-100,4,2,1,65,0,0
196354,-100,4,1,2,65,0,0
196454,-100,4,2,1,65,0,0
196729,-100,4,1,1,65,0,0
196829,-100,4,2,1,65,0,0
197104,-100,4,1,2,65,0,0
197204,-100,4,2,1,65,0,0
197479,-100,4,1,1,65,0,0
197579,-100,4,2,1,65,0,0
198229,-100,4,1,1,65,0,0
198329,-100,4,2,1,65,0,0
198604,-100,4,1,1,65,0,0
198704,-100,4,2,1,65,0,0
198979,-100,4,1,1,65,0,0
199079,-100,4,2,1,65,0,0
199354,-100,4,1,1,65,0,0
199454,-100,4,2,1,65,0,0
199729,-100,4,1,1,65,0,0
199829,-100,4,2,1,65,0,0
200104,-100,4,1,1,65,0,0
200666,-100,4,1,1,75,0,0
201041,-100,4,2,1,65,0,0
201604,-100,4,1,1,65,0,0
201704,-100,4,2,1,65,0,0
201979,-100,4,1,1,65,0,0
202079,-100,4,2,1,65,0,0
202354,-100,4,1,1,65,0,0
202454,-100,4,2,1,65,0,0
202729,-100,4,1,1,65,0,0
202829,-100,4,2,1,65,0,0
203104,-100,4,1,1,65,0,0
203204,-100,4,2,1,65,0,0
203479,-100,4,1,1,65,0,0
203579,-100,4,2,1,65,0,0
203854,-100,4,1,1,65,0,0
203954,-100,4,2,1,65,0,0
204229,-100,4,1,1,65,0,0
204329,-100,4,2,1,65,0,0
204604,-100,4,1,1,65,0,0
204704,-100,4,2,1,65,0,0
204979,-100,4,1,1,65,0,0
205079,-100,4,2,1,65,0,0
205354,-100,4,1,1,65,0,0
205454,-100,4,2,1,65,0,0
205729,-100,4,1,1,65,0,0
205829,-100,4,2,1,65,0,0
206104,-100,4,1,2,65,0,0
206666,-100,4,2,1,65,0,0
207229,-100,4,1,1,65,0,0
207329,-100,4,2,1,65,0,0
207604,-100,4,1,2,65,0,0
207704,-100,4,2,1,65,0,0
207979,-100,4,1,1,65,0,0
208079,-100,4,2,1,65,0,0
208354,-100,4,1,2,65,0,0
208454,-100,4,2,1,65,0,0
208729,-100,4,1,1,65,0,0
208829,-100,4,2,1,65,0,0
209104,-100,4,1,2,65,0,0
209666,-100,4,2,1,65,0,0
210229,-100,4,1,1,65,0,0
210329,-100,4,2,1,65,0,0
210604,-100,4,1,2,65,0,0
210704,-100,4,2,1,65,0,0
210979,-100,4,1,1,65,0,0
211079,-100,4,2,1,65,0,0
211354,-100,4,1,2,65,0,0
211454,-100,4,2,1,65,0,0
211729,-100,4,1,1,65,0,0
211829,-100,4,2,1,65,0,0
212104,-100,4,1,2,65,0,0
212204,-100,4,2,1,65,0,0
212479,-100,4,1,1,65,0,0
212666,-100,4,1,2,65,0,0
212854,-100,4,2,1,65,0,0
213135,-100,4,3,1,55,0,0
213604,-100,4,1,1,65,0,0
214354,-100,4,2,1,65,0,0
214454,-100,4,1,1,65,0,0
219229,-83.3333333333333,4,1,1,55,0,0
219604,-83.3333333333333,4,1,1,65,0,0
233104,-100,4,1,1,65,0,0
233479,-100,4,1,1,85,0,0
233653,-100,4,2,1,5,0,0
234229,-100,4,2,1,5,0,0

[Colours]
Combo1 : 210,0,210
Combo2 : 43,255,255
Combo3 : 255,85,255
Combo4 : 15,135,255

[HitObjects]
256,260,229,1,2,0:0:0:0:
256,160,416,1,0,0:0:0:0:
256,60,604,1,2,0:0:0:0:
100,80,791,6,2,B|128:100|128:100|132:116|132:116|168:144,1,90,0|6,0:0|0:0,0:0:0:0:
412,80,1541,2,2,B|384:100|384:100|380:116|380:116|344:144,1,90,0|6,0:0|0:0,0:0:0:0:
256,308,2291,2,2,B|252:268|252:268|256:256|256:256|256:208,1,90,0|2,0:0|0:0,0:0:0:0:
256,120,2666,2,2,L|256:84,4,22.5,0|0|0|0|6,1:0|1:0|0:0|0:0|0:0,0:0:0:0:
140,180,3791,6,2,B|112:152|112:152|88:152|56:136,1,90,0|2,0:0|0:0,0:0:0:0:
372,180,4541,2,2,B|400:152|400:152|424:152|456:136,1,90,0|2,0:0|0:0,0:0:0:0:
256,300,5104,5,6,0:0:0:0:
116,108,5479,1,0,0:0:0:0:
396,108,5854,1,6,0:0:0:0:
256,300,6229,2,0,B|200:292|168:316|168:316|132:300|100:256,1,180,4|0,0:0|0:0,0:0:0:0:
103,259,6791,5,0,0:0:0:0:
96,264,6979,1,0,0:0:0:0:
104,272,7166,1,0,0:0:0:0:
112,268,7354,1,0,0:0:0:0:
116,260,7541,1,0,0:0:0:0:
116,252,7729,1,0,0:0:0:0:
108,248,7916,1,0,0:0:0:0:
102,258,8104,6,0,P|93:210|86:167,1,90
80,112,8385,2,0,P|132:148|204:120,1,135
232,112,8760,1,0,0:0:0:0:
232,112,8854,2,0,P|276:108|339:104,1,90
464,264,9229,1,2,0:0:0:0:
356,332,9416,1,2,0:0:0:0:
228,304,9604,6,0,P|176:296|112:296,1,107.999996704102,6|0,0:0|0:0,0:0:0:0:
32,184,9979,1,10,0:0:0:0:
60,156,10072,1,0,0:0:0:0:
96,144,10166,1,2,0:0:0:0:
132,152,10260,1,0,0:0:0:0:
168,164,10354,2,0,P|188:116|208:64,1,107.999996704102,2|0,0:0|0:0,0:0:0:0:
360,36,10729,5,10,0:0:0:0:
380,68,10822,1,0,0:0:0:0:
388,104,10916,1,2,0:0:0:0:
384,140,11010,1,0,0:0:0:0:
372,176,11104,2,0,P|372:232|392:288,1,107.999996704102,2|2,0:0|0:0,0:0:0:0:
420,308,11385,5,0,0:0:0:0:
420,308,11479,2,0,L|376:348,1,53.9999983520508,10|0,0:0|0:0,0:0:0:0:
296,320,11666,2,0,L|304:256,1,53.9999983520508,2|0,0:0|0:0,0:0:0:0:
204,276,11854,2,0,P|151:280|80:284,1,107.999996704102,2|0,0:0|0:0,0:0:0:0:
36,140,12229,5,10,0:0:0:0:
140,64,12416,1,10,0:0:0:0:
256,120,12604,2,0,P|311:117|363:112,1,107.999996704102,2|0,0:0|0:0,0:0:0:0:
472,108,12979,1,10,0:0:0:0:
472,108,13072,1,0,0:0:0:0:
472,108,13166,1,2,0:0:0:0:
472,108,13260,1,0,0:0:0:0:
472,108,13354,6,0,L|492:164,1,53.9999983520508,2|0,0:0|0:0,0:0:0:0:
432,228,13541,2,0,L|413:177,1,53.9999983520508,2|0,0:0|0:0,0:0:0:0:
344,236,13729,2,0,L|364:292,1,53.9999983520508,10|0,0:0|0:0,0:0:0:0:
304,356,13916,2,0,L|285:305,1,53.9999983520508,2|0,0:0|0:0,0:0:0:0:
200,272,14104,5,2,0:0:0:0:
164,260,14197,1,0,0:0:0:0:
128,264,14291,1,0,0:0:0:0:
92,276,14385,1,0,0:0:0:0:
72,308,14479,2,0,L|60:372,1,53.9999983520508,10|0,0:0|0:0,0:0:0:0:
16,244,14666,2,0,L|6:190,1,53.9999983520508,2|0,0:0|0:0,0:0:0:0:
92,192,14854,6,0,L|72:76,1,107.999996704102,2|0,0:0|0:0,0:0:0:0:
176,144,15135,2,0,L|156:28,1,107.999996704102,2|0,0:0|0:0,0:0:0:0:
248,20,15416,2,0,L|257:73,1,53.9999983520508,2|0,0:0|0:0,0:0:0:0:
272,140,15604,6,0,P|325:133|379:126,1,107.999996704102,6|0,0:0|0:0,0:0:0:0:
484,236,15979,1,10,0:0:0:0:
460,264,16072,1,0,0:0:0:0:
424,280,16166,1,2,0:0:0:0:
388,280,16260,1,0,0:0:0:0:
352,280,16354,2,0,P|296:276|244:276,1,107.999996704102,2|0,0:0|0:0,0:0:0:0:
124,344,16729,5,10,0:0:0:0:
88,340,16822,1,0,0:0:0:0:
64,308,16916,1,0,0:0:0:0:
68,272,17010,1,0,0:0:0:0:
92,244,17104,2,0,L|72:192,1,53.9999983520508,2|0,0:0|0:0,0:0:0:0:
152,180,17291,5,2,0:0:0:0:
152,180,17385,1,0,0:0:0:0:
152,180,17479,2,0,L|176:116,1,53.9999983520508,10|0,0:0|0:0,0:0:0:0:
88,120,17666,2,0,L|52:80,1,53.9999983520508,2|0,0:0|0:0,0:0:0:0:
136,56,17854,2,0,P|188:52|244:48,1,107.999996704102,2|0,0:0|0:0,0:0:0:0:
400,84,18229,5,10,0:0:0:0:
432,240,18416,1,8,0:0:0:0:
256,180,18604,2,0,P|316:176|380:172,1,107.999996704102,2|0,0:0|0:0,0:0:0:0:
412,324,18979,1,10,0:0:0:0:
412,324,19072,1,0,0:0:0:0:
412,324,19166,1,2,0:0:0:0:
412,324,19260,1,0,0:0:0:0:
372,336,19354,5,2,0:0:0:0:
328,332,19447,1,0,0:0:0:0:
288,312,19541,1,2,0:0:0:0:
252,288,19635,1,0,0:0:0:0:
212,276,19729,1,10,0:0:0:0:
168,272,19822,1,0,0:0:0:0:
124,276,19916,1,2,0:0:0:0:
84,296,20010,1,0,0:0:0:0:
52,324,20104,6,0,P|44:272|36:216,1,107.999996704102,2|0,0:0|0:0,0:0:0:0:
72,144,20385,1,0,0:0:0:0:
72,144,20479,2,0,P|96:160|112:188,1,53.9999983520508,8|0,0:0|0:0,0:0:0:0:
184,196,20666,2,0,L|256:176,1,53.9999983520508,10|2,0:0|0:0,0:0:0:0:
428,104,20854,1,2,0:0:0:0:
392,24,21041,5,2,0:0:0:0:
392,24,21135,1,0,0:0:0:0:
348,144,21322,1,2,0:0:0:0:
348,144,21416,1,0,0:0:0:0:
312,256,21604,6,0,P|358:254|412:252,1,90,4|0,0:0|0:0,0:0:0:0:
260,164,21979,1,8,0:0:0:0:
236,328,22166,1,0,0:0:0:0:
128,224,22354,1,0,0:0:0:0:
232,244,22541,1,2,0:0:0:0:
128,224,22729,1,8,0:0:0:0:
232,244,22916,1,2,0:0:0:0:
140,332,23104,5,0,0:0:0:0:
28,276,23291,1,0,0:0:0:0:
60,152,23479,1,8,0:0:0:0:
184,136,23666,2,0,P|196:92|208:40,1,90,2|0,0:0|0:0,0:0:0:0:
108,64,24041,1,8,0:0:0:0:
128,224,24229,1,8,0:0:0:0:
232,244,24416,6,0,P|278:241|321:237,1,90,4|0,0:0|0:0,0:0:0:0:
380,172,24791,1,0,0:0:0:0:
464,304,24979,2,0,P|420:307|374:310,1,90,8|0,0:0|0:0,0:0:0:0:
336,92,25354,5,0,0:0:0:0:
356,224,25541,1,2,0:0:0:0:
272,168,25729,1,8,0:0:0:0:
420,148,25916,1,2,0:0:0:0:
244,80,26104,5,0,0:0:0:0:
344,192,26291,1,2,0:0:0:0:
200,232,26479,1,8,0:0:0:0:
284,116,26666,5,2,0:0:0:0:
136,100,26854,1,0,0:0:0:0:
32,200,27041,2,0,P|25:153|16:92,1,90,8|8,0:0|0:0,0:0:0:0:
56,304,27416,6,0,P|156:320|207:269,1,180,4|0,0:0|0:0,0:0:0:0:
204,248,27885,1,0,0:0:0:0:
204,248,27979,2,0,P|197:201|188:140,1,90,8|0,0:0|0:0,0:0:0:0:
92,120,28354,1,0,0:0:0:0:
228,48,28541,5,2,0:0:0:0:
396,200,28729,1,2,0:0:0:0:
300,132,28916,6,0,B|338:94|393:109|393:109|445:21,1,180,4|0,0:0|0:0,0:0:0:0:
464,52,29385,1,0,0:0:0:0:
464,52,29479,2,0,P|472:104|483:155,1,90,8|0,0:0|0:0,0:0:0:0:
396,200,29854,1,0,0:0:0:0:
460,324,30041,5,2,0:0:0:0:
256,216,30229,1,2,0:0:0:0:
176,296,30416,6,0,B|112:284|72:328|72:328|16:240,1,180,4|0,0:0|0:0,0:0:0:0:
36,252,30885,1,0,0:0:0:0:
36,252,30979,2,0,P|40:202|42:156,1,90,2|0,0:0|0:0,0:0:0:0:
124,84,31354,1,0,0:0:0:0:
176,220,31541,1,0,0:0:0:0:
284,132,31729,2,0,P|240:136|184:140,1,90,2|0,0:0|0:0,0:0:0:0:
100,300,32104,5,6,0:0:0:0:
256,348,32479,1,6,0:0:0:0:
412,300,32854,5,4,1:2:0:0:
492,192,33041,1,2,0:0:0:0:
412,84,33229,1,2,0:0:0:0:
284,132,33416,1,2,0:0:0:0:
296,268,33604,6,4,B|361:262|372:194|372:194|438:154,2,180,6|8|0,0:0|0:0|0:0,0:0:0:0:
200,320,34541,1,2,0:0:0:0:
200,320,34635,1,0,0:0:0:0:
200,320,34729,2,0,P|157:322|92:324,1,90,8|2,0:0|0:0,0:0:0:0:
152,220,35104,2,0,P|149:177|148:112,1,90
260,72,35479,5,4,0:0:0:0:
48,172,35854,1,4,0:0:0:0:
256,272,36229,1,4,0:0:0:0:
256,272,36604,6,0,P|303:268|352:264,1,90,4|0,0:0|0:0,0:0:0:0:
296,180,36979,1,8,0:0:0:0:
228,104,37166,2,0,P|212:149|200:189,1,90,2|0,0:0|0:0,0:0:0:0:
152,288,37541,1,2,0:0:0:0:
152,288,37635,1,0,0:0:0:0:
152,288,37729,1,8,0:0:0:0:
28,200,37916,1,2,0:0:0:0:
0,312,38104,6,0,P|44:296|84:252,1,90,2|0,0:0|0:0,0:0:0:0:
128,64,38479,2,0,L|112:168,1,90,10|0,0:0|0:0,0:0:0:0:
164,232,38854,1,2,0:0:0:0:
196,240,38947,1,2,0:0:0:0:
228,236,39041,1,2,0:0:0:0:
260,228,39135,1,2,0:0:0:0:
284,208,39229,6,0,L|292:164,1,45,2|2,0:0|0:0,0:0:0:0:
364,200,39416,2,0,L|372:244,1,45,2|2,0:0|0:0,0:0:0:0:
440,204,39604,2,0,P|480:144|448:76,1,135,4|0,0:0|0:0,0:0:0:0:
462,88,39979,2,0,P|417:81|374:72,1,90,8|0,0:0|0:0,0:0:0:0:
284,208,40354,5,4,0:0:0:0:
344,132,40541,1,0,0:0:0:0:
196,172,40729,1,8,0:0:0:0:
376,240,40916,1,4,0:0:0:0:
376,240,41010,1,0,0:0:0:0:
376,240,41104,1,0,0:0:0:0:
212,276,41291,1,2,0:0:0:0:
272,348,41479,6,0,P|288:308|304:248,1,90,8|0,0:0|0:0,0:0:0:0:
284,208,41760,1,0,0:0:0:0:
284,208,41854,2,0,P|273:161|260:108,1,90,4|0,0:0|0:0,0:0:0:0:
104,140,42229,2,0,P|137:115|173:83,1,90,8|0,0:0|0:0,0:0:0:0:
340,80,42604,5,4,0:0:0:0:
440,140,42791,1,0,0:0:0:0:
440,24,42979,1,8,0:0:0:0:
340,80,43166,2,0,B|308:144|344:200|344:200|296:268,1,180,4|2,0:0|0:0,0:0:0:0:
280,260,43635,1,0,0:0:0:0:
280,260,43729,2,0,P|239:267|188:272,1,90,2|0,0:0|0:0,0:0:0:0:
60,196,44104,5,2,0:0:0:0:
80,164,44197,1,2,0:0:0:0:
112,148,44291,1,2,0:0:0:0:
148,148,44385,1,2,0:0:0:0:
184,156,44479,1,2,0:0:0:0:
220,164,44572,1,2,0:0:0:0:
256,164,44666,1,2,0:0:0:0:
292,156,44760,1,2,0:0:0:0:
324,136,44854,5,4,0:0:0:0:
244,80,45041,1,8,0:0:0:0:
280,260,45229,1,0,0:0:0:0:
416,144,45416,1,8,0:0:0:0:
469,66,45604,6,0,P|512:128|480:208,1,144,4|0,0:0|0:0,0:0:0:0:
352,204,46166,2,0,P|384:224|440:228,1,72,0|8,0:0|0:0,0:0:0:0:
356,80,46541,1,0,0:0:0:0:
276,164,46729,1,2,0:0:0:0:
172,120,46916,1,0,0:0:0:0:
116,220,47104,6,0,L|128:296,1,72
148,320,47385,1,0,0:0:0:0:
184,332,47479,2,0,L|275:341,1,72,4|0,0:0|0:0,0:0:0:0:
300,256,47854,5,8,0:0:0:0:
276,164,48041,1,0,0:0:0:0:
400,224,48229,1,4,0:0:0:0:
380,316,48416,1,8,0:0:0:0:
492,260,48604,6,0,P|504:184|460:140,1,144,4|0,0:0|0:0,0:0:0:0:
356,152,49166,2,0,P|363:117|372:60,1,72,0|8,0:0|0:0,0:0:0:0:
224,88,49541,1,2,0:0:0:0:
224,88,49916,6,0,B|168:108|120:76|120:76|76:88|88:128,1,180,4|0,0:0|0:0,0:0:0:0:
112,248,50479,2,0,P|144:216|156:172,1,90,4|0,0:0|0:0,0:0:0:0:
24,240,50854,1,2,0:0:0:0:
28,280,50947,1,2,0:0:0:0:
44,316,51041,1,2,0:0:0:0:
80,336,51135,1,2,0:0:0:0:
120,340,51229,1,2,0:0:0:0:
160,332,51322,1,2,0:0:0:0:
196,312,51416,6,0,L|240:324,1,45
312,336,51604,2,0,P|388:292|380:200,1,180,6|2,0:0|2:0,0:0:0:0:
200,192,52166,1,0,0:0:0:0:
200,192,52260,1,0,0:0:0:0:
200,192,52354,2,0,P|124:148|132:56,1,180,6|2,0:0|2:0,0:0:0:0:
256,40,52916,5,0,0:0:0:0:
256,40,53010,1,0,0:0:0:0:
256,40,53104,1,6,0:0:0:0:
360,180,53385,1,2,0:0:0:0:
148,280,53666,5,0,0:0:0:0:
148,280,53854,1,6,0:0:0:0:
324,344,54135,1,2,0:0:0:0:
256,192,54416,5,0,0:0:0:0:
184,156,54604,2,0,L|140:156|80:156,1,90,6|0,0:0|0:0,0:0:0:0:
328,244,54979,2,0,L|372:244|432:244,1,90,2|0,0:0|0:0,0:0:0:0:
484,104,55354,1,2,0:0:0:0:
452,80,55447,1,0,0:0:0:0:
412,72,55541,1,0,0:0:0:0:
372,80,55635,1,0,0:0:0:0:
336,100,55729,5,2,0:0:0:0:
296,112,55822,1,0,0:0:0:0:
256,116,55916,1,0,0:0:0:0:
216,108,56010,1,0,0:0:0:0:
188,80,56104,1,6,0:0:0:0:
256,192,56291,12,2,57229,0:0:0:0:
348,104,57604,6,0,P|350:147|352:200,1,90,4|0,0:0|0:0,0:0:0:0:
256,140,57979,1,8,0:0:0:0:
440,120,58166,1,2,0:0:0:0:
256,140,58354,2,0,P|254:93|252:50,1,90,4|0,0:0|0:0,0:0:0:0:
148,148,58729,5,8,0:0:0:0:
188,256,58916,1,2,0:0:0:0:
84,312,59104,1,4,0:0:0:0:
188,256,59291,1,2,0:0:0:0:
36,144,59479,5,8,0:0:0:0:
108,228,59666,1,2,0:0:0:0:
224,180,59854,2,0,P|268:172|324:164,1,90,4|0,0:0|0:0,0:0:0:0:
444,240,60229,5,8,0:0:0:0:
488,136,60416,1,2,0:0:0:0:
404,56,60604,2,0,P|396:100|388:156,1,90,4|0,0:0|0:0,0:0:0:0:
340,260,60979,1,8,0:0:0:0:
408,344,61166,1,2,0:0:0:0:
240,312,61354,5,2,0:0:0:0:
364,172,61541,1,2,0:0:0:0:
264,196,61729,1,8,0:0:0:0:
444,240,61916,1,2,0:0:0:0:
392,64,62104,5,4,0:0:0:0:
144,104,62479,1,4,0:0:0:0:
96,296,62854,1,2,0:0:0:0:
96,296,62947,1,2,0:0:0:0:
96,296,63041,1,2,0:0:0:0:
96,296,63135,1,2,0:0:0:0:
96,296,63229,1,2,0:0:0:0:
168,224,63416,6,0,L|112:200,1,45,0|0,0:0|2:0,0:0:0:0:
80,188,63604,2,0,P|72:144|64:96,1,90,4|0,0:0|0:0,0:0:0:0:
192,32,63979,1,8,0:0:0:0:
216,156,64166,1,2,0:0:0:0:
316,176,64354,2,0,P|286:212|244:261,1,90,4|0,0:0|0:0,0:0:0:0:
272,80,64729,2,0,P|316:76|384:68,1,90,8|0,0:0|0:0,0:0:0:0:
436,200,65104,5,4,0:0:0:0:
472,112,65291,1,0,0:0:0:0:
316,176,65479,1,8,0:0:0:0:
360,264,65666,1,2,0:0:0:0:
392,132,65854,1,2,0:0:0:0:
388,120,65947,1,2,0:0:0:0:
384,108,66041,1,2,0:0:0:0:
380,96,66135,1,2,0:0:0:0:
376,84,66229,1,8,0:0:0:0:
272,80,66416,5,4,0:0:0:0:
196,232,66604,1,0,0:0:0:0:
96,168,66791,2,0,L|140:152,1,45
188,136,66979,2,0,P|182:93|176:44,1,90,2|4,0:0|0:0,0:0:0:0:
48,100,67354,5,0,0:0:0:0:
72,244,67541,2,0,L|52:292,1,45
36,340,67729,2,0,P|76:320|124:314,1,90,2|0,0:0|0:0,0:0:0:0:
288,292,68104,5,4,0:0:0:0:
196,232,68291,1,0,0:0:0:0:
312,160,68479,1,4,0:0:0:0:
172,104,68666,1,0,0:0:0:0:
392,48,68854,1,4,0:0:0:0:
392,48,69229,5,2,0:0:0:0:
404,128,69416,1,2,0:0:0:0:
420,208,69604,6,0,L|434:296,1,90,4|0,0:0|0:0,0:0:0:0:
340,328,69979,1,8,0:0:0:0:
312,160,70166,1,2,0:0:0:0:
200,260,70354,2,0,P|244:256|292:248,1,90,4|0,0:0|0:0,0:0:0:0:
180,172,70729,5,8,0:0:0:0:
72,264,70916,1,2,0:0:0:0:
192,348,71104,1,4,0:0:0:0:
72,264,71291,1,2,0:0:0:0:
68,144,71479,5,8,0:0:0:0:
164,192,71666,1,2,0:0:0:0:
272,204,71854,2,0,P|316:184|364:164,1,90,4|0,0:0|0:0,0:0:0:0:
472,224,72229,5,8,0:0:0:0:
472,224,72416,1,2,0:0:0:0:
372,320,72604,2,0,P|384:272|396:220,1,90,4|0,0:0|0:0,0:0:0:0:
392,76,72979,1,8,0:0:0:0:
328,156,73166,1,2,0:0:0:0:
488,124,73354,5,2,0:0:0:0:
308,56,73541,1,2,0:0:0:0:
460,24,73729,1,8,0:0:0:0:
420,180,73916,1,2,0:0:0:0:
248,120,74104,5,4,0:0:0:0:
380,288,74479,1,4,0:0:0:0:
168,320,74854,1,2,0:0:0:0:
168,320,74947,1,2,0:0:0:0:
168,320,75041,1,2,0:0:0:0:
168,320,75135,1,2,0:0:0:0:
168,320,75229,2,0,P|120:312|72:312,1,90,2|0,0:0|0:0,0:0:0:0:
4,220,75604,6,0,P|48:212|100:188,1,90,4|0,0:0|0:0,0:0:0:0:
56,48,75979,2,0,P|32:88|28:140,1,90,8|0,0:0|0:0,0:0:0:0:
140,112,76354,1,4,0:0:0:0:
200,232,76541,1,0,0:0:0:0:
304,168,76729,2,0,P|264:152|217:147,1,90,8|0,0:0|0:0,0:0:0:0:
234,315,77104,6,0,P|277:298|312:272,1,90,4|0,0:0|0:0,0:0:0:0:
114,192,77479,2,0,P|112:236|124:280,1,90,8|0,0:0|0:0,0:0:0:0:
200,232,77854,1,2,0:0:0:0:
224,232,77947,1,2,0:0:0:0:
248,232,78041,1,2,0:0:0:0:
272,232,78135,1,2,0:0:0:0:
296,232,78229,2,0,L|392:232,1,90,8|0,0:0|0:0,0:0:0:0:
492,144,78604,6,0,P|446:151|402:155,1,90,4|0,0:0|0:0,0:0:0:0:
328,20,78979,1,8,0:0:0:0:
256,112,79166,1,2,0:0:0:0:
256,112,79260,1,2,0:0:0:0:
256,112,79354,2,0,P|300:108|345:100,1,90,4|0,0:0|0:0,0:0:0:0:
220,32,79729,2,0,P|184:60|172:120,1,90,8|0,0:0|0:0,0:0:0:0:
110,235,80104,5,4,0:0:0:0:
219,278,80291,1,0,0:0:0:0:
200,164,80479,1,8,0:0:0:0:
48,172,80666,2,0,P|28:248|91:317,1,180,4|0,0:0|0:0,0:0:0:0:
180,360,81229,5,0,0:0:0:0:
180,360,81322,1,0,0:0:0:0:
180,360,81416,1,0,0:0:0:0:
180,360,81510,1,0,0:0:0:0:
180,360,81604,2,0,B|232:316|288:340|288:340|288:316|336:280|376:324,1,216,4|0,0:0|0:0,0:0:0:0:
432,248,82354,5,4,0:0:0:0:
476,136,82541,1,2,0:0:0:0:
476,136,82635,1,2,0:0:0:0:
476,136,82729,1,2,0:0:0:0:
376,164,82916,1,8,0:0:0:0:
348,64,83104,6,0,B|332:120|264:120|264:120|308:164|284:216,1,216,4|0,0:0|0:0,0:0:0:0:
228,316,83854,5,2,0:0:0:0:
204,316,83947,1,2,0:0:0:0:
180,308,84041,1,2,0:0:0:0:
164,292,84135,1,2,0:0:0:0:
152,272,84229,1,2,0:0:0:0:
144,248,84322,1,2,0:0:0:0:
144,224,84416,1,2,0:0:0:0:
148,200,84510,1,2,0:0:0:0:
152,176,84604,6,0,L|164:96,1,72,8|0,0:0|0:0,0:0:0:0:
260,48,84979,1,8,0:0:0:0:
260,48,85072,1,0,0:0:0:0:
260,48,85166,1,0,0:0:0:0:
349,104,85354,2,0,L|360:176,1,72,8|0,0:0|0:0,0:0:0:0:
368,220,85635,5,8,0:0:0:0:
368,220,85729,1,2,0:0:0:0:
472,140,85916,1,2,0:0:0:0:
236,176,86104,1,4,0:0:0:0:
256,192,97354,12,4,98104,0:0:0:0:
380,100,98479,5,8,0:0:0:0:
296,316,98854,1,8,0:0:0:0:
184,300,99041,1,8,0:0:0:0:
68,280,99229,2,8,P|62:240|56:196,1,72,8|2,0:0|2:0,0:0:0:0:
52,176,99510,5,2,2:0:0:0:
52,176,99604,1,8,0:0:0:0:
232,136,99791,1,8,0:0:0:0:
124,72,99979,1,8,0:0:0:0:
160,236,100166,1,8,0:0:0:0:
160,236,100541,5,8,0:0:0:0:
388,140,100729,1,8,0:0:0:0:
388,140,101104,5,8,0:0:0:0:
124,72,101479,1,8,0:0:0:0:
124,72,101854,1,8,0:0:0:0:
236,88,102041,1,8,0:0:0:0:
352,108,102229,2,8,P|356:146|364:192,1,72,8|0,0:0|2:0,0:0:0:0:
456,228,102604,5,8,0:0:0:0:
296,284,102791,1,8,0:0:0:0:
472,312,102979,1,8,0:0:0:0:
280,200,103166,1,8,0:0:0:0:
280,200,103541,5,0,0:0:0:0:
100,300,103729,2,2,P|36:280|40:200,1,148.50000453186,2|0,0:0|0:0,0:0:0:0:
48,196,104104,6,0,P|96:184|149:174,1,90,4|0,0:0|0:0,0:0:0:0:
176,168,104385,1,0,0:0:0:0:
176,168,104479,2,0,P|174:124|170:78,1,90,8|2,0:0|0:0,0:0:0:0:
72,84,104854,1,0,0:0:0:0:
256,40,105041,5,8,0:0:0:0:
396,240,105229,1,8,0:0:0:0:
280,200,105416,6,0,B|308:136|388:144|388:144|420:84,1,180,4|0,0:0|0:0,0:0:0:0:
452,104,105885,1,0,0:0:0:0:
452,104,105979,2,0,L|432:14,1,90,8|0,0:0|0:0,0:0:0:0:
340,68,106354,1,0,0:0:0:0:
324,272,106541,5,8,0:0:0:0:
128,196,106729,1,8,0:0:0:0:
32,144,106916,6,0,P|15:211|87:283,1,180,4|2,0:0|0:0,0:0:0:0:
208,248,107479,1,2,0:0:0:0:
208,248,107666,1,0,0:0:0:0:
128,196,107854,2,0,P|119:151|112:96,1,90,0|2,0:0|0:0,0:0:0:0:
320,124,108229,2,0,P|300:172|284:212,1,90,2|2,0:0|0:0,0:0:0:0:
188,348,108604,5,6,0:0:0:0:
400,312,108979,1,6,0:0:0:0:
408,96,109354,5,4,1:2:0:0:
275,64,109541,1,2,0:0:0:0:
208,180,109729,1,0,1:2:0:0:
301,279,109916,1,2,0:0:0:0:
421,213,110104,6,0,B|364:184|324:204|324:204|328:164|264:136,2,180,4|8|0,0:0|0:0|0:0,0:0:0:0:
408,96,111041,1,2,0:0:0:0:
408,96,111135,1,0,0:0:0:0:
408,96,111229,1,8,0:0:0:0:
280,36,111416,1,2,0:0:0:0:
192,156,111604,2,0,P|239:150|288:144,1,90
422,213,111979,5,4,0:0:0:0:
144,312,112354,1,4,0:0:0:0:
320,344,112729,1,4,0:0:0:0:
320,344,113104,6,0,B|252:300|252:300|268:248|240:204,1,180,4|8,0:0|0:0,0:0:0:0:
136,212,113666,2,0,P|130:163|124:108,1,90,2|0,0:0|0:0,0:0:0:0:
224,48,114041,1,2,0:0:0:0:
224,48,114135,1,0,0:0:0:0:
224,48,114229,1,8,0:0:0:0:
304,200,114416,1,2,0:0:0:0:
416,96,114604,6,0,P|372:108|320:108,1,90,2|0,0:0|2:0,0:0:0:0:
296,108,114885,1,0,0:0:0:0:
296,108,114979,2,0,P|252:136|208:144,1,90,2|0,0:0|0:0,0:0:0:0:
76,176,115354,1,2,0:0:0:0:
52,196,115447,1,2,0:0:0:0:
40,224,115541,1,2,0:0:0:0:
40,256,115635,1,2,0:0:0:0:
48,288,115729,6,2,L|80:332,1,45
152,368,115916,2,2,L|156:312,1,45
204,256,116104,2,0,P|248:264|312:268,1,90,4|0,0:0|0:0,0:0:0:0:
396,344,116479,2,0,P|444:288|428:224,1,135,8|0,0:0|0:0,0:0:0:0:
408,218,116854,6,0,L|403:173|396:110,1,90,4|0,0:0|0:0,0:0:0:0:
301,103,117229,1,8,0:0:0:0:
488,34,117416,2,0,P|493:77|496:123,1,90,4|0,0:0|0:0,0:0:0:0:
320,260,117791,1,2,0:0:0:0:
484,280,117979,1,8,0:0:0:0:
396,344,118166,1,2,0:0:0:0:
344,176,118354,2,0,P|300:172|244:168,1,90,4|0,0:0|0:0,0:0:0:0:
172,260,118729,5,8,0:0:0:0:
44,156,118916,1,2,0:0:0:0:
100,28,119104,2,0,P|158:98|132:176,1,180,4|8,0:0|0:0,0:0:0:0:
56,328,119666,2,0,P|126:269|204:296,1,180,4|0,0:0|0:0,0:0:0:0:
240,308,120135,1,0,0:0:0:0:
240,308,120229,2,0,P|250:260|260:220,1,90,2|0,0:0|0:0,0:0:0:0:
364,136,120604,5,2,0:2:0:0:
392,152,120697,1,2,0:0:0:0:
408,180,120791,1,2,0:0:0:0:
416,212,120885,1,2,0:0:0:0:
408,244,120979,1,2,0:2:0:0:
336,336,121166,5,4,2:2:0:0:
228,216,121354,1,2,0:0:0:0:
136,348,121541,1,0,0:0:0:0:
240,308,121729,1,2,0:0:0:0:
128,204,121916,1,2,2:2:0:0:
216,64,122104,6,0,P|257:125|233:193,1,144,4|0,0:0|0:0,0:0:0:0:
84,140,122666,2,0,P|116:128|156:132,1,72,0|8,0:0|0:0,0:0:0:0:
0,260,123041,2,0,L|16:180,1,72,2|0,0:0|0:0,0:0:0:0:
56,336,123416,1,0,0:0:0:0:
140,252,123604,2,0,P|181:249|224:244,1,72
248,252,123885,5,0,0:0:0:0:
248,252,123979,2,0,P|262:285|276:319,1,72,4|0,0:0|0:0,0:0:0:0:
373,183,124354,2,0,P|338:184|302:181,1,72,8|0,0:0|0:0,0:0:0:0:
380,324,124729,2,0,P|395:290|413:260,1,72,4|0,0:0|0:0,0:0:0:0:
228,128,125104,1,0,0:0:0:0:
228,128,125479,5,2,0:0:0:0:
152,216,125666,2,0,L|68:220,1,72
252,248,126041,2,0,L|323:244,1,72,2|0,0:0|0:0,0:0:0:0:
172,304,126416,6,0,L|68:308,1,90,4|0,0:0|2:0,0:0:0:0:
136,128,126791,1,0,0:0:0:0:
296,172,126979,2,0,L|385:168,1,90,4|0,0:0|2:0,0:0:0:0:
476,236,127354,2,0,L|492:280,1,45,2|2,0:0|0:0,0:0:0:0:
420,340,127541,2,0,L|414:295,1,45,2|2,0:0|0:0,0:0:0:0:
344,248,127729,2,0,L|332:300,1,45,2|2,0:0|0:0,0:0:0:0:
304,356,127916,5,0,0:0:0:0:
304,356,128010,1,0,0:0:0:0:
304,356,128104,2,0,B|248:336|200:368|200:368|180:352|124:328,1,180,6|2,0:0|2:0,0:0:0:0:
44,204,128666,5,0,0:0:0:0:
44,204,128760,1,0,0:0:0:0:
44,204,128854,2,0,B|120:188|152:120|152:120|176:120|208:164,1,180,6|2,0:0|2:0,0:0:0:0:
256,192,129416,5,0,0:0:0:0:
256,192,129510,1,0,0:0:0:0:
256,192,129604,1,6,0:0:0:0:
388,192,129885,1,2,0:0:0:0:
256,64,130166,5,0,0:0:0:0:
256,64,130354,1,6,0:0:0:0:
124,192,130635,1,2,0:0:0:0:
256,320,130916,1,0,0:0:0:0:
384,276,131104,5,6,0:0:0:0:
384,276,131291,1,0,0:0:0:0:
328,112,131479,1,2,0:0:0:0:
328,112,131666,1,0,0:0:0:0:
248,216,131854,1,2,0:0:0:0:
216,248,131947,1,0,0:0:0:0:
172,260,132041,1,0,0:0:0:0:
128,260,132135,1,0,0:0:0:0:
92,236,132229,6,0,L|81:177,1,45,2|0,0:0|0:0,0:0:0:0:
156,136,132416,2,0,L|164:180,1,45,0|0,0:0|0:0,0:0:0:0:
224,76,132604,1,6,0:0:0:0:
256,192,132791,12,2,133729,0:0:0:0:
352,60,134104,6,0,P|305:55|256:52,1,90,4|0,0:0|0:0,0:0:0:0:
344,212,134479,1,8,0:0:0:0:
344,212,134666,1,2,0:0:0:0:
456,144,134854,2,0,P|409:139|360:136,1,90,4|0,0:0|0:0,0:0:0:0:
264,224,135229,5,8,0:0:0:0:
192,152,135416,1,2,0:0:0:0:
132,264,135604,1,4,0:0:0:0:
60,116,135791,1,2,0:0:0:0:
0,216,135979,2,0,P|43:208|87:196,1,90,8|2,0:0|0:0,0:0:0:0:
300,300,136354,2,0,P|256:300|200:276,1,90,4|0,0:0|0:0,0:0:0:0:
316,120,136729,5,8,0:0:0:0:
424,184,136916,1,2,0:0:0:0:
424,184,137010,1,0,0:0:0:0:
424,184,137104,2,0,P|428:139|436:80,1,90,4|0,0:0|0:0,0:0:0:0:
216,136,137479,5,8,0:0:0:0:
332,216,137666,1,2,0:0:0:0:
160,220,137854,1,2,0:0:0:0:
316,120,138041,1,2,0:0:0:0:
152,72,138229,1,8,0:0:0:0:
372,44,138416,1,2,0:0:0:0:
273,176,138604,5,4,0:0:0:0:
90,297,138979,1,4,0:0:0:0:
63,88,139354,1,2,0:0:0:0:
63,88,139447,1,2,0:0:0:0:
63,88,139541,1,2,0:0:0:0:
63,88,139635,1,2,0:0:0:0:
63,88,139729,2,0,P|109:80|163:68,1,90,2|2,0:0|0:0,0:0:0:0:
224,164,140104,6,0,P|276:128|348:144,1,135,4|0,0:0|0:0,0:0:0:0:
376,148,140479,2,0,P|386:107|400:56,1,90,8|0,0:0|0:0,0:0:0:0:
440,240,140854,2,0,P|396:248|351:254,1,90,4|0,0:0|0:0,0:0:0:0:
304,272,141135,1,0,0:0:0:0:
304,272,141229,2,0,P|291:318|281:359,1,90,8|0,0:0|0:0,0:0:0:0:
388,332,141604,5,4,0:0:0:0:
196,296,141791,1,0,0:0:0:0:
332,164,141979,1,8,0:0:0:0:
304,272,142166,1,2,0:0:0:0:
220,188,142354,1,2,0:0:0:0:
216,164,142447,1,2,0:0:0:0:
212,144,142541,1,2,0:0:0:0:
208,120,142635,1,2,0:0:0:0:
204,100,142729,1,8,0:0:0:0:
72,132,142916,5,4,0:0:0:0:
156,332,143104,1,0,0:0:0:0:
108,232,143291,1,0,0:0:0:0:
108,232,143385,1,0,0:0:0:0:
108,232,143479,1,2,0:0:0:0:
4,276,143666,5,4,0:0:0:0:
220,188,143854,1,0,0:0:0:0:
108,232,144041,1,0,0:0:0:0:
108,232,144135,1,0,0:0:0:0:
108,232,144229,1,2,0:0:0:0:
184,80,144416,5,2,0:0:0:0:
108,232,144604,1,4,0:0:0:0:
264,300,144791,1,0,0:0:0:0:
108,232,144979,1,4,0:0:0:0:
336,144,145166,1,0,0:0:0:0:
108,232,145354,1,4,0:0:0:0:
108,232,145729,5,2,0:0:0:0:
164,316,145916,1,0,0:0:0:0:
264,300,146104,2,0,P|284:256|292:200,1,90,4|0,0:0|0:0,0:0:0:0:
232,64,146479,5,8,0:0:0:0:
192,188,146666,1,2,0:0:0:0:
336,144,146854,2,0,P|384:148|436:148,1,90,4|0,0:0|0:0,0:0:0:0:
448,228,147229,5,8,0:0:0:0:
444,72,147416,1,2,0:0:0:0:
338,223,147604,1,4,0:0:0:0:
334,67,147791,1,2,0:0:0:0:
240,196,147979,5,8,0:0:0:0:
176,52,148166,1,2,0:0:0:0:
64,164,148354,2,0,P|108:160|152:144,1,90,4|0,0:0|0:0,0:0:0:0:
334,67,148729,5,8,0:0:0:0:
340,176,148916,1,2,0:0:0:0:
340,176,149010,1,0,0:0:0:0:
340,176,149104,2,0,P|342:222|344:272,1,90,4|0,0:0|0:0,0:0:0:0:
256,336,149479,1,8,0:0:0:0:
440,320,149666,1,2,0:0:0:0:
250,144,149854,5,2,0:0:0:0:
426,136,150041,1,2,0:0:0:0:
251,236,150229,1,8,0:0:0:0:
431,226,150416,1,2,0:0:0:0:
349,337,150604,5,4,0:0:0:0:
116,296,150979,1,4,0:0:0:0:
92,116,151354,1,2,0:0:0:0:
92,116,151447,1,2,0:0:0:0:
92,116,151541,1,2,0:0:0:0:
92,116,151635,1,2,0:0:0:0:
92,116,151729,2,0,P|135:110|184:104,1,90,2|0,0:0|0:0,0:0:0:0:
290,166,152104,6,0,P|296:122|304:68,1,90,4|0,0:0|0:0,0:0:0:0:
396,132,152479,1,8,0:0:0:0:
396,132,152666,1,0,0:0:0:0:
395,238,152854,2,0,P|434:224|480:209,1,90,4|0,0:0|0:0,0:0:0:0:
468,316,153229,1,8,0:0:0:0:
468,316,153416,1,0,0:0:0:0:
320,312,153604,6,0,P|300:268|284:224,1,90,4|0,0:0|0:0,0:0:0:0:
176,140,153979,2,0,P|157:180|137:221,1,90,8|0,0:0|0:0,0:0:0:0:
48,336,154354,1,2,0:0:0:0:
48,336,154447,1,2,0:0:0:0:
48,336,154541,1,2,0:0:0:0:
48,336,154635,1,2,0:0:0:0:
48,336,154729,2,0,P|41:289|34:240,1,90,8|0,0:0|0:0,0:0:0:0:
76,120,155104,6,0,P|120:116|188:104,1,90,4|0,0:0|0:0,0:0:0:0:
320,192,155479,2,0,P|274:199|230:203,1,90,8|2,0:0|0:0,0:0:0:0:
188,212,155760,1,2,0:0:0:0:
188,212,155854,2,0,P|162:246|148:296,1,90,4|0,0:0|0:0,0:0:0:0:
308,356,156229,2,0,P|283:316|248:290,1,90,8|0,0:0|0:0,0:0:0:0:
76,260,156604,5,4,0:0:0:0:
204,96,156791,1,0,0:0:0:0:
76,120,156979,1,8,0:0:0:0:
188,212,157166,2,0,B|240:192|280:224|280:224|328:216|320:164,1,180,4|0,0:0|0:0,0:0:0:0:
256,40,157729,5,2,0:0:0:0:
256,40,157822,1,2,0:0:0:0:
256,40,157916,1,2,0:0:0:0:
256,40,158010,1,2,0:0:0:0:
256,40,158104,1,4,0:0:0:0:
88,192,158854,5,4,0:0:0:0:
424,192,159604,1,4,0:0:0:0:
256,192,160354,12,4,161104,0:0:0:0:
68,116,161479,5,2,0:0:0:0:
68,116,161854,1,2,0:0:0:0:
144,68,162041,1,8,2:0:0:0:
232,80,162229,2,0,P|256:120|252:192,1,90,2|2,0:0|2:0,0:0:0:0:
144,288,162604,6,0,P|173:255|208:212,1,90,2|2,0:0|0:0,0:0:0:0:
368,288,162979,2,2,P|339:255|304:212,1,90,0|2,0:0|0:0,0:0:0:0:
256,68,163354,2,0,L|256:176,1,90,2|0,0:0|2:0,0:0:0:0:
256,304,163729,5,0,0:0:0:0:
496,236,164104,1,0,0:0:0:0:
416,200,164291,1,2,2:0:0:0:
416,200,164385,1,0,0:0:0:0:
416,200,164479,2,0,P|410:154|404:104,1,90,2|0,0:0|2:0,0:0:0:0:
400,84,164760,5,0,0:0:0:0:
400,84,164854,1,2,0:0:0:0:
244,120,165041,1,8,2:0:0:0:
336,168,165229,1,2,0:0:0:0:
304,36,165416,1,2,2:0:0:0:
148,144,165604,5,2,0:0:0:0:
288,208,165791,1,2,0:0:0:0:
252,28,165979,1,2,0:0:0:0:
80,88,166166,1,2,0:0:0:0:
104,256,166354,2,2,P|144:252|200:212,1,90
364,92,166729,5,0,0:0:0:0:
456,312,167104,1,0,0:0:0:0:
152,280,167854,5,0,0:0:0:0:
392,176,168604,5,0,0:0:0:0:
128,80,169354,5,0,0:0:0:0:
392,176,170104,6,0,L|468:224,2,71.9999978027344,2|0|0,0:0|0:0|0:0,0:0:0:0:
276,124,170479,2,0,L|264:32,2,71.9999978027344,2|0|0,0:0|0:0|0:0,0:0:0:0:
236,260,170854,2,0,L|248:352,2,71.9999978027344,2|0|0,0:0|0:0|0:0,0:0:0:0:
120,208,171229,2,0,L|44:160,2,71.9999978027344,2|0|0,0:0|0:0|0:0,0:0:0:0:
340,288,171604,5,2,0:0:0:0:
148,316,171791,1,0,0:0:0:0:
220,132,171979,1,2,0:0:0:0:
380,60,172166,2,2,P|432:136|432:244,1,180,2|0,0:0|0:0,0:0:0:0:
427,263,172635,1,0,0:0:0:0:
427,263,172729,2,0,P|382:275|325:293,1,90,2|0,0:0|0:0,0:0:0:0:
240,320,173104,5,6,0:0:0:0:
200,340,173197,1,0,0:0:0:0:
156,348,173291,1,0,0:0:0:0:
112,348,173385,1,0,0:0:0:0:
72,328,173479,1,2,0:0:0:0:
44,292,173572,1,0,0:0:0:0:
32,248,173666,1,0,0:0:0:0:
52,208,173760,1,0,0:0:0:0:
92,192,173854,6,0,P|112:200|160:216,3,53.9999983520508,2|0|0|0,0:0|0:0|0:0|0:0,0:0:0:0:
220,136,174229,2,0,P|189:125|169:117,3,53.9999983520508,2|0|0|0,0:0|0:0|0:0|0:0,0:0:0:0:
136,108,174604,5,2,0:0:0:0:
160,272,174791,1,0,0:0:0:0:
340,168,174979,1,2,0:0:0:0:
376,272,175166,2,0,L|312:252,1,53.9999983520508,2|0,0:0|0:0,0:0:0:0:
284,244,175354,2,2,P|236:196|268:108,1,161.999995056153,2|0,0:0|0:0,0:0:0:0:
272,100,175729,2,0,P|226:54|184:16,1,107.999996704102,2|0,0:0|0:0,0:0:0:0:
68,68,176104,5,2,0:0:0:0:
52,96,176197,1,0,0:0:0:0:
48,128,176291,1,0,0:0:0:0:
48,160,176385,1,0,0:0:0:0:
56,192,176479,1,2,0:0:0:0:
128,324,176666,5,2,0:0:0:0:
156,308,176760,1,0,0:0:0:0:
188,304,176854,1,0,0:0:0:0:
216,292,176947,1,0,0:0:0:0:
240,272,177041,1,2,0:0:0:0:
380,240,177229,6,0,P|388:264|404:296,1,53.9999983520508,2|0,0:0|0:0,0:0:0:0:
464,236,177416,2,0,P|488:228|520:200,1,53.9999983520508
416,172,177604,2,0,P|368:152|312:160,1,107.999996704102,2|0,0:0|0:0,0:0:0:0:
124,104,177979,2,0,P|178:111|226:91,1,107.999996704102,2|0,0:0|0:0,0:0:0:0:
344,72,178354,5,2,0:0:0:0:
204,188,178541,1,0,0:0:0:0:
340,312,178729,1,2,0:0:0:0:
403,223,178916,5,0,0:0:0:0:
403,223,179010,1,0,0:0:0:0:
403,223,179104,2,0,L|419:163,3,53.9999983520508,2|0|0|0,0:0|0:0|0:0|0:0,0:0:0:0:
359,124,179479,2,0,L|343:64,3,53.9999983520508,2|0|0|0,0:0|0:0|0:0|0:0,0:0:0:0:
304,56,179854,5,2,0:0:0:0:
264,44,179947,1,0,0:0:0:0:
220,48,180041,1,0,0:0:0:0:
180,68,180135,1,0,0:0:0:0:
156,104,180229,1,2,0:0:0:0:
156,148,180322,1,0,0:0:0:0:
172,188,180416,1,0,0:0:0:0:
204,216,180510,1,0,0:0:0:0:
244,228,180604,6,0,L|296:208,1,53.9999983520508,2|0,0:0|0:0,0:0:0:0:
380,180,180791,2,0,L|364:260,1,53.9999983520508
456,236,180979,2,0,L|490:277,1,53.9999983520508,2|0,0:0|0:0,0:0:0:0:
400,307,181166,2,0,L|352:332,1,53.9999983520508
280,340,181354,2,0,P|224:336|160:332,1,107.999996704102,2|0,0:0|0:0,0:0:0:0:
80,252,181729,5,2,0:0:0:0:
256,132,181916,1,0,0:0:0:0:
144,88,182104,2,0,P|83:95|31:99,1,107.999996704102,4|0,0:0|0:0,0:0:0:0:
80,252,182479,1,2,0:0:0:0:
80,252,182666,1,0,0:0:0:0:
192,300,182854,6,0,P|188:248|184:192,1,107.999996704102,4|0,0:0|0:0,0:0:0:0:
320,84,183229,2,0,P|324:136|328:192,1,107.999996704102,2|0,0:0|0:0,0:0:0:0:
340,304,183604,5,2,0:0:0:0:
340,304,183729,2,0,L|424:300,1,71.9999978027344
488,184,183979,1,2,0:0:0:0:
488,184,184104,2,0,L|416:187,1,71.9999978027344
320,84,184354,1,2,0:0:0:0:
320,84,184479,2,0,L|396:80,1,71.9999978027344
352,160,184729,2,0,P|344:200|355:231,2,71.9999978027344,2|0|0,0:0|0:0|0:0,0:0:0:0:
248,124,185104,6,0,L|176:116,1,71.9999978027344,2|0,0:0|0:0,0:0:0:0:
96,108,185354,1,0,0:0:0:0:
64,180,185479,2,0,P|36:160|16:124,1,71.9999978027344,2|0,0:0|0:0,0:0:0:0:
40,44,185729,1,0,0:0:0:0:
124,36,185854,2,0,P|152:56|172:92,1,71.9999978027344,2|0,0:0|0:0,0:0:0:0:
152,168,186104,1,0,0:0:0:0:
120,240,186229,2,0,P|84:260|44:264,2,71.9999978027344,2|0|0,0:0|0:0|0:0,0:0:0:0:
256,280,186604,6,0,P|264:320|296:360,2,71.9999978027344,2|0|0,0:0|0:0|0:0,0:0:0:0:
276,204,186979,1,2,0:0:0:0:
340,156,187104,1,0,0:0:0:0:
420,156,187229,1,0,0:0:0:0:
484,204,187354,6,0,P|500:172|500:128,2,71.9999978027344,2|0|0,0:0|0:0|0:0,0:0:0:0:
460,280,187729,1,2,0:0:0:0:
396,328,187854,1,0,0:0:0:0:
316,332,187979,1,0,0:0:0:0:
256,280,188104,1,6,0:0:0:0:
256,192,188291,12,2,189229,0:0:0:0:
160,144,189604,6,4,P|108:148|48:152,1,90,4|0,0:0|0:0,0:0:0:0:
120,228,189979,1,8,0:0:0:0:
108,68,190166,1,2,0:0:0:0:
236,80,190354,2,0,P|252:120|256:168,1,90,4|0,0:0|0:0,0:0:0:0:
224,280,190729,1,8,0:0:0:0:
120,228,190916,1,2,0:0:0:0:
256,166,191104,5,4,0:0:0:0:
120,228,191291,1,2,0:0:0:0:
248,324,191479,1,8,0:0:0:0:
96,360,191666,1,2,0:0:0:0:
24,216,191854,2,0,P|30:169|40:112,1,90,4|0,0:0|0:0,0:0:0:0:
188,80,192229,5,8,0:0:0:0:
288,144,192416,1,2,0:0:0:0:
288,144,192510,1,0,0:0:0:0:
288,144,192604,2,0,L|376:128,1,90,4|0,0:0|0:0,0:0:0:0:
316,56,192979,1,8,0:0:0:0:
352,216,193166,1,2,0:0:0:0:
196,172,193354,5,2,0:0:0:0:
360,272,193541,1,2,0:0:0:0:
236,352,193729,1,8,0:0:0:0:
204,208,193916,1,2,0:0:0:0:
432,236,194104,5,4,0:0:0:0:
212,80,194479,1,4,0:0:0:0:
460,112,194854,1,2,0:0:0:0:
456,132,194947,1,2,0:0:0:0:
452,156,195041,1,2,0:0:0:0:
448,180,195135,1,2,0:0:0:0:
444,200,195229,1,2,0:0:0:0:
376,36,195416,1,0,0:0:0:0:
316,124,195604,6,0,P|260:144|200:100,1,135,4|0,0:0|0:0,0:0:0:0:
184,96,195979,2,0,P|136:88|80:76,1,90,8|0,0:0|0:0,0:0:0:0:
36,244,196354,1,4,0:0:0:0:
140,268,196541,1,0,0:0:0:0:
140,268,196635,1,0,0:0:0:0:
140,268,196729,2,0,P|130:225|120:172,1,90,8|0,0:0|0:0,0:0:0:0:
256,64,197104,5,4,0:0:0:0:
212,172,197291,1,0,0:0:0:0:
324,208,197479,1,8,0:0:0:0:
368,100,197666,1,2,0:0:0:0:
436,192,197854,1,2,0:0:0:0:
432,216,197947,1,2,0:0:0:0:
428,240,198041,1,2,0:0:0:0:
424,264,198135,1,2,0:0:0:0:
420,288,198229,1,8,0:0:0:0:
267,320,198416,6,0,L|235:288,1,45,4|0,0:0|0:0,0:0:0:0:
214,262,198604,2,0,P|213:216|212:173,1,90,0|0,0:0|0:0,0:0:0:0:
24,180,198979,1,2,0:0:0:0:
128,64,199166,5,4,0:0:0:0:
128,64,199260,1,0,0:0:0:0:
128,64,199354,2,0,P|129:107|130:153,1,90
292,108,199729,1,2,0:0:0:0:
320,240,199916,5,2,0:0:0:0:
412,168,200104,1,4,0:0:0:0:
428,284,200291,1,0,0:0:0:0:
228,188,200479,5,4,0:0:0:0:
392,80,200666,1,0,0:0:0:0:
232,28,200854,1,4,0:0:0:0:
232,28,201229,5,2,0:0:0:0:
172,84,201416,1,2,0:0:0:0:
116,136,201604,2,0,L|48:200,1,90,4|0,0:0|0:0,0:0:0:0:
36,220,201885,5,0,0:0:0:0:
36,220,201979,2,0,P|32:264|28:316,1,90,8|2,0:0|0:0,0:0:0:0:
120,372,202354,2,0,P|157:356|202:336,1,90,4|0,0:0|0:0,0:0:0:0:
312,200,202729,5,8,0:0:0:0:
184,256,202916,1,2,0:0:0:0:
308,296,203104,1,4,0:0:0:0:
240,136,203291,1,2,0:0:0:0:
436,156,203479,5,8,0:0:0:0:
408,260,203666,1,2,0:0:0:0:
308,296,203854,2,0,P|264:296|200:264,1,90,4|0,0:0|0:0,0:0:0:0:
136,160,204229,5,8,0:0:0:0:
56,224,204416,1,2,0:0:0:0:
56,224,204510,1,0,0:0:0:0:
56,224,204604,2,0,P|45:182|36:136,1,90,4|0,0:0|0:0,0:0:0:0:
224,100,204979,1,8,0:0:0:0:
124,64,205166,1,2,0:0:0:0:
148,256,205354,5,4,0:0:0:0:
232,204,205541,1,2,0:0:0:0:
48,128,205729,1,8,0:0:0:0:
224,100,205916,1,2,0:0:0:0:
136,160,206104,5,4,0:0:0:0:
256,312,206479,1,4,0:0:0:0:
376,160,206854,1,2,0:0:0:0:
376,160,206947,1,2,0:0:0:0:
376,160,207041,1,2,0:0:0:0:
376,160,207135,1,2,0:0:0:0:
376,160,207229,2,0,L|384:68,1,90,2|0,0:0|0:0,0:0:0:0:
256,128,207604,6,0,P|240:192|287:242,1,135,4|0,0:0|0:0,0:0:0:0:
308,248,207979,2,0,P|354:254|408:268,1,90,8|0,0:0|0:0,0:0:0:0:
256,356,208354,2,0,P|196:320|129:334,1,135,4|0,0:0|0:0,0:0:0:0:
104,320,208729,2,0,P|99:275|92:224,1,90,8|0,0:0|0:0,0:0:0:0:
20,124,209104,5,4,0:0:0:0:
176,248,209479,1,4,0:0:0:0:
256,76,209854,1,2,0:0:0:0:
256,76,209947,1,2,0:0:0:0:
256,76,210041,1,2,0:0:0:0:
256,76,210135,1,2,0:0:0:0:
256,76,210229,2,0,P|303:70|352:64,1,90,8|0,0:0|0:0,0:0:0:0:
388,184,210604,6,0,P|452:168|472:104,1,135,4|0,0:0|0:0,0:0:0:0:
472,76,210979,1,8,0:0:0:0:
324,132,211166,1,2,0:0:0:0:
324,132,211260,1,2,0:0:0:0:
324,132,211354,2,0,P|305:193|341:249,1,135,4|0,0:0|0:0,0:0:0:0:
372,264,211729,2,0,P|416:260|460:224,1,90,8|0,0:0|0:0,0:0:0:0:
388,84,212104,5,4,0:0:0:0:
280,204,212291,1,0,0:0:0:0:
204,100,212479,1,8,0:0:0:0:
96,168,212666,2,0,B|112:228|168:242|168:242|158:273|178:325,1,180,4|0,0:0|0:0,0:0:0:0:
256,352,213229,5,2,0:0:0:0:
256,352,213322,1,2,0:0:0:0:
256,352,213416,1,2,0:0:0:0:
256,352,213510,1,2,0:0:0:0:
256,352,213604,1,4,0:0:0:0:
396,192,214354,5,4,0:0:0:0:
116,192,215104,1,4,0:0:0:0:
256,192,215854,12,0,216604,0:0:0:0:
256,92,216979,5,0,0:0:0:0:
256,92,217354,1,0,0:0:0:0:
256,192,217541,1,0,0:0:0:0:
256,292,217729,1,0,0:0:0:0:
256,292,218104,5,0,0:0:0:0:
348,240,218291,1,0,0:0:0:0:
164,144,218479,1,0,0:0:0:0:
336,32,218666,1,0,0:0:0:0:
336,32,219041,5,0,0:0:0:0:
172,56,219229,1,2,0:0:0:0:
164,144,219416,1,0,0:0:0:0:
156,232,219604,6,0,L|144:339,1,107.999996704102,6|0,0:0|0:0,0:0:0:0:
104,356,219885,1,0,0:0:0:0:
60,360,219979,1,10,0:0:0:0:
24,336,220072,1,0,0:0:0:0:
16,292,220166,1,0,0:0:0:0:
28,252,220260,1,0,0:0:0:0:
52,216,220354,2,0,L|44:160|36:104,1,107.999996704102,2|0,0:0|0:0,0:0:0:0:
172,56,220729,5,10,0:0:0:0:
172,56,220822,1,0,0:0:0:0:
172,56,220916,2,0,L|236:40,1,53.9999983520508
328,120,221104,1,2,0:0:0:0:
328,120,221197,1,0,0:0:0:0:
328,120,221291,2,0,L|275:106,1,53.9999983520508
195,162,221479,5,10,0:0:0:0:
196,208,221572,1,0,0:0:0:0:
216,248,221666,1,2,0:0:0:0:
252,272,221760,1,0,0:0:0:0:
296,272,221854,2,0,P|348:268|416:260,1,107.999996704102,2|0,0:0|0:0,0:0:0:0:
328,120,222229,5,8,0:0:0:0:
80,224,222416,1,8,0:0:0:0:
195,162,222604,6,0,P|182:105|171:50,1,107.999996704102,6|0,0:0|0:0,0:0:0:0:
132,40,222885,1,0,0:0:0:0:
88,36,222979,1,10,0:0:0:0:
48,48,223072,1,0,0:0:0:0:
20,80,223166,1,0,0:0:0:0:
12,124,223260,1,0,0:0:0:0:
14,167,223354,6,0,L|27:219,1,53.9999983520508,2|0,0:0|0:0,0:0:0:0:
96,281,223541,2,0,L|100:228,1,53.9999983520508,2|0,0:0|0:0,0:0:0:0:
180,260,223729,2,0,L|252:284,1,53.9999983520508,10|0,0:0|0:0,0:0:0:0:
256,364,223916,2,0,L|304:339,1,53.9999983520508,2|0,0:0|0:0,0:0:0:0:
376,304,224104,6,0,P|398:264|390:204,1,107.999996704102,2|0,0:0|0:0,0:0:0:0:
368,164,224385,1,0,0:0:0:0:
324,188,224479,1,10,0:0:0:0:
276,196,224572,1,0,0:0:0:0:
228,184,224666,1,0,0:0:0:0:
200,144,224760,1,0,0:0:0:0:
192,96,224854,6,0,P|147:69|72:84,1,107.999996704102,2|0,0:0|0:0,0:0:0:0:
60,224,225135,2,0,P|105:194|125:146,1,107.999996704102,2|0,0:0|0:0,0:0:0:0:
36,140,225416,1,2,0:0:0:0:
184,304,225604,6,0,L|248:292,3,53.9999983520508,6|0|0|0,0:0|0:0|0:0|0:0,0:0:0:0:
272,316,225979,1,10,0:0:0:0:
312,328,226072,1,0,0:0:0:0:
356,324,226166,1,0,0:0:0:0:
396,304,226260,1,0,0:0:0:0:
412,264,226354,6,0,L|424:208,3,53.9999983520508,2|0|0|0,0:0|0:0|0:0|0:0,0:0:0:0:
432,168,226729,1,10,0:0:0:0:
424,128,226822,1,0,0:0:0:0:
392,100,226916,1,0,0:0:0:0:
348,100,227010,1,0,0:0:0:0:
308,112,227104,2,0,P|256:120|196:92,1,107.999996704102,2|0,0:0|0:0,0:0:0:0:
148,56,227385,5,0,0:0:0:0:
148,56,227479,2,0,L|88:68,1,53.9999983520508,10|0,0:0|0:0,0:0:0:0:
20,140,227666,2,0,L|76:140,1,53.9999983520508,2|0,0:0|0:0,0:0:0:0:
148,164,227854,2,0,P|176:212|164:276,1,107.999996704102,2|0,0:0|0:0,0:0:0:0:
60,232,228229,5,8,0:0:0:0:
340,200,228416,1,8,0:0:0:0:
256,264,228604,6,0,L|276:324,3,53.9999983520508,2|0|0|0,0:0|0:0|0:0|0:0,0:0:0:0:
304,348,228979,1,10,0:0:0:0:
348,356,229072,1,0,0:0:0:0:
392,348,229166,1,0,0:0:0:0:
428,324,229260,1,0,0:0:0:0:
452,288,229354,6,0,L|472:220,1,53.9999983520508,2|0,0:0|0:0,0:0:0:0:
376,232,229541,2,2,L|344:168,1,53.9999983520508,2|0,0:0|0:0,0:0:0:0:
440,152,229729,2,0,L|460:84,1,53.9999983520508,10|0,0:0|0:0,0:0:0:0:
360,96,229916,2,2,L|328:32,1,53.9999983520508,2|0,0:0|0:0,0:0:0:0:
256,88,230104,6,0,P|204:84|148:80,1,107.999996704102,2|0,0:0|0:0,0:0:0:0:
72,76,230385,1,0,0:0:0:0:
72,76,230479,2,0,L|20:36,1,53.9999983520508,10|0,0:0|0:0,0:0:0:0:
4,168,230666,2,0,L|56:156,1,53.9999983520508,2|0,0:0|0:0,0:0:0:0:
136,184,230854,6,0,L|160:300,1,107.999996704102,2|2,0:0|0:0,0:0:0:0:
204,320,231135,1,0,0:0:0:0:
256,328,231229,2,0,P|288:288|289:233,1,107.999996704102,2|0,0:0|0:0,0:0:0:0:
256,88,231604,5,6,0:0:0:0:
256,88,231791,1,6,0:0:0:0:
400,240,232166,5,6,0:0:0:0:
256,328,232541,1,6,0:0:0:0:
112,240,232916,1,6,0:0:0:0:
74,158,233104,2,0,P|142:152|191:222,1,135,6|0,0:0|0:0,0:0:0:0:
236,231,233479,6,0,B|144:191|116:47|116:47|84:47|43:149|88:172,1,360,4|0,0:0|2:0,0:0:0:0:
