osu file format v10

[General]
AudioFilename: 10. fancy baby doll.mp3
AudioLeadIn: 1511
PreviewTime: 55038
Countdown: 0
SampleSet: Normal
StackLeniency: 0.7
Mode: 0
LetterboxInBreaks: 1

[Editor]
Bookmarks: 69875
DistanceSpacing: 1.3
BeatDivisor: 4
GridSize: 4

[Metadata]
Title:fancy baby doll
TitleUnicode:fancy baby doll
Artist:Tamura Yukari
ArtistUnicode:Tamura Yukari
Creator:cRyo[iceeicee]
Version:Insane
Source:
Tags:
BeatmapID:194276
BeatmapSetID:66651

[Difficulty]
HPDrainRate:7
CircleSize:4
OverallDifficulty:7
ApproachRate:9
SliderMultiplier:1.8
SliderTickRate:1

[Events]
//Background and Video events
0,0,"2e.jpg"
//Break Periods
//Storyboard Layer 0 (Background)
//Storyboard Layer 1 (Fail)
//Storyboard Layer 2 (Pass)
//Storyboard Layer 3 (Foreground)
//Storyboard Sound Samples
//Background Colour Transformations
3,100,163,162,255

[TimingPoints]
246,326.086956521739,4,1,0,35,1,0
246,-125,4,1,0,35,0,0
2854,-111.111111111111,4,1,0,35,0,0
4811,-100,4,1,0,35,0,0
47202,-90.9090909090909,4,1,0,35,0,0
49648,-83.3333333333333,4,1,0,35,0,0
52256,-76.9230769230769,4,1,0,35,0,0
54376,-100,4,1,0,35,0,0
88941,-117.647058823529,4,1,0,35,0,0
97909,-100,4,1,0,35,0,0
120164,-90.9090909090909,4,1,0,35,0,0
122854,-83.3333333333333,4,1,0,35,0,0
127582,-100,4,1,0,35,0,0
148615,-133.333333333333,4,1,0,35,0,0
148715,-100,4,1,0,35,0,0

[Colours]
Combo1 : 255,89,255
Combo2 : 81,255,255
Combo3 : 223,0,112
Combo4 : 0,128,255

[HitObjects]
92,120,246,6,0,P|164:120|244:116,1,144
328,112,735,1,0,0:0:0
360,200,898,2,0,P|371:236|384:276,1,72
256,352,1224,5,0,0:0:0
164,328,1387,1,0,0:0:0
88,276,1550,2,0,P|88:200|92:132,1,144
184,88,2039,1,0,0:0:0
257,207,2202,2,0,P|260:172|264:136,1,72
444,72,2528,5,0,0:0:0
432,164,2691,1,0,0:0:0
420,260,2854,2,0,P|416:296|413:331,1,72
344,192,3180,1,0,0:0:0
344,192,3343,1,0,0:0:0
256,124,3506,6,0,P|258:88|262:52,1,72
168,192,3832,1,0,0:0:0
168,192,3996,1,0,0:0:0
256,284,4159,6,0,P|296:284|336:280,1,80.9999975280763
172,108,4485,2,0,P|132:108|92:112,1,80.9999975280763
56,292,4811,1,0,0:0:0
80,320,4892,1,0,0:0:0
116,328,4974,1,0,0:0:0
152,324,5055,1,0,0:0:0
188,308,5137,1,0,0:0:0
220,292,5218,1,0,0:0:0
256,284,5300,1,0,0:0:0
292,284,5381,1,0,0:0:0
328,292,5463,6,0,P|372:288|432:288,1,90
484,156,5789,2,0,P|440:160|380:160,1,90
308,92,6115,1,0,0:0:0
228,164,6278,1,0,0:0:0
124,132,6441,1,0,0:0:0
48,208,6604,6,0,P|56:256|60:300,1,90
180,336,6930,2,0,P|207:304|241:270,1,90
360,316,7256,2,0,P|424:248|400:164,1,180
256,168,7746,2,0,P|259:122|263:78,1,90
416,64,8072,5,0,0:0:0
416,64,8398,1,0,0:0:0
416,64,8724,5,0,0:0:0
344,168,8887,1,0,0:0:0
468,180,9050,1,0,0:0:0
416,64,9213,2,0,P|332:60|224:48,1,180
88,120,9702,1,0,0:0:0
136,268,9865,2,0,P|212:220|208:132,1,180
300,56,10354,1,0,0:0:0
300,56,10436,1,0,0:0:0
300,56,10517,1,0,0:0:0
300,56,10599,1,0,0:0:0
300,56,10680,6,0,P|347:61|396:64,1,90
320,232,11006,2,0,P|284:204|245:181,1,90
400,168,11332,1,0,0:0:0
440,296,11495,1,0,0:0:0
400,168,11659,1,0,0:0:0
288,144,11822,6,0,P|240:148|168:148,1,90
120,260,12148,2,0,P|161:259|209:255,1,90
108,344,12474,2,0,P|44:300|64:196,1,180
72,184,12881,1,0,0:0:0
72,184,12963,2,0,P|68:140|64:92,1,90
236,63,13289,6,0,P|196:48|152:32,1,90
236,184,13615,2,0,P|276:168|320:152,1,90
228,308,13941,2,0,P|187:292|143:276,1,90
168,124,14267,1,0,0:0:0
328,104,14430,2,0,P|345:201|290:248,1,180
92,316,14919,1,0,0:0:0
92,316,15245,5,0,0:0:0
80,208,15409,1,0,0:0:0
64,100,15572,1,0,0:0:0
64,100,15898,6,0,P|152:96|244:84,1,180
332,180,16387,1,0,0:0:0
392,56,16550,1,0,0:0:0
444,156,16713,1,0,0:0:0
284,88,16876,1,0,0:0:0
220,184,17039,2,0,P|124:200|68:140,1,180
132,40,17528,6,0,P|145:87|156:140,1,90
56,316,17854,2,0,P|42:268|32:216,1,90
148,252,18180,1,0,0:0:0
256,292,18343,1,0,0:0:0
364,252,18506,2,0,P|372:156|380:72,1,180
232,56,18995,5,0,0:0:0
200,152,19159,2,0,P|244:144|296:132,1,90
440,200,19485,1,0,0:0:0
406,324,19648,2,0,P|314:344|256:292,1,180
200,152,20137,1,0,0:0:0
200,152,20300,1,0,0:0:0
112,216,20463,2,0,P|104:168|92:116,1,90
232,56,20789,5,0,0:0:0
288,148,20952,1,0,0:0:0
352,236,21115,2,0,P|438:192|438:116,2,180
280,328,21930,1,0,0:0:0
280,328,22012,1,0,0:0:0
280,328,22093,2,0,P|324:324|376:320,1,90
244,224,22419,6,0,P|198:227|154:231,1,90
64,316,22746,1,0,0:0:0
64,316,22909,1,0,0:0:0
16,168,23072,2,0,P|60:164|105:160,1,90
212,72,23398,5,0,0:0:0
308,120,23561,1,0,0:0:0
420,128,23724,2,0,P|425:84|434:20,1,90
308,200,24050,2,0,P|312:248|316:292,1,90
400,240,24376,1,0,0:0:0
224,252,24539,1,0,0:0:0
380,136,24702,1,0,0:0:0
232,136,24865,6,0,P|144:144|87:81,1,180
87,81,25354,1,0,0:0:0
108,188,25680,1,0,0:0:0
128,292,26006,1,0,0:0:0
128,292,26332,6,0,P|216:292|308:288,1,180
360,168,26822,1,0,0:0:0
428,312,26985,1,0,0:0:0
492,228,27148,2,0,P|444:232|402:234,1,90
276,228,27474,2,0,P|260:137|246:50,1,180
164,160,27963,6,0,P|157:116|148:60,1,90
60,128,28289,1,0,0:0:0
60,128,28452,1,0,0:0:0
88,232,28615,2,0,P|40:220|0:208,1,90
72,336,28941,6,0,P|164:360|244:292,1,180
276,228,29430,1,0,0:0:0
384,252,29593,2,0,P|376:209|364:156,1,90
248,84,29919,1,0,0:0:0
408,40,30082,2,0,P|468:104|448:192,1,180
344,176,30572,1,0,0:0:0
312,308,30735,1,0,0:0:0
148,248,30898,2,0,P|192:244|244:236,1,90
180,164,31224,5,0,0:0:0
212,328,31387,1,0,0:0:0
76,304,31550,2,0,P|64:256|60:212,1,90
144,80,31876,5,0,0:0:0
240,96,32039,1,0,0:0:0
336,116,32202,2,0,P|424:133,1,90
360,208,32528,5,0,0:0:0
408,48,32691,1,0,0:0:0
280,56,32854,2,0,P|260:96|252:152,1,90
196,308,33180,5,0,0:0:0
156,217,33343,1,0,0:0:0
114,129,33506,2,0,P|75:47,1,90
200,92,33832,1,0,0:0:0
68,208,33996,1,0,0:0:0
256,232,34159,5,0,0:0:0
112,348,34485,1,0,0:0:0
380,316,34811,2,0,P|388:228|400:132,1,180
292,140,35300,2,0,P|300:92|308:24,1,90
404,56,35626,1,0,0:0:0
208,40,35789,5,0,0:0:0
256,268,36115,1,0,0:0:0
256,268,36441,2,0,P|204:260,3,45
196,232,36767,6,0,P|156:236|104:240,1,90
8,224,37093,1,0,0:0:0
72,320,37256,1,0,0:0:0
104,160,37419,2,0,P|108:120|112:68,1,90
216,156,37746,1,0,0:0:0
244,60,37909,6,0,P|290:56|348:48,1,90
448,64,38235,1,0,0:0:0
480,212,38398,1,0,0:0:0
372,252,38561,2,0,P|377:209|382:162,1,90
456,308,38887,1,0,0:0:0
276,320,39050,2,0,P|281:277|286:230,1,90
168,92,39376,6,0,P|116:172|168:244,1,180
288,136,39865,1,0,0:0:0
256,224,40028,2,0,P|300:220|364:216,1,90
428,96,40354,1,0,0:0:0
432,288,40517,5,0,0:0:0
324,304,40843,1,0,0:0:0
216,316,41169,1,0,0:0:0
108,324,41495,1,0,0:0:0
108,324,41659,2,0,P|105:278|100:224,1,90
208,232,41985,6,0,P|201:135|195:41,1,180
100,124,42474,1,0,0:0:0
292,112,42637,1,0,0:0:0
288,224,42800,1,0,0:0:0
292,112,42963,1,0,0:0:0
404,152,43126,6,0,P|448:148|496:140,1,90
440,300,43452,2,0,P|404:268|364:228,1,90
320,368,43778,2,0,P|300:323|281:270,1,90
172,264,44104,1,0,0:0:0
172,264,44186,1,0,0:0:0
172,264,44267,2,0,P|124:264|76:260,1,90
32,144,44593,2,0,P|88:108|155:121,1,135
188,128,44919,6,0,P|232:120|284:116,1,90
400,228,45245,1,0,0:0:0
360,328,45409,1,0,0:0:0
292,244,45572,1,0,0:0:0
400,228,45735,6,0,P|408:132|416:32,1,180
256,48,46224,1,0,0:0:0
320,160,46387,2,0,P|323:114|332:52,1,90
188,128,46713,1,0,0:0:0
220,224,46876,2,0,P|176:218|130:214,1,90
44,56,47202,6,0,P|96:52|144:48|144:48,1,99.0000030212403
286,120,47528,2,0,P|234:124|186:128|188:128,1,99.0000030212403
76,264,47854,1,0,0:0:0
220,224,48017,1,0,0:0:0
64,160,48180,1,0,0:0:0
158,60,48343,6,0,P|206:56|258:52,1,99.0000030212403
332,200,48669,2,0,P|328:148|325:101,1,99.0000030212403
220,224,48995,2,0,P|224:276|227:323,1,99.0000030212403
408,304,49322,1,0,0:0:0
408,304,49485,1,0,0:0:0
416,180,49648,5,0,0:0:0
416,180,49729,1,0,0:0:0
416,180,49811,2,0,P|418:122|420:72|420:72,1,107.999996704102
256,156,50137,2,0,P|254:206|252:264,1,107.999996704102
152,352,50463,1,0,0:0:0
32,272,50626,1,0,0:0:0
160,208,50789,1,0,0:0:0
48,144,50952,5,0,0:0:0
48,144,51034,1,0,0:0:0
48,144,51115,1,0,0:0:0
132,308,51278,1,0,0:0:0
132,308,51360,1,0,0:0:0
132,308,51441,1,0,0:0:0
184,120,51604,2,0,P|196:60,2,53.9999983520508
320,284,51930,2,0,P|308:344,2,53.9999983520508
448,180,52256,5,0,0:0:0
448,180,52338,1,0,0:0:0
448,180,52419,2,0,P|452:118|456:48|456:48,1,116.999994644165
328,172,52745,2,0,P|328:156|325:227|321:284,1,116.999994644165
184,212,53072,2,0,P|183:227|186:156|190:99,1,116.999994644165
64,204,53398,2,0,P|59:265|56:336|56:336,1,116.999994644165
168,332,53724,5,0,0:0:0
284,252,53887,1,0,0:0:0
396,336,54050,1,0,0:0:0
464,212,54213,1,0,0:0:0
400,104,54376,5,0,0:0:0
380,100,54457,1,0,0:0:0
356,96,54539,1,0,0:0:0
332,92,54620,1,0,0:0:0
308,88,54702,1,0,0:0:0
284,84,54784,1,0,0:0:0
260,80,54865,1,0,0:0:0
236,76,54947,1,0,0:0:0
212,72,55028,6,0,P|144:88|76:96,1,135
28,144,55354,2,0,P|40:32,1,90
144,168,55680,1,0,0:0:0
144,168,55843,1,0,0:0:0
120,332,56006,1,0,0:0:0
78,238,56169,6,0,P|47:271|16:304,1,90
236,324,56495,2,0,P|209:287|183:250,1,90
160,84,56822,2,0,P|280:72|309:153,1,225
372,212,57311,2,0,P|380:164|385:123,1,90
492,84,57637,5,0,0:0:0
228,136,57963,1,0,0:0:0
328,304,58289,5,0,0:0:0
224,356,58452,1,0,0:0:0
224,240,58615,1,0,0:0:0
328,304,58778,2,0,P|328:208|328:112,1,180
232,48,59267,1,0,0:0:0
78,179,59430,2,0,P|174:191|228:136,1,180
344,68,59919,5,0,0:0:0
436,168,60082,1,0,0:0:0
392,296,60245,2,0,P|327:248|335:156,1,180
272,56,60735,1,0,0:0:0
184,120,60898,2,0,P|136:112|72:104,1,90
40,240,61224,5,0,0:0:0
144,328,61387,1,0,0:0:0
272,288,61550,2,0,P|196:228|122:249,1,180
44,336,62039,1,0,0:0:0
36,204,62202,2,0,P|28:104,1,90
160,68,62528,5,0,0:0:0
160,68,62691,1,0,0:0:0
232,136,62854,2,0,P|185:151|132:172,1,90
336,156,63180,2,0,P|321:117|306:71,1,90
160,68,63506,5,0,0:0:0
224,232,63669,1,0,0:0:0
308,72,63832,1,0,0:0:0
48,144,63995,1,0,0:0:0
48,144,64322,5,0,0:0:0
60,244,64485,1,0,0:0:0
116,324,64648,1,0,0:0:0
208,364,64811,1,0,0:0:0
304,364,64974,1,0,0:0:0
396,324,65137,1,0,0:0:0
452,244,65300,1,0,0:0:0
464,144,65463,6,0,P|404:132|332:112,1,135
292,104,65789,2,0,P|246:108|188:116,1,90
48,144,66115,1,0,0:0:0
156,184,66278,1,0,0:0:0
136,68,66441,1,0,0:0:0
48,144,66604,6,0,P|37:187|20:240,1,90
136,288,66930,2,0,P|176:278|224:274,1,90
336,340,67256,2,0,P|416:299|397:174,1,225
328,192,67745,2,0,P|316:80,1,90
200,68,68072,5,0,0:0:0
408,104,68398,1,0,0:0:0
216,244,68724,5,0,0:0:0
128,320,68887,1,0,0:0:0
240,360,69050,1,0,0:0:0
216,244,69213,2,0,P|210:195|204:124,1,90
20,176,69539,2,0,P|23:216|29:265,1,90
128,320,69865,2,0,P|109:140,1,180
204,44,70354,5,0,0:0:0
320,116,70517,1,0,0:0:0
320,252,70680,2,0,P|240:208|244:112,1,180
384,48,71169,1,0,0:0:0
404,144,71332,2,0,P|411:191|420:248,1,90
344,348,71659,5,0,0:0:0
212,324,71822,1,0,0:0:0
80,296,71985,2,0,P|72:200|64:100,1,180
168,64,72474,1,0,0:0:0
232,144,72637,2,0,P|184:152|120:168,1,90
0,184,72963,1,0,0:0:0
88,88,73126,1,0,0:0:0
156,264,73289,5,0,0:0:0
264,252,73615,1,0,0:0:0
372,236,73941,5,0,0:0:0
480,284,74104,1,0,0:0:0
384,352,74267,1,0,0:0:0
372,236,74430,2,0,P|352:32,1,180
184,176,74919,2,0,P|180:130|176:86,1,90
72,88,75245,5,0,0:0:0
264,72,75572,1,0,0:0:0
264,72,75898,6,0,P|281:251,1,180
184,176,76387,1,0,0:0:0
360,112,76550,2,0,P|377:291,1,180
472,264,77039,2,0,P|468:221|464:174,1,90
264,72,77365,2,0,P|267:118|271:161,1,90
288,304,77691,1,0,0:0:0
160,336,77854,5,0,0:0:0
128,336,77936,1,0,0:0:0
96,332,78017,1,0,0:0:0
68,316,78099,1,0,0:0:0
48,292,78180,1,0,0:0:0
36,264,78262,1,0,0:0:0
32,232,78343,1,0,0:0:0
32,200,78425,1,0,0:0:0
40,168,78506,6,0,P|48:116|52:76,1,90
204,228,78832,2,0,P|156:232|108:236,1,90
144,136,79159,1,0,0:0:0
296,192,79322,1,0,0:0:0
212,64,79485,1,0,0:0:0
344,88,79648,6,0,P|392:96|438:100,1,90
408,216,79974,2,0,P|456:208|502:203,1,90
372,328,80300,2,0,P|288:320|184:308,1,180
160,224,80789,2,0,P|143:135,1,90
64,200,81115,5,0,0:0:0
64,200,81278,1,0,0:0:0
88,296,81441,2,0,P|44:283|1:270,1,90
40,112,81767,1,0,0:0:0
160,224,81930,1,0,0:0:0
248,136,82093,1,0,0:0:0
332,264,82256,6,0,P|400:207|390:123,1,180
244,36,82745,1,0,0:0:0
248,136,82909,2,0,P|253:219|260:336,1,180
132,336,83398,1,0,0:0:0
132,336,83479,1,0,0:0:0
132,336,83561,1,0,0:0:0
132,336,83642,1,0,0:0:0
132,336,83724,6,0,P|129:278|128:246,1,90
0,184,84050,2,0,P|36:172|86:158,1,90
220,236,84376,1,0,0:0:0
304,168,84539,1,0,0:0:0
420,292,84702,1,0,0:0:0
500,224,84865,6,0,P|456:212|408:196,1,90
364,44,85191,2,0,P|368:92|372:140,1,90
312,264,85517,2,0,P|225:276|169:212,1,180
56,156,86006,2,0,P|68:252,1,90
152,128,86332,5,0,0:0:0
152,128,86495,1,0,0:0:0
168,304,86659,1,0,0:0:0
168,304,86822,1,0,0:0:0
356,192,86985,5,0,0:0:0
220,208,87148,1,0,0:0:0
304,316,87311,1,0,0:0:0
448,272,87474,2,0,P|436:168|428:88,1,180
256,76,87963,1,0,0:0:0
256,76,88289,5,0,0:0:0
172,156,88452,1,0,0:0:0
80,232,88615,1,0,0:0:0
80,232,88941,6,0,P|64:64,1,153.000002918243
160,56,89430,1,0,0:0:0
172,156,89593,2,0,P|176:196|180:244,1,76.5000014591217
263,152,89919,2,0,P|260:116|256:76,1,76.5000014591217
356,140,90245,2,0,P|360:180|364:228,1,76.5000014591217
380,320,90572,5,0,0:0:0
256,360,90898,1,0,0:0:0
132,320,91224,1,0,0:0:0
132,320,91550,6,0,P|126:239|120:168,1,153.000002918243
112,68,92039,1,0,0:0:0
43,194,92202,2,0,P|36:160|28:120,1,76.5000014591217
208,120,92528,1,0,0:0:0
264,40,92691,2,0,P|301:78|289:170,1,153.000002918243
208,228,93180,1,0,0:0:0
208,228,93343,1,0,0:0:0
108,244,93506,2,0,P|120:208|132:164,1,76.5000014591217
288,172,93832,5,0,0:0:0
380,212,93995,1,0,0:0:0
480,204,94159,2,0,P|486:126|492:52,2,153.000002918243
380,212,94974,1,0,0:0:0
380,212,95055,1,0,0:0:0
380,212,95137,2,0,P|372:288,1,76.5000014591217
288,172,95463,6,0,P|210:162|128:156,1,153.000002918243
124,256,95952,1,0,0:0:0
204,316,96115,2,0,P|206:277|208:216,1,76.5000014591217
136,156,96441,1,0,0:0:0
260,96,96604,1,0,0:0:0
144,48,96767,5,0,0:0:0
368,48,97093,1,0,0:0:0
256,176,97419,5,0,0:0:0
328,244,97582,1,0,0:0:0
352,148,97745,1,0,0:0:0
256,176,97909,6,0,P|140:168,1,90
52,112,98235,1,0,0:0:0
12,236,98398,5,0,0:0:0
196,44,98724,1,0,0:0:0
121,161,99050,2,0,P|193:169|256:176,1,135
310,174,99376,6,0,P|240:224|256:308,1,180
356,348,99865,1,0,0:0:0
424,252,100028,2,0,P|376:256|332:260,1,90
416,156,100354,1,0,0:0:0
296,88,100517,2,0,P|228:168|268:248,1,180
344,268,101006,5,0,0:0:0
344,268,101169,1,0,0:0:0
304,368,101332,2,0,P|272:332|240:300,1,90
284,184,101659,2,0,P|328:180|372:171,1,90
452,248,101985,6,0,P|508:196|484:96,1,180
392,56,102474,1,0,0:0:0
284,64,102637,2,0,P|236:68|194:72,1,90
56,208,102963,1,0,0:0:0
152,288,103126,2,0,P|136:192|120:88,1,180
196,40,103615,1,0,0:0:0
260,172,103778,1,0,0:0:0
368,84,103941,2,0,P|320:85|278:87,1,90
123,110,104267,5,0,0:0:0
136,200,104430,1,0,0:0:0
152,288,104593,2,0,P|232:312|308:256,1,180
440,152,105082,1,0,0:0:0
432,240,105245,2,0,P|424:340,1,90
340,184,105572,5,0,0:0:0
256,156,105735,1,0,0:0:0
172,124,105898,2,0,P|123:167|151:267,1,180
268,328,106387,1,0,0:0:0
352,360,106550,2,0,P|348:316|340:260,1,90
256,156,106876,1,0,0:0:0
356,92,107039,1,0,0:0:0
196,40,107202,5,0,0:0:0
400,172,107528,1,0,0:0:0
152,200,107854,6,0,P|128:292|184:344,1,180
304,280,108343,2,0,P|260:272|208:258,1,90
72,188,108669,5,0,0:0:0
16,288,108832,1,0,0:0:0
72,40,109159,1,0,0:0:0
72,40,109485,2,0,P|92:80,3,45
100,104,109811,6,0,P|93:147|88:196,1,90
124,288,110137,1,0,0:0:0
224,196,110300,1,0,0:0:0
292,304,110463,2,0,P|249:289|200:272,1,90
248,108,110789,1,0,0:0:0
344,96,110952,6,0,P|310:61|280:24,1,90
176,56,111278,2,0,P|165:100|157:144,1,90
124,288,111604,1,0,0:0:0
124,288,111930,5,0,0:0:0
240,316,112093,2,0,P|234:270|228:224,1,90
256,60,112419,5,0,0:0:0
300,156,112582,1,0,0:0:0
384,84,112745,1,0,0:0:0
368,236,112909,1,0,0:0:0
300,156,113072,2,0,P|237:151|160:144,1,135
112,140,113398,1,0,0:0:0
124,288,113561,5,0,0:0:0
212,304,113887,1,0,0:0:0
300,320,114213,1,0,0:0:0
388,332,114539,1,0,0:0:0
388,332,114702,2,0,P|396:288|404:240,1,90
312,116,115028,6,0,P|316:164|320:228,1,90
400,160,115354,1,0,0:0:0
232,172,115517,1,0,0:0:0
400,160,115680,6,0,P|397:118|393:70,1,90
236,64,116006,1,0,0:0:0
232,172,116169,2,0,P|132:192|88:128,1,180
148,44,116659,1,0,0:0:0
320,80,116822,2,0,P|316:162|312:259,1,180
408,256,117311,2,0,P|392:304|382:342,1,90
232,332,117637,2,0,P|224:284|216:236,1,90
184,228,117881,5,0,0:0:0
184,228,117963,2,0,P|144:232|88:240,1,90
20,192,118289,1,0,0:0:0
80,324,118452,1,0,0:0:0
112,144,118615,1,0,0:0:0
184,228,118778,6,0,P|260:252|324:188,1,180
372,100,119267,1,0,0:0:0
452,152,119430,2,0,P|455:107|460:56,1,90
292,52,119756,1,0,0:0:0
212,112,119919,2,0,P|170:115|122:119,1,90
112,144,120164,5,0,0:0:0
112,144,120245,2,0,P|104:192|97:241,1,99.0000030212403
228,356,120572,2,0,P|223:305|218:257,1,99.0000030212403
292,128,120898,2,0,P|313:171|334:217,1,99.0000030212403
464,236,121224,1,0,0:0:0
359,327,121387,6,0,P|273:340|217:256,1,198.000006042481
204,132,121876,1,0,0:0:0
328,40,122039,2,0,P|388:132|352:208,1,198.000006042481
218,256,122528,2,0,P|152:220|76:248,1,148.50000453186
64,244,122854,6,0,P|56:184|48:136,1,107.999996704102
44,112,123099,1,0,0:0:0
44,112,123180,1,0,0:0:0
168,40,123343,1,0,0:0:0
168,40,123425,1,0,0:0:0
168,40,123506,2,0,P|166:97|164:152,1,107.999996704102
136,316,123832,1,0,0:0:0
256,336,123995,6,0,P|308:332|372:308,1,107.999996704102
344,136,124322,2,0,P|308:184|296:232,1,107.999996704102
484,272,124648,2,0,P|448:228|400:212,1,107.999996704102
256,336,124974,1,0,0:0:0
136,316,125137,2,0,P|128:208,1,107.999996704102
116,40,125463,5,0,0:0:0
32,160,125626,2,0,P|8:220,2,53.9999983520508
220,252,125952,2,0,P|240:302,2,53.9999983520508
256,76,126278,2,0,P|276:25,2,53.9999983520508
344,140,126604,5,0,0:0:0
344,140,126686,1,0,0:0:0
344,140,126767,1,0,0:0:0
379,38,126930,1,0,0:0:0
455,142,127093,1,0,0:0:0
379,243,127256,1,0,0:0:0
256,204,127419,1,0,0:0:0
116,140,127582,5,0,0:0:0
116,140,127664,1,0,0:0:0
116,140,127745,1,0,0:0:0
116,140,127827,1,0,0:0:0
116,140,127909,1,0,0:0:0
116,140,127990,1,0,0:0:0
116,140,128072,6,0,P|80:200|104:264,1,135
168,292,128398,2,0,P|168:236|144:192,1,90
40,92,128724,1,0,0:0:0
184,80,128887,1,0,0:0:0
40,208,129050,1,0,0:0:0
196,192,129213,6,0,P|240:188|288:184,1,90
392,88,129539,2,0,P|346:91|302:95,1,90
116,140,129865,2,0,P|132:257|222:280,1,225
288,208,130354,2,0,P|276:165|260:108,1,90
452,148,130680,6,0,P|424:184|396:232,1,90
318,52,131006,2,0,P|366:59|408:60,1,90
488,224,131332,1,0,0:0:0
356,148,131495,1,0,0:0:0
268,240,131659,1,0,0:0:0
140,220,131822,6,0,P|127:129|116:28,1,180
24,136,132311,1,0,0:0:0
80,304,132474,2,0,P|168:328|228:272,1,180
268,144,132963,5,0,0:0:0
368,236,133126,1,0,0:0:0
445,137,133289,2,0,P|400:144|356:148,1,90
228,273,133615,1,0,0:0:0
164,344,133778,2,0,P|147:253|132:156,1,180
196,72,134267,5,0,0:0:0
196,72,134430,1,0,0:0:0
297,59,134593,2,0,P|281:106|268:144,1,90
228,272,134919,1,0,0:0:0
312,340,135082,2,0,P|404:352|472:280,1,180
472,160,135572,5,0,0:0:0
368,248,135735,1,0,0:0:0
288,156,135898,2,0,P|333:158|380:160,1,90
228,272,136224,2,0,P|182:269|136:268,1,90
32,140,136550,5,0,0:0:0
196,164,136713,1,0,0:0:0
136,36,136876,1,0,0:0:0
108,216,137039,1,0,0:0:0
108,216,137365,5,0,0:0:0
32,140,137528,1,0,0:0:0
136,112,137691,1,0,0:0:0
208,192,137854,1,0,0:0:0
184,296,138017,1,0,0:0:0
80,320,138180,1,0,0:0:0
4,244,138343,1,0,0:0:0
108,216,138506,6,0,P|160:224|160:224|184:188|256:180,1,135
264,180,138832,2,0,P|270:135|274:87,1,90
360,144,139159,1,0,0:0:0
192,68,139322,1,0,0:0:0
356,40,139485,1,0,0:0:0
460,136,139648,6,0,P|444:180|420:236,1,90
330,241,139974,2,0,P|297:212|264:180,1,90
192,68,140300,2,0,P|70:65|60:168,1,225
124,220,140789,2,0,P|128:172|132:120,1,90
240,152,141115,5,0,0:0:0
32,260,141441,1,0,0:0:0
256,300,141767,5,0,0:0:0
172,380,141930,1,0,0:0:0
144,268,142093,1,0,0:0:0
256,300,142256,2,0,P|296:304|348:308,1,90
424,192,142582,2,0,P|374:188|334:184,1,90
472,112,142909,2,0,P|512:196|468:272,1,180
360,352,143398,6,0,P|367:307|372:256,1,90
344,252,143642,1,0,0:0:0
344,252,143724,2,0,P|294:248|254:244,1,90
88,236,144050,1,0,0:0:0
168,336,144213,2,0,P|174:249|182:156,1,180
120,44,144702,6,0,P|106:87|92:129,1,90
272,128,145028,2,0,P|259:80|247:39,1,90
182,156,145354,1,0,0:0:0
228,240,145517,2,0,P|320:260|376:192,1,180
448,36,146006,1,0,0:0:0
352,104,146169,1,0,0:0:0
476,196,146332,5,0,0:0:0
356,308,146659,1,0,0:0:0
184,332,146985,5,0,0:0:0
276,260,147148,1,0,0:0:0
292,376,147311,1,0,0:0:0
184,332,147474,2,0,P|175:236|168:148,1,180
68,188,147963,2,0,P|64:140|60:88,1,90
252,72,148289,5,0,0:0:0
252,72,148615,2,0,P|296:100|352:96|352:96,1,101.250003862381
420,92,148941,6,0,P|468:172|416:260,1,180
312,280,149430,1,0,0:0:0
204,192,149593,2,0,P|296:180|382:170,1,180
380,344,150082,5,0,0:0:0
132,344,150409,1,0,0:0:0
204,192,150735,5,0,0:0:0
204,192,150898,2,0,P|202:146|200:100,1,90
308,192,151224,2,0,P|310:238|312:284,1,90
164,267,151550,1,0,0:0:0
