osu file format v12

[General]
AudioFilename: thanks.mp3
AudioLeadIn: 0
PreviewTime: 61337
Countdown: 0
SampleSet: Soft
StackLeniency: 0.7
Mode: 0
LetterboxInBreaks: 0
WidescreenStoryboard: 0

[Editor]
DistanceSpacing: 1.4
BeatDivisor: 4
GridSize: 4
TimelineZoom: 1.8

[Metadata]
Title:W:Wonder tale (TV Size)
TitleUnicode:W:Wonder tale (TV Size)
Artist:Tamura Yukari
ArtistUnicode:田村ゆかり
Creator:ritsu-tanaika
Version:Easy
Source:Ore no Kanojo to Osananajimi ga Shuraba Sugiru
Tags:oreshura ending ed ai-chan masuzu moe waifu pkhg
BeatmapID:333818
BeatmapSetID:132806

[Difficulty]
HPDrainRate:2
CircleSize:3
OverallDifficulty:2
ApproachRate:3
SliderMultiplier:0.6
SliderTickRate:1

[Events]
//Background and Video events
Video,1304,"video.avi"
0,0,"HorribleSubs-OreShura-02-1080p.mkv_snapshot_23.15_2013.01.12_12.49.10.jpg",0,0
//Break Periods
//Storyboard Layer 0 (Background)
//Storyboard Layer 1 (Fail)
//Storyboard Layer 2 (Pass)
//Storyboard Layer 3 (Foreground)
//Storyboard Sound Samples
//Background Colour Transformations
3,100,163,162,255

[TimingPoints]
2604,379.746835443038,4,2,7,50,1,0
2604,-100,4,2,1,50,0,0
9535,327.868852459016,4,2,7,40,1,0
10190,327.868852459016,4,2,7,60,1,0
18058,-100,4,2,7,5,0,0
19370,-100,4,2,4,60,0,0
19534,-100,4,2,7,60,0,0
19698,-100,4,2,7,40,0,0
29862,-100,4,2,7,60,0,0
40353,-100,4,2,7,60,0,0
50845,-100,4,2,7,60,0,0
56091,-100,4,2,7,60,0,0
61337,-100,4,2,7,80,0,1
71829,-100,4,2,7,80,0,1
82321,-100,4,2,7,60,0,0
87567,-100,4,2,7,20,0,0
90189,-100,4,2,7,5,0,0

[Colours]
Combo1 : 128,128,192
Combo2 : 255,147,255
Combo3 : 176,255,255
Combo4 : 255,133,74

[HitObjects]
44,220,2604,6,0,P|120:260|268:223,1,240
356,152,4882,1,0,0:0:0:0:
440,64,5641,2,0,P|476:124|440:228,1,180,2|2,0:0|0:0,0:0:0:0:
256,192,7160,12,8,9535,0:0:0:0:
176,120,10190,6,0,P|254:83|404:132,1,240,6|2,0:0|0:0,0:0:0:0:
488,264,12157,1,2,0:0:0:0:
328,312,12812,2,0,L|84:312,2,240,2|2|2,0:0|0:0|0:0,0:0:0:0:
400,268,15763,5,8,0:0:0:0:
424,100,16419,1,8,0:0:0:0:
256,192,16911,12,6,19370,0:0:0:0:
136,148,20026,6,0,P|100:212|98:264,1,120,2|2,0:0|0:0,0:0:0:0:
232,360,21337,2,0,P|268:296|270:244,1,120,2|2,0:0|0:0,0:0:0:0:
424,184,22649,2,0,P|387:107|244:80,1,240,2|2,0:0|0:0,0:0:0:0:
116,184,24616,6,0,P|168:200|240:196,1,120,2|2,0:0|0:0,0:0:0:0:
396,156,25927,2,0,L|396:348,2,180,2|2|2,0:0|0:0|0:0,0:0:0:0:
324,112,28222,1,2,0:0:0:0:
244,140,28550,2,0,P|177:195|284:236,1,240,6|6,0:0|0:0,0:0:0:0:
442,216,30517,6,0,P|463:148|464:32,2,180,2|8|2,0:0|0:0|0:0,0:0:0:0:
380,272,32812,2,0,L|256:272,1,120,8|8,0:0|0:0,0:0:0:0:
176,272,33796,1,2,0:0:0:0:
120,208,34124,1,8,0:0:0:0:
204,64,34780,1,8,0:0:0:0:
276,108,35108,6,0,B|320:136|340:168|340:168|368:140|432:144,1,180,6|8,0:0|0:0,0:0:0:0:
484,204,36419,2,0,P|487:308|460:379,1,180,2|8,0:0|0:0,0:0:0:0:
256,192,37730,12,8,39042,0:0:0:0:
324,332,40026,5,8,0:0:0:0:
244,336,40353,6,0,P|224:296|240:224,1,120,6|8,0:0|0:0,0:0:0:0:
292,64,41665,2,0,P|204:40|60:80,2,240,2|2|2,0:0|0:0|0:0,0:0:0:0:
408,184,44944,1,8,0:0:0:0:
248,232,45599,6,0,P|224:280|228:356,2,120,6|8|2,0:0|0:0|0:0,0:0:0:0:
408,176,47567,1,8,0:0:0:0:
408,92,47894,1,2,0:0:0:0:
324,92,48222,6,0,L|196:92,1,120,6|2,0:0|0:0,0:0:0:0:
120,104,49206,1,8,0:0:0:0:
60,164,49534,2,0,P|48:224|64:288,2,120,6|8|6,0:0|0:0|0:0,0:0:0:0:
164,296,51501,6,0,L|296:316,2,120,2|2|2,0:0|0:0|0:0,0:0:0:0:
152,212,53140,1,8,0:0:0:0:
236,224,53468,2,0,L|368:244,2,120,2|2|6,0:0|0:0|0:0,0:0:0:0:
168,120,55271,2,0,P|216:100|324:112,1,150,8|6,0:0|0:0,0:0:0:0:
364,172,56419,5,8,0:0:0:0:
336,252,56747,2,0,B|216:252,1,120,2|2,0:0|0:0,0:0:0:0:
160,316,57730,2,0,B|104:328|104:328|40:304,1,120,8|8,0:0|0:0,0:0:0:0:
60,224,58714,6,0,P|96:124|224:116,1,240,6|6,0:0|0:0,0:0:0:0:
268,180,60353,1,8,0:0:0:0:
252,264,60681,1,8,0:0:0:0:
416,300,61337,6,0,P|447:200|444:120,1,180,6|8,0:0|0:0,0:0:0:0:
360,116,62649,2,0,L|292:112,1,60,2|8,0:0|0:0,0:0:0:0:
224,148,63304,2,0,P|208:104|224:28,2,120,2|2|2,0:0|0:0|0:0,0:0:0:0:
356,252,65271,6,0,P|372:296|356:372,2,120,2|2|6,0:0|0:0|0:0,0:0:0:0:
272,248,66911,1,8,0:0:0:0:
200,292,67239,1,2,0:0:0:0:
128,252,67567,1,8,0:0:0:0:
52,288,67894,2,0,P|19:206|55:126,1,180,6|8,0:0|0:0,0:0:0:0:
120,72,69206,5,2,0:0:0:0:
204,80,69534,2,0,L|272:80,2,60,8|2|8,0:0|0:0|0:0,0:0:0:0:
188,164,70517,2,0,B|216:200|256:220|256:220|316:192|344:144,1,180,2|8,0:0|0:0,0:0:0:0:
348,84,71829,6,0,L|164:84,1,180,6|8,0:0|0:0,0:0:0:0:
88,60,73140,2,0,P|48:100|60:216,1,180,2|8,0:0|0:0,0:0:0:0:
128,260,74452,2,0,L|116:332,2,60,2|8|2,0:0|0:0|0:0,0:0:0:0:
204,228,75435,1,8,0:0:0:0:
284,248,75763,2,0,P|316:164|304:72,1,180,2|8,0:0|0:0,0:0:0:0:
224,56,77075,6,0,L|152:56,1,60,6|8,0:0|0:0,0:0:0:0:
152,140,77730,2,0,L|224:140,2,60,2|8|2,0:0|0:0|0:0,0:0:0:0:
100,208,78714,2,0,L|28:208,2,60,8|2|8,0:0|0:0|0:0,0:0:0:0:
129,288,79698,6,0,P|145:304|349:312,1,240,6|2,0:0|0:0,0:0:0:0:
416,264,81337,1,12,0:0:0:0:
300,140,81993,1,12,0:0:0:0:
220,160,82321,6,0,P|196:108|208:40,2,120,6|2|6,0:0|0:0|0:0,0:0:0:0:
140,308,84288,2,0,P|82:307|26:268,2,120,2|6|2,0:0|0:0|0:0,0:0:0:0:
208,260,85927,1,8,0:0:0:0:
280,304,86255,2,0,P|308:305|340:296,2,60,8|8|8,0:0|0:0|0:0,0:0:0:0:
284,220,87239,1,8,0:0:0:0:
256,192,87567,12,0,90189,0:0:0:0:
