osu file format v12

[General]
AudioFilename: WWonder tale.mp3
AudioLeadIn: 0
PreviewTime: 61394
Countdown: 0
SampleSet: Soft
StackLeniency: 0.7
Mode: 0
LetterboxInBreaks: 0
WidescreenStoryboard: 0

[Editor]
Bookmarks: 31803,35164
DistanceSpacing: 1.2
BeatDivisor: 4
GridSize: 4

[Metadata]
Title:W:Wonder tale (TV Size)
TitleUnicode:W:Wonder tale (TV Size)
Artist:Tamura Yukari
ArtistUnicode:田村ゆかり
Creator:remy11
Version:Normal
Source:Ore no Kanojo to Osananajimi ga Shuraba Sugiru
Tags:ending oreshura
BeatmapID:234484
BeatmapSetID:85217

[Difficulty]
HPDrainRate:3
CircleSize:3
OverallDifficulty:3
ApproachRate:5
SliderMultiplier:1
SliderTickRate:2

[Events]
//Background and Video events
0,0,"kulSc3eIx510687D6.jpg",0,0
//Break Periods
//Storyboard Layer 0 (Background)
//Storyboard Layer 1 (Fail)
//Storyboard Layer 2 (Pass)
//Storyboard Layer 3 (Foreground)
//Storyboard Sound Samples
//Background Colour Transformations
3,100,163,162,255

[TimingPoints]
1151,379.746835443038,4,2,1,50,1,0
2670,-100,4,2,1,50,0,0
8745,-100,4,2,1,15,0,0
8935,327.868852459016,4,2,1,60,1,0
18115,-100,4,2,1,30,0,0
19426,-100,4,2,1,60,0,0
40410,-100,4,2,1,50,0,0
51230,-100,4,2,1,60,0,0
61394,-100,4,2,1,70,0,1
87623,-100,4,2,1,5,0,0

[Colours]
Combo1 : 128,128,255
Combo2 : 236,217,247
Combo3 : 255,148,40
Combo4 : 255,128,255

[HitObjects]
120,140,2669,2,0,P|64:132|28:104,2,100,2|0|2,0:0|0:0|0:0,0:0:0:0:
204,52,3809,2,0,P|256:30|301:37,1,100,0|2,0:0|0:0,0:0:0:0:
372,264,4948,6,0,L|432:348,2,100,0|0|2,0:0|0:0|0:0,0:0:0:0:
318,192,6087,1,0,0:0:0:0:
228,192,6467,2,0,L|124:192,1,100,2|2,0:0|0:0,0:0:0:0:
256,192,7226,12,0,8745,0:0:0:0:
72,116,9590,6,0,P|112:88|164:80,1,100,0|0,1:0|1:0,0:0:0:0:
284,80,10246,1,4,0:0:0:0:
380,152,10574,1,0,1:0:0:0:
408,268,10902,2,0,P|432:280|456:304,2,50,2|0|0,0:0|0:0|1:0,0:0:0:0:
300,320,11557,6,0,P|244:316|204:296,1,100,2|0,0:0|1:0,0:0:0:0:
144,192,12213,2,0,L|84:192,2,50,0|0|0,0:0|0:0|1:0,0:0:0:0:
264,192,12869,6,0,B|356:192|356:192|364:128|412:92,2,200,2|0|2,0:0|0:0|0:0,0:0:0:0:
180,108,14508,2,0,P|140:64|100:48,2,100,0|0|0,1:0|0:0|1:0,0:0:0:0:
160,228,15492,6,0,P|200:260|252:276,1,100,4|0,1:2|1:0,0:0:0:0:
360,232,16148,2,0,L|416:232,2,50,0|0|0,0:0|0:0|1:0,0:0:0:0:
308,124,16803,6,0,P|352:92|400:84,2,100,2|0|0,0:0|1:0|0:0,0:0:0:0:
256,232,17787,1,0,1:0:0:0:
256,192,18115,12,4,19426,0:0:0:0:
328,40,20082,6,0,P|376:52|416:84,1,100,2|0,0:0|1:0,0:0:0:0:
464,192,20738,2,0,P|452:240|420:280,1,100,2|0,0:0|1:0,0:0:0:0:
312,232,21394,2,0,P|264:244|224:276,1,100,2|0,0:0|1:0,0:0:0:0:
104,292,22049,6,0,P|88:192|132:108,1,200,2|2,0:0|0:0,0:0:0:0:
232,40,23033,1,0,1:0:0:0:
316,136,23361,2,0,P|360:176|408:184,1,100,2|0,0:0|1:0,0:0:0:0:
468,96,24016,2,0,P|424:56|376:48,1,100,2|0,0:0|1:0,0:0:0:0:
316,136,24672,6,0,P|276:180|268:228,1,100,4|0,0:0|1:0,0:0:0:0:
188,308,25328,2,0,L|176:360,2,50,2|0|0,0:0|0:0|1:0,0:0:0:0:
176,188,25984,2,0,P|180:136|200:92,1,100,2|0,0:0|1:0,0:0:0:0:
304,32,26639,6,0,P|356:36|400:56,1,100,2|0,0:0|1:0,0:0:0:0:
436,168,27295,2,0,B|492:236|492:236|440:284|440:284|448:324,2,200,2|2|2,0:0|0:0|0:0,0:0:0:0:
136,192,29426,5,8,1:3:0:0:
136,192,29590,1,8,2:3:0:0:
256,192,29918,2,0,L|360:192,1,99.9999999999999,4|0,0:0|1:1,0:0:0:0:
472,164,30574,6,0,L|508:208,2,50,2|0|0,0:0|0:0|1:0,0:0:0:0:
380,88,31230,2,0,P|336:64|284:56,1,100,2|0,0:0|1:0,0:0:0:0:
168,60,31885,2,0,P|119:74|77:105,1,100,2|0,0:0|1:0,0:0:0:0:
20,208,32541,1,2,0:0:0:0:
116,280,32869,6,0,P|88:332|56:360,2,100,0|2|0,1:0|0:0|1:0,0:0:0:0:
156,168,33853,1,2,0:0:0:0:
236,76,34180,2,0,P|280:64|336:64,1,100,0|2,1:0|0:0,0:0:0:0:
432,132,34836,1,0,1:0:0:0:
468,248,35164,6,0,P|404:316|300:344,1,200,2|2,0:0|0:0,0:0:0:0:
184,336,36148,1,0,1:0:0:0:
112,240,36475,2,0,L|52:156,1,100,2|0,0:0|1:0,0:0:0:0:
132,68,37131,2,0,L|192:152,1,100,2|0,0:0|1:0,0:0:0:0:
256,192,37787,12,0,39098,1:0:0:0:
84,88,40410,6,0,P|184:56|280:44,1,200,4|0,0:0|1:0,0:0:0:0:
428,232,41721,2,0,P|328:264|232:276,1,200,0|0,0:0|1:0,0:0:0:0:
256,36,43033,2,0,L|360:36,1,100
416,140,43689,2,0,L|312:140,1,100,0|0,1:0|0:0,0:0:0:0:
196,140,44344,5,2,0:0:0:0:
148,180,44508,2,0,L|64:244,1,100,2|2,0:0|0:0,0:0:0:0:
112,352,45164,2,0,L|220:352,1,100,2|2,0:0|0:0,0:0:0:0:
272,352,45656,1,4,0:0:0:0:
392,352,45984,6,0,P|444:328|472:296,1,100,0|0,0:0|1:0,1:0:0:0:
512,184,46639,2,0,P|488:132|456:104,1,100
336,112,47295,6,0,P|360:60|392:32,2,100,0|0|0,0:0|1:0|0:0,0:0:0:0:
376,224,48279,2,0,P|280:224|180:192,1,200,0|0,0:0|1:0,0:0:0:0:
60,192,49262,1,0,0:0:0:0:
40,312,49590,5,2,0:0:0:0:
100,312,49754,2,0,L|208:312,1,100,2|0,0:0|0:0,0:0:0:0:
320,312,50410,2,0,L|424:312,1,100,2|2,0:0|0:0,0:0:0:0:
480,312,50902,1,4,0:0:0:0:
484,192,51230,6,0,P|456:140|420:116,1,99.9999999999999,0|2,1:0|0:0,0:0:0:0:
312,72,51885,1,0,1:0:0:0:
196,36,52213,2,0,P|148:24|96:24,1,100,2|0,0:0|1:0,0:0:0:0:
16,112,52869,2,0,P|4:160|4:212,1,100,2|0,0:0|1:0,0:0:0:0:
120,236,53525,5,2,0:0:0:0:
156,348,53853,1,0,1:0:0:0:
220,248,54180,2,0,P|312:192|400:216,1,200,2|2,0:0|0:0,0:0:0:0:
476,304,55164,1,0,1:0:0:0:
476,304,55328,2,0,P|396:308|328:280,1,150,0|0,0:0|1:0,0:0:0:0:
252,192,56148,6,0,P|260:140|284:96,1,100,4|0,0:0|1:1,0:0:0:0:
404,92,56803,2,0,P|423:141|424:191,1,100,0|0,0:0|1:1,0:0:0:0:
424,308,57459,2,0,B|332:372|332:372|240:372,1,200
44,240,58771,6,0,P|108:164|204:144,1,200,6|6,0:0|0:0,0:0:0:0:
440,132,60082,2,0,P|376:56|280:36,1,200,6|6,0:0|0:0,0:0:0:0:
140,232,61394,6,0,P|176:276|224:292,1,99.9999999999999,4|0,0:0|1:1,0:0:0:0:
336,300,62049,2,0,L|336:364,2,50,2|0|0,0:0|0:0|1:1,0:0:0:0:
292,188,62705,2,0,P|256:144|208:128,1,99.9999999999999,2|0,0:0|1:1,0:0:0:0:
96,128,63361,1,2,0:0:0:0:
36,232,63689,1,0,1:1:0:0:
132,304,64016,6,0,P|180:328|228:328,2,99.9999999999999,2|0|2,0:0|1:1|0:0,0:0:0:0:
192,200,65000,1,0,1:0:0:0:
304,240,65328,2,0,L|404:240,1,99.9999999999999,2|0,0:0|1:1,0:0:0:0:
472,140,65984,1,2,0:0:0:0:
364,88,66312,1,0,1:1:0:0:
256,140,66639,6,0,B|144:200|144:200|128:156|84:152,2,200,4|2|2,0:0|0:0|0:0,0:0:0:0:
196,36,68279,1,0,1:1:0:0:
316,36,68607,2,0,L|420:36,1,100,2|0,0:0|1:0,0:0:0:0:
372,148,69262,6,0,L|448:220,1,99.9999999999999,2|0,0:0|1:1,0:0:0:0:
380,320,69918,2,0,L|304:248,1,99.9999999999999,2|0,0:0|1:1,0:0:0:0:
196,300,70574,2,0,L|156:340,2,50,6|0|0,0:0|0:0|1:0,0:0:0:0:
144,192,71230,2,0,L|104:152,2,50,6|0|0,0:0|0:0|1:0,0:0:0:0:
264,192,71885,6,0,P|304:224|360:244,1,99.9999999999999,4|0,0:0|1:1,0:0:0:0:
432,156,72541,2,0,P|392:124|336:104,1,99.9999999999999,2|0,0:0|1:1,0:0:0:0:
232,76,73197,1,2,0:0:0:0:
116,112,73525,1,0,1:1:0:0:
88,228,73853,2,0,P|80:280|88:328,1,100,2|0,0:0|1:0,0:0:0:0:
196,292,74508,6,0,B|300:260|300:260|360:296|392:256,2,200,2|2|2,0:0|0:0|0:0,0:0:0:0:
80,328,76148,1,0,1:1:0:0:
8,232,76475,2,0,P|40:192|92:176,1,99.9999999999999,2|0,0:0|1:1,0:0:0:0:
196,224,77131,6,0,P|236:192|252:140,1,99.9999999999999,4|0,0:0|1:1,0:0:0:0:
144,92,77787,2,0,P|176:52|228:35,1,99.9999999999999,2|0,0:0|1:1,0:0:0:0:
340,40,78443,1,2,0:0:0:0:
456,72,78771,1,0,1:1:0:0:
380,164,79098,1,2,0:0:0:0:
420,276,79426,1,0,1:1:0:0:
300,264,79754,6,0,P|260:292|204:296,2,99.9999999999999,2|0|2,0:0|1:1|0:0,0:0:0:0:
208,188,80738,1,0,1:1:0:0:
92,216,81066,2,0,P|96:164|116:120,1,100,6|0,0:0|1:1,0:0:0:0:
220,64,81721,2,0,L|244:20,2,50,6|0|0,0:0|0:0|1:1,0:0:0:0:
256,180,82377,6,0,P|300:164|356:156,1,100,4|0,0:0|0:0,0:0:0:0:
468,192,83033,2,0,P|484:236|492:292,1,100,2|0,0:0|0:0,0:0:0:0:
392,356,83689,2,0,P|348:364|288:344,1,99.9999999999999,2|0,0:0|0:0,0:0:0:0:
320,232,84344,2,0,P|276:224|216:244,1,99.9999999999999,2|0,0:0|0:0,0:0:0:0:
148,332,85000,6,0,P|44:312|0:236,1,200,4|2,0:0|0:0,0:0:0:0:
152,52,86312,2,0,P|256:72|300:148,1,200,2|2,0:0|0:0,0:0:0:0:
256,192,87623,12,0,90246,0:0:0:0:
