osu file format v12

[General]
AudioFilename: WWonder tale.mp3
AudioLeadIn: 0
PreviewTime: 61394
Countdown: 0
SampleSet: Soft
StackLeniency: 0.7
Mode: 0
LetterboxInBreaks: 0
WidescreenStoryboard: 0

[Editor]
DistanceSpacing: 1.2
BeatDivisor: 1
GridSize: 4

[Metadata]
Title:W:Wonder tale (TV Size)
TitleUnicode:W:Wonder tale (TV Size)
Artist:Tamura Yukari
ArtistUnicode:田村ゆかり
Creator:remy11
Version:Insane
Source:Ore no Kanojo to Osananajimi ga Shuraba Sugiru
Tags:ending oreshura
BeatmapID:234309
BeatmapSetID:85217

[Difficulty]
HPDrainRate:7
CircleSize:4
OverallDifficulty:7
ApproachRate:9
SliderMultiplier:2
SliderTickRate:2

[Events]
//Background and Video events
0,0,"kulSc3eIx510687D6.jpg",0,0
//Break Periods
//Storyboard Layer 0 (Background)
//Storyboard Layer 1 (Fail)
//Storyboard Layer 2 (Pass)
//Storyboard Layer 3 (Foreground)
//Storyboard Sound Samples
//Background Colour Transformations
3,100,163,162,255

[TimingPoints]
1151,379.746835443038,4,2,1,50,1,0
2670,-133.333333333333,4,2,1,50,0,0
7416,-100,4,2,1,15,0,0
8935,327.868852459016,4,2,1,60,1,0
18115,-100,4,2,1,30,0,0
19426,-100,4,2,1,60,0,0
26230,-100,4,2,2,60,0,0
26394,-100,4,2,1,60,0,0
28934,-100,4,2,1,5,0,0
29426,-100,4,2,1,60,0,0
39590,-117.647058823529,4,2,1,60,0,0
40738,-133.333333333333,4,2,1,60,0,0
51230,-100,4,2,1,60,0,0
61394,-100,4,2,1,70,0,1
87623,-133.333333333333,4,2,1,5,0,0

[Colours]
Combo1 : 128,128,255
Combo2 : 236,217,247
Combo3 : 255,148,40
Combo4 : 255,128,255

[HitObjects]
48,100,2670,2,0,P|116:80|196:76,1,150.000005722046,2|0,0:0|0:0,0:0:0:0:
224,160,3239,1,0,0:0:0:0:
256,244,3429,2,0,P|334:239|402:219,2,150.000005722046,2|0|2,0:0|0:0|0:0,0:0:0:0:
168,224,4378,1,0,0:0:0:0:
80,240,4568,2,0,L|16:192,1,75.0000028610231,2|0,0:0|0:0,0:0:0:0:
44,108,4948,2,0,L|108:156,1,75.0000028610231,2|0,0:0|0:0,0:0:0:0:
184,108,5328,2,0,L|260:108,1,75.0000028610231,0|2,0:0|0:0,0:0:0:0:
328,52,5707,6,0,P|404:64|456:120,1,150.000005722046,2|0,0:0|0:0,0:0:0:0:
452,204,6277,1,0,0:0:0:0:
508,276,6467,2,0,P|459:335|385:352,2,150.000005722046,2|2|2,0:0|0:0|0:0,0:0:0:0:
256,192,7416,12,0,8745,0:0:0:0:
168,136,9590,5,8,0:0:0:0:
156,152,9672,1,8,0:0:0:0:
144,168,9754,1,8,0:0:0:0:
132,184,9836,1,8,0:0:0:0:
120,200,9918,1,8,0:0:0:0:
108,216,10000,1,8,0:0:0:0:
96,232,10082,1,8,0:0:0:0:
84,248,10164,1,8,0:0:0:0:
72,264,10246,6,0,P|136:336|236:320,1,200,4|8,0:0|0:0,0:0:0:0:
268,208,10738,1,0,0:0:0:0:
356,292,10902,2,0,P|400:316|452:320,1,100,2|0,0:0|0:0,0:0:0:0:
480,196,11230,2,0,P|471:140|447:99,1,100,8|0,0:0|0:0,0:0:0:0:
352,32,11557,5,2,0:0:0:0:
256,104,11721,1,0,0:0:0:0:
140,68,11885,1,8,0:0:0:0:
140,68,11967,1,0,0:0:0:0:
140,68,12049,1,0,0:0:0:0:
68,164,12213,2,0,L|168:192,1,100,2|0,0:0|0:0,0:0:0:0:
280,228,12541,1,8,0:0:0:0:
280,228,12623,1,0,0:0:0:0:
280,228,12705,1,0,0:0:0:0:
424,268,12869,5,2,0:0:0:0:
480,128,13033,1,0,0:0:0:0:
364,32,13197,1,8,0:0:0:0:
220,80,13361,1,0,0:0:0:0:
116,140,13525,2,0,L|28:188,1,100,2|0,0:0|0:0,0:0:0:0:
28,308,13853,2,0,L|116:260,1,100,8|0,0:0|0:0,0:0:0:0:
220,200,14180,5,2,0:0:0:0:
256,344,14344,1,0,0:0:0:0:
332,252,14508,1,8,0:0:0:0:
368,368,14672,1,0,0:0:0:0:
368,368,14836,1,2,0:0:0:0:
280,288,15000,1,0,0:0:0:0:
352,192,15164,1,8,0:0:0:0:
256,120,15328,1,0,1:0:0:0:
160,196,15492,6,0,L|64:232,1,100,4|0,0:0|0:0,0:0:0:0:
32,348,15820,2,0,L|128:312,1,100,8|0,0:0|0:0,0:0:0:0:
192,80,16148,2,0,L|96:116,1,100,2|0,0:0|0:0,0:0:0:0:
256,264,16475,1,8,0:0:0:0:
396,212,16639,1,0,0:0:0:0:
292,104,16803,2,0,P|376:44|468:64,2,200,2|8|2,0:0|0:0|0:0,0:0:0:0:
292,104,17787,1,0,1:0:0:0:
256,192,18115,12,0,19262,0:0:0:0:
252,326,19426,6,0,L|356:326,1,100,6|0,0:0|0:0,0:0:0:0:
436,240,19754,2,0,L|332:240,1,100,8|0,0:0|0:0,0:0:0:0:
320,120,20082,2,0,L|393:46,2,100,2|0|8,0:0|0:0|0:0,0:0:0:0:
206,213,20574,1,0,0:0:0:0:
184,64,20738,5,2,0:0:0:0:
36,88,20902,1,0,0:0:0:0:
36,88,21066,1,8,0:0:0:0:
32,208,21230,2,0,P|20:260|24:308,1,100,0|2,0:0|0:0,0:0:0:0:
140,336,21557,1,0,0:0:0:0:
256,308,21721,1,8,0:0:0:0:
224,192,21885,5,0,0:0:0:0:
224,192,21967,1,0,0:0:0:0:
224,192,22049,2,0,P|288:128|392:144,1,200,2|8,0:0|0:0,0:0:0:0:
468,232,22541,1,0,0:0:0:0:
440,348,22705,1,2,0:0:0:0:
328,304,22869,2,0,L|240:352,2,100,0|8|0,0:0|0:0|0:0,0:0:0:0:
288,192,23361,6,0,L|184:192,1,100,2|0,0:0|0:0,0:0:0:0:
240,84,23689,2,0,L|152:36,1,100,8|0,0:0|0:0,0:0:0:0:
44,88,24016,1,2,0:0:0:0:
32,236,24180,1,0,0:0:0:0:
152,148,24344,1,8,0:0:0:0:
140,296,24508,1,0,0:0:0:0:
140,296,24590,1,0,0:0:0:0:
140,296,24672,2,0,P|236:328|328:292,1,200,4|8,0:0|0:0,0:0:0:0:
92,104,25328,6,0,P|44:112|4:144,2,100,2|0|8,0:0|0:0|0:0,0:0:0:0:
176,192,25820,1,0,0:0:0:0:
288,152,25984,1,2,0:0:0:0:
284,272,26148,2,0,P|344:344|444:332,1,200
396,220,26639,1,2,0:0:0:0:
472,88,26803,1,0,0:0:0:0:
328,44,26967,1,8,0:0:0:0:
248,172,27131,5,0,0:0:0:0:
248,172,27213,1,0,0:0:0:0:
248,172,27295,2,0,P|176:232|76:212,1,200,2|8,0:0|0:0,0:0:0:0:
28,76,27787,1,0,0:0:0:0:
140,36,27951,1,2,0:0:0:0:
252,76,28115,2,0,L|352:76,1,100,0|8,0:0|0:0,0:0:0:0:
444,152,28443,5,2,0:0:0:0:
444,152,28525,1,2,0:0:0:0:
444,152,28607,2,0,P|368:220|280:192,1,200,6|0,0:0|0:0,0:0:0:0:
282,194,29426,5,8,1:3:0:0:
164,332,29590,1,8,2:3:0:0:
84,104,29918,6,0,P|160:48|264:72,1,200,6|8,0:0|0:0,0:0:0:0:
336,160,30410,1,0,0:0:0:0:
456,160,30574,2,0,P|496:124|508:76,2,100,2|0|8,0:0|0:0|0:0,0:0:0:0:
380,256,31066,1,0,0:0:0:0:
504,340,31230,1,2,0:0:0:0:
356,356,31394,2,0,L|256:356,1,100,0|8,0:0|0:0,0:0:0:0:
156,244,31721,2,0,L|256:244,1,100,0|2,0:0|0:0,0:0:0:0:
64,312,32049,1,0,0:0:0:0:
28,164,32213,1,8,0:0:0:0:
108,76,32377,5,0,0:0:0:0:
108,76,32459,1,0,0:0:0:0:
108,76,32541,2,0,P|152:60|212:52,1,100,2|0,0:0|0:0,0:0:0:0:
256,160,32869,1,0,1:1:0:0:
428,192,33033,1,0,0:0:0:0:
356,96,33197,1,2,0:0:0:0:
328,256,33361,1,0,0:0:0:0:
256,160,33525,1,0,1:1:0:0:
184,256,33689,5,0,0:0:0:0:
184,256,33771,1,0,0:0:0:0:
184,256,33853,2,0,P|76:244|44:164,1,200,2|0,0:0|1:1,0:0:0:0:
132,48,34344,1,0,0:0:0:0:
252,48,34508,2,0,L|356:48,1,100,2|0,0:0|0:0,0:0:0:0:
292,188,34836,1,0,1:1:0:0:
444,188,35000,1,0,0:0:0:0:
368,316,35164,6,0,P|404:344|456:356,2,100,2|0|0,0:0|0:0|1:1,0:0:0:0:
256,272,35656,1,0,0:0:0:0:
148,328,35820,2,0,P|56:288|16:200,1,200,2|0,0:0|1:0,0:0:0:0:
92,108,36312,1,0,0:0:0:0:
184,32,36475,2,0,P|276:72|316:160,1,200,2|0,0:0|1:0,0:0:0:0:
315,158,36967,1,0,0:0:0:0:
256,264,37131,5,2,0:0:0:0:
376,264,37295,1,0,0:0:0:0:
316,368,37459,2,0,L|212:368,1,100,0|0,1:0|0:0,0:0:0:0:
100,332,37787,1,2,0:0:0:0:
100,332,37951,1,0,0:0:0:0:
44,228,38115,6,0,P|56:180|84:136,1,100,0|0,1:1|0:0,0:0:0:0:
204,148,38443,2,0,P|192:100|164:56,1,100,2|0,0:0|0:0,0:0:0:0:
284,32,38771,2,0,P|384:36|480:72,1,200,0|0,1:0|1:0,0:0:0:0:
396,232,39262,1,0,1:1:0:0:
100,312,39590,6,0,P|172:356|256:348,1,170.000003242493,8|8,1:3|1:3,0:0:0:0:
328,276,40082,2,0,P|256:232|172:240,1,170.000003242493,8|4,2:3|0:0,0:0:0:0:
64,96,40738,6,0,P|128:56|200:48,2,150.000005722046,0|0|0,0:0|1:1|0:0,0:0:0:0:
36,180,41557,2,0,P|100:220|172:228,1,150.000005722046,0|0,0:0|0:1,0:0:0:0:
172,227,42049,1,0,0:0:0:0:
348,192,42377,6,0,P|388:256|396:328,2,150.000005722046,0|0|0,1:1|0:0|0:0,0:0:0:0:
256,36,43361,1,0,0:0:0:0:
104,136,43689,2,0,P|48:184|36:260,1,150.000005722046,0|0,1:1|0:0,0:0:0:0:
212,292,44344,6,0,P|192:328|164:348,2,75.0000028610231,2|2|0,0:0|0:0|0:0,0:0:0:0:
268,220,44836,2,0,P|344:232|388:292,2,150.000005722046,2|2|2,0:0|0:0|0:0,0:0:0:0:
268,220,45574,1,0,0:0:0:0:
268,220,45656,1,4,0:0:0:0:
172,68,45984,6,0,P|248:52|320:52,1,150.000005722046,0|0,0:0|1:1,0:0:0:0:
468,156,46639,1,0,0:0:0:0:
444,244,46803,6,0,P|368:260|296:260,1,150.000005722046,0|0,0:0|0:1,0:0:0:0:
224,208,47295,2,0,P|150:232|87:268,2,150.000005722046,0|0|0,0:0|1:1|0:0,0:0:0:0:
312,180,48115,1,0,0:0:0:0:
360,104,48279,6,0,P|296:64|224:64,1,150.000005722046
192,300,48934,2,0,P|256:340|328:340,1,150.000005722046,0|0,1:1|0:0,0:0:0:0:
384,268,49426,1,0,0:0:0:0:
432,192,49590,5,2,0:0:0:0:
432,192,49754,1,2,0:0:0:0:
252,192,50082,2,0,L|100:192,2,150.000005722046,2|2|2,0:0|0:0|0:0,0:0:0:0:
252,192,50820,1,0,0:0:0:0:
252,192,50902,1,4,0:0:0:0:
44,72,51230,6,0,P|80:44|136:24,1,100,0|0,1:0|0:0,0:0:0:0:
252,24,51557,2,0,P|288:52|344:72,1,100,2|0,0:0|0:0,0:0:0:0:
452,32,51885,1,0,1:0:0:0:
452,32,52049,2,0,P|516:96|504:200,1,200,0|0,0:0|0:0,0:0:0:0:
384,212,52541,1,0,1:0:0:0:
432,324,52705,1,0,0:0:0:0:
312,336,52869,1,2,0:0:0:0:
192,332,53033,6,0,P|144:352|96:360,2,100,0|0|0,0:0|1:0|0:0,0:0:0:0:
216,212,53525,2,0,P|164:136|60:124,1,200,2|0,0:0|1:0,0:0:0:0:
36,272,54016,1,0,0:0:0:0:
136,340,54180,2,0,P|237:327|289:251,1,200,2|0,0:0|1:0,0:0:0:0:
224,116,54672,1,0,0:0:0:0:
132,40,54836,2,0,L|32:40,2,100,4|0|0,0:0|0:0|1:0,0:0:0:0:
252,40,55328,2,0,B|352:40|352:40|320:84|336:140,1,200,6|0,0:0|0:0,0:0:0:0:
334,135,55738,1,0,0:0:0:0:
334,135,55820,1,0,1:2:0:0:
432,208,55984,5,0,0:0:0:0:
432,208,56066,1,0,0:0:0:0:
432,208,56148,2,0,P|412:312|328:336,1,200,4|0,0:0|1:1,0:0:0:0:
212,344,56639,2,0,P|164:356|116:336,1,100
180,200,56967,1,0,0:0:0:0:
36,152,57131,2,0,P|92:64|184:56,1,200,0|0,1:0|0:0,0:0:0:0:
180,54,57623,1,0,0:0:0:0:
288,160,57787,5,0,1:1:0:0:
288,160,57951,1,0,0:0:0:0:
428,108,58115,1,0,0:0:0:0:
428,108,58279,1,0,0:0:0:0:
436,288,58443,2,0,L|460:332,2,50,0|0|0,1:1|0:0|0:0,0:0:0:0:
316,284,58771,6,0,L|216:284,1,100,6|0,0:0|0:0,0:0:0:0:
200,84,59098,2,0,L|300:84,1,100,0|0,1:1|0:0,0:0:0:0:
132,192,59426,1,6,0:0:0:0:
132,192,59590,1,0,0:0:0:0:
380,192,59754,1,0,1:1:0:0:
380,192,59918,1,0,0:0:0:0:
256,108,60082,5,6,0:0:0:0:
256,228,60246,1,0,0:0:0:0:
256,228,60328,1,0,0:0:0:0:
256,228,60410,2,0,B|256:280|256:280|216:308,1,100,0|0,1:1|0:0,0:0:0:0:
96,308,60738,5,6,0:0:0:0:
92,280,60820,1,0,0:0:0:0:
88,252,60902,1,0,0:0:0:0:
84,224,60984,1,0,0:0:0:0:
80,196,61066,1,10,0:0:0:0:
76,168,61148,1,0,0:0:0:0:
72,140,61230,1,0,0:0:0:0:
68,112,61312,1,0,0:0:0:0:
64,84,61394,6,0,P|108:56|156:44,1,100,6|0,0:0|0:0,0:0:0:0:
180,160,61721,2,0,P|225:148|269:120,1,100,0|2,1:1|0:0,0:0:0:0:
356,40,62049,1,2,0:0:0:0:
476,40,62213,1,0,0:0:0:0:
416,144,62377,1,0,1:1:0:0:
492,276,62541,1,0,0:0:0:0:
340,276,62705,6,0,L|248:316,1,100,2|0,0:0|0:0,0:0:0:0:
240,196,63033,2,0,L|148:236,1,100,0|2,1:1|0:0,0:0:0:0:
40,136,63361,1,2,0:0:0:0:
152,36,63525,1,0,0:0:0:0:
292,92,63689,1,0,1:1:0:0:
440,60,63853,5,0,0:0:0:0:
440,60,63934,1,0,0:0:0:0:
440,60,64016,2,0,P|496:148|480:240,1,200,2|0,0:0|1:1,0:0:0:0:
372,340,64508,1,2,0:0:0:0:
256,304,64672,1,2,0:0:0:0:
140,340,64836,1,0,0:0:0:0:
140,340,64918,1,0,0:0:0:0:
140,340,65000,2,0,P|88:336|48:308,1,100,0|0,1:1|0:0,0:0:0:0:
28,192,65328,5,2,0:0:0:0:
180,192,65492,1,2,0:0:0:0:
28,92,65656,1,10,0:0:0:0:
104,256,65820,1,2,0:0:0:0:
180,92,65984,2,0,L|280:92,1,100,2|0,0:0|0:0,0:0:0:0:
400,92,66312,1,0,1:1:0:0:
464,192,66475,5,0,0:0:0:0:
464,192,66557,1,0,0:0:0:0:
464,192,66639,2,0,P|456:284|364:312,1,200,6|0,0:0|1:1,0:0:0:0:
256,260,67131,1,2,0:0:0:0:
352,192,67295,1,2,0:0:0:0:
256,120,67459,1,0,0:0:0:0:
160,192,67623,1,0,1:1:0:0:
160,192,67787,1,0,0:0:0:0:
40,192,67951,6,0,B|20:92|20:92|104:36,1,200,2|0,0:0|1:1,0:0:0:0:
101,37,68443,1,2,0:0:0:0:
224,36,68607,2,0,L|328:36,1,100,2|0,0:0|0:0,0:0:0:0:
408,160,68934,2,0,L|304:160,1,100,0|0,1:1|0:0,0:0:0:0:
228,288,69262,5,2,0:0:0:0:
228,288,69426,1,0,0:0:0:0:
92,224,69590,1,0,1:1:0:0:
92,224,69754,1,2,0:0:0:0:
132,80,69918,2,0,L|224:36,1,100,2|0,0:0|0:0,0:0:0:0:
404,56,70246,2,0,L|312:100,1,100,0|0,1:1|0:0,0:0:0:0:
204,152,70574,5,6,0:0:0:0:
380,192,70738,1,0,0:0:0:0:
268,232,70902,1,0,1:1:0:0:
268,232,70984,1,0,0:0:0:0:
268,232,71066,1,0,0:0:0:0:
300,348,71230,2,0,P|248:348|200:332,1,100,6|0,0:0|0:0,0:0:0:0:
84,328,71557,2,0,L|52:368,2,50,0|0|0,1:0|0:0|0:0,0:0:0:0:
20,228,71885,6,0,P|40:136|124:64,1,200,6|0,0:0|1:1,0:0:0:0:
236,80,72377,1,2,0:0:0:0:
356,138,72541,1,2,0:0:0:0:
338,270,72705,1,0,0:0:0:0:
206,294,72869,1,0,1:1:0:0:
143,176,73033,1,0,0:0:0:0:
236,80,73197,6,0,P|276:48|324:36,1,100,2|0,0:0|0:0,0:0:0:0:
440,56,73525,2,0,P|472:96|484:144,1,100,0|2,1:1|0:0,0:0:0:0:
400,228,73853,2,0,P|440:260|488:272,2,100,2|0|0,0:0|0:0|1:1,0:0:0:0:
316,144,74344,5,0,0:0:0:0:
316,144,74426,1,0,0:0:0:0:
316,144,74508,2,0,P|224:104|124:112,1,200,2|0,0:0|1:1,0:0:0:0:
36,192,75000,1,2,0:0:0:0:
28,312,75164,2,0,P|64:348|112:364,1,100,2|0,0:0|0:0,0:0:0:0:
284,264,75492,2,0,P|248:228|200:212,1,100,10|0,0:0|0:0,0:0:0:0:
208,332,75820,5,2,0:0:0:0:
384,364,75984,1,2,0:0:0:0:
476,288,76148,1,10,0:0:0:0:
476,288,76230,1,0,0:0:0:0:
476,288,76312,1,2,0:0:0:0:
468,168,76475,2,0,P|432:80|336:44,1,200,2|0,0:0|1:1,0:0:0:0:
256,132,76967,5,0,0:0:0:0:
256,132,77131,2,0,P|168:92|64:108,1,200,6|0,0:0|1:1,0:0:0:0:
28,220,77623,1,2,0:0:0:0:
80,328,77787,2,0,L|180:328,1,100,2|0,0:0|0:0,0:0:0:0:
332,220,78115,2,0,L|232:220,1,100,0|0,1:1|0:0,0:0:0:0:
384,112,78443,5,2,0:0:0:0:
488,220,78607,1,0,0:0:0:0:
436,360,78771,1,0,1:1:0:0:
332,252,78934,1,2,0:0:0:0:
232,364,79098,2,0,P|184:380|136:376,2,100,2|0|0,0:0|0:0|1:1,0:0:0:0:
232,364,79590,1,0,0:0:0:0:
240,244,79754,6,0,P|192:164|88:152,1,200,2|0,0:0|1:1,0:0:0:0:
92,252,80246,1,2,0:0:0:0:
92,252,80410,2,0,P|172:204|184:100,1,200,2|0,0:0|1:1,0:0:0:0:
280,32,80902,1,0,0:0:0:0:
280,32,81066,6,0,L|380:32,1,100,6|0,0:0|0:0,0:0:0:0:
476,104,81394,1,0,1:1:0:0:
476,104,81475,1,0,0:0:0:0:
476,104,81557,1,0,0:0:0:0:
356,120,81721,1,6,0:0:0:0:
476,212,81885,1,0,0:0:0:0:
356,232,82049,1,0,1:1:0:0:
356,232,82131,1,0,0:0:0:0:
356,232,82213,1,0,0:0:0:0:
244,188,82377,6,0,B|196:96|196:96|144:76|104:120,1,200,4|0,0:0|1:1,0:0:0:0:
52,224,82869,1,0,0:0:0:0:
84,340,83033,2,0,P|136:360|180:364,1,100,2|0,0:0|0:0,0:0:0:0:
332,232,83361,2,0,P|288:236|236:256,1,100,0|0,1:1|0:0,0:0:0:0:
420,336,83689,5,2,0:0:0:0:
500,244,83853,1,0,0:0:0:0:
448,136,84016,1,0,1:1:0:0:
328,116,84180,1,0,0:0:0:0:
272,224,84344,2,0,L|296:276,2,50,2|0|0,0:0|0:0|0:0,0:0:0:0:
172,156,84672,2,0,L|148:104,2,50,0|0|0,1:1|0:0|0:0,0:0:0:0:
156,276,85000,6,0,L|256:276,1,100,4|0,0:0|0:0,0:0:0:0:
344,192,85328,2,0,L|244:192,1,100,0|0,1:1|0:0,0:0:0:0:
200,336,85656,2,0,L|300:336,1,100,2|0,0:0|0:0,0:0:0:0:
300,132,85984,2,0,L|200:132,1,100,0|0,1:1|0:0,0:0:0:0:
348,336,86312,5,0,1:1:0:0:
348,336,86475,2,0,P|388:248|356:152,1,200,0|0,1:1|1:1,0:0:0:0:
256,44,86967,1,8,1:3:0:0:
132,128,87131,1,8,2:3:0:0:
220,248,87295,1,8,2:3:0:0:
256,192,87623,12,0,90246,0:0:0:0:
