osu file format v12

[General]
AudioFilename: WWonder tale.mp3
AudioLeadIn: 0
PreviewTime: 61394
Countdown: 0
SampleSet: Soft
StackLeniency: 0.7
Mode: 0
LetterboxInBreaks: 0
WidescreenStoryboard: 0

[Editor]
DistanceSpacing: 1.2
BeatDivisor: 4
GridSize: 4

[Metadata]
Title:W:Wonder tale (TV Size)
TitleUnicode:W:Wonder tale (TV Size)
Artist:Tamura Yukari
ArtistUnicode:田村ゆかり
Creator:remy11
Version:Hard
Source:Ore no Kanojo to Osananajimi ga Shuraba Sugiru
Tags:ending oreshura
BeatmapID:234512
BeatmapSetID:85217

[Difficulty]
HPDrainRate:6
CircleSize:4
OverallDifficulty:6
ApproachRate:7
SliderMultiplier:1.4
SliderTickRate:2

[Events]
//Background and Video events
0,0,"kulSc3eIx510687D6.jpg",0,0
//Break Periods
//Storyboard Layer 0 (Background)
//Storyboard Layer 1 (Fail)
//Storyboard Layer 2 (Pass)
//Storyboard Layer 3 (Foreground)
//Storyboard Sound Samples
//Background Colour Transformations
3,100,163,162,255

[TimingPoints]
1151,379.746835443038,4,2,1,50,1,0
2670,-133.333333333333,4,2,1,50,0,0
7226,-100,4,2,1,15,0,0
8935,327.868852459016,4,2,1,60,1,0
18115,-100,4,2,1,15,0,0
20082,-100,4,2,1,50,0,0
28934,-100,4,2,1,15,0,0
29426,-100,4,2,1,60,0,0
40738,-133.333333333333,4,2,1,50,0,0
51230,-100,4,2,1,60,0,0
61394,-100,4,2,1,70,0,1
87623,-133.333333333333,4,2,1,5,0,0

[Colours]
Combo1 : 128,128,255
Combo2 : 236,217,247
Combo3 : 255,148,40
Combo4 : 255,128,255

[HitObjects]
76,120,2670,2,0,P|128:96|188:88,1,105.000004005432,2|0,0:0|0:0,0:0:0:0:
288,140,3429,2,0,P|312:88|320:28,2,105.000004005432,2|0|2,0:0|0:0|0:0,0:0:0:0:
116,324,4948,5,0,0:0:0:0:
204,236,5328,1,0,0:0:0:0:
312,304,5707,1,2,0:0:0:0:
400,216,6087,1,0,0:0:0:0:
488,128,6467,2,0,P|452:88|404:72,1,105.000004005432,2|2,0:0|0:0,0:0:0:0:
256,192,7226,12,0,8745,0:0:0:0:
104,192,9590,6,0,L|144:172,3,35,0|0|0|0,1:0|1:0|1:0|1:0,0:0:0:0:
148,136,9918,2,0,L|188:116,3,35,0|0|0|0,1:0|1:0|1:0|1:0,0:0:0:0:
192,80,10246,6,0,P|256:60|332:64,1,140,4|0,0:0|1:0,0:0:0:0:
404,104,10738,1,0,0:0:0:0:
476,148,10902,2,0,P|496:212|492:288,1,140,2|0,0:0|1:0,0:0:0:0:
328,320,11557,5,2,0:0:0:0:
328,320,11721,1,0,0:0:0:0:
248,300,11885,1,0,1:0:0:0:
248,300,12049,1,0,0:0:0:0:
176,344,12213,2,0,L|100:344,1,70,2|0,0:0|0:0,0:0:0:0:
20,344,12541,1,0,1:0:0:0:
20,176,12869,6,0,P|72:128|140:116,1,140,2|0,0:0|1:0,0:0:0:0:
128,196,13361,1,0,0:0:0:0:
100,280,13525,2,0,P|152:328|219:341,1,140,2|0,0:0|1:0,0:0:0:0:
336,220,14180,6,0,L|404:252,1,70,2|0,0:0|0:0,0:0:0:0:
476,284,14508,1,0,1:0:0:0:
476,284,14672,1,0,0:0:0:0:
360,332,14836,2,0,L|280:332,1,70,2|0,0:0|0:0,0:0:0:0:
204,332,15164,1,0,1:0:0:0:
204,332,15328,1,0,1:0:0:0:
100,260,15492,6,0,P|112:192|164:148,1,140,4|0,0:0|1:0,0:0:0:0:
372,124,16148,2,0,P|360:192|308:236,1,140,2|0,0:0|1:0,0:0:0:0:
112,156,16803,1,2,0:0:0:0:
256,308,17131,1,0,1:0:0:0:
432,192,17459,1,2,0:0:0:0:
352,172,17623,2,0,L|280:156,2,70,0|0|0,0:0|1:0|0:0,0:0:0:0:
256,192,18115,12,4,19426,0:0:0:0:
100,100,20082,6,0,P|64:88|36:68,2,70,2|0|0,0:0|0:0|1:0,0:0:0:0:
184,112,20574,1,0,0:0:0:0:
256,72,20738,2,0,L|328:72,1,70,2|0,0:0|0:0,0:0:0:0:
436,160,21066,2,0,L|364:160,1,70,0|0,1:0|0:0,0:0:0:0:
256,248,21394,2,0,L|328:248,1,70,2|0,0:0|0:0,0:0:0:0:
328,332,21721,1,0,1:0:0:0:
256,376,21885,1,0,0:0:0:0:
176,352,22049,6,0,L|100:332,1,70,2|0,0:0|0:0,0:0:0:0:
120,228,22377,2,0,L|196:248,1,70,0|0,1:0|0:0,0:0:0:0:
292,244,22705,2,0,L|368:244,2,70,2|0|0,0:0|0:0|1:0,0:0:0:0:
248,172,23197,6,0,P|275:114|340:67,1,140,2|0,0:0|0:0,0:0:0:0:
412,36,23689,1,0,1:0:0:0:
488,68,23853,2,0,P|460:125|395:172,1,140,2|0,0:0|0:0,0:0:0:0:
320,192,24344,1,0,1:0:0:0:
152,192,24672,1,4,0:0:0:0:
348,112,25000,1,0,1:0:0:0:
492,192,25328,6,0,L|516:120,2,70,2|0|0,0:0|0:0|1:0,0:0:0:0:
464,272,25820,1,0,0:0:0:0:
424,344,25984,2,0,P|352:352|280:336,1,140,2|0,0:0|1:0,0:0:0:0:
228,276,26475,1,0,0:0:0:0:
144,288,26639,1,2,0:0:0:0:
92,220,26803,6,0,P|56:212|20:192,2,70,0|0|0,0:0|1:0|0:0,0:0:0:0:
128,144,27295,2,0,P|188:100|256:92,1,140,2|0,0:0|1:0,0:0:0:0:
348,132,27787,1,0,0:0:0:0:
440,180,27951,2,0,P|428:253|388:308,1,140,2|0,0:0|1:0,0:0:0:0:
308,308,28443,1,0,0:0:0:0:
308,308,28607,2,0,L|164:308,1,140,4|0,0:0|0:0,0:0:0:0:
84,72,29426,5,8,1:3:0:0:
124,192,29590,1,8,2:3:0:0:
124,192,29918,6,0,P|196:208|256:184,1,140,4|0,0:0|1:0,0:0:0:0:
328,140,30410,1,0,0:0:0:0:
400,100,30574,2,0,L|472:84,1,70,2|0,0:0|0:0,0:0:0:0:
504,160,30902,2,0,L|432:176,1,70,0|0,1:0|0:0,0:0:0:0:
440,260,31230,6,0,P|416:320|348:348,1,140,2|0,0:0|1:1,0:0:0:0:
276,272,31721,1,0,0:0:0:0:
208,192,31885,2,0,P|148:216|120:284,1,140,2|0,0:0|1:1,0:0:0:0:
128,368,32377,1,0,0:0:0:0:
212,368,32541,2,0,L|276:332,1,70,2|0,0:0|0:0,0:0:0:0:
344,288,32869,1,0,1:1:0:0:
404,228,33033,6,0,P|400:156|356:104,1,140,2|0,0:0|0:0,0:0:0:0:
288,60,33525,1,0,1:0:0:0:
208,36,33689,2,0,P|136:40|80:76,1,140,2|0,0:0|0:0,0:0:0:0:
92,160,34180,1,0,1:1:0:0:
92,160,34344,2,0,P|96:232|72:296,1,140
28,364,34836,1,0,1:1:0:0:
228,304,35164,6,0,P|288:264|360:248,1,140,2|0,0:0|1:1,0:0:0:0:
432,188,35656,2,0,P|372:148|300:132,1,140
224,124,36148,1,0,1:1:0:0:
156,172,36312,1,0,0:0:0:0:
100,236,36475,6,0,P|64:240|32:256,2,70,2|0|0,0:0|0:0|1:1,0:0:0:0:
152,304,36967,1,0,0:0:0:0:
208,368,37131,2,0,P|248:364|280:352,1,70,2|0,0:0|0:0,0:0:0:0:
356,328,37459,1,0,1:0:0:0:
440,312,37623,1,0,0:0:0:0:
464,232,37787,6,0,P|464:196|452:160,1,70,2|0,0:0|0:0,0:0:0:0:
420,88,38115,1,0,1:1:0:0:
420,88,38279,1,0,0:0:0:0:
336,88,38443,2,0,P|296:92|260:104,1,70,2|0,0:0|0:0,0:0:0:0:
188,132,38771,2,0,P|164:164|136:189,1,70,0|0,1:0|0:0,0:0:0:0:
92,252,39098,5,0,1:1:0:0:
108,336,39262,2,0,P|144:348|184:348,1,70,0|0,1:1|0:0,0:0:0:0:
260,336,39590,2,0,P|328:328|388:288,1,140,8|8,1:3|2:3,0:0:0:0:
416,208,40082,2,0,P|348:216|288:256,1,140,8|4,2:3|0:0,0:0:0:0:
164,232,40738,6,0,P|124:196|112:140,2,105.000004005432,0|0|0,0:0|1:0|0:0,0:0:0:0:
288,248,41721,2,0,P|320:208|332:156,1,105.000004005432,0|0,0:0|0:0,0:0:0:0:
352,32,42377,2,0,P|404:44|444:76,1,105.000004005432,0|0,1:0|0:0,0:0:0:0:
492,192,43033,5,0,0:0:0:0:
400,280,43361,1,0,0:0:0:0:
368,160,43689,1,0,1:0:0:0:
280,248,44016,1,0,0:0:0:0:
168,192,44344,6,0,L|112:192,2,52.5000020027161,2|2|0,0:0|0:0|0:0,0:0:0:0:
232,192,44836,2,0,L|340:192,2,105.000004005432,2|2|2,0:0|0:0|0:0,0:0:0:0:
232,192,45656,1,4,0:0:0:0:
232,320,45984,6,0,P|268:356|320:368,1,105.000004005432,0|0,0:0|1:0,0:0:0:0:
436,320,46639,1,0,0:0:0:0:
436,320,46803,2,0,P|435:269|407:223,1,105.000004005432,0|0,0:0|0:0,0:0:0:0:
392,168,47295,6,0,P|356:132|304:120,2,105.000004005432,0|0|0,0:0|1:0|0:0,0:0:0:0:
416,224,48115,1,0,0:0:0:0:
352,224,48279,6,0,L|244:224,1,105.000004005432
256,348,48934,2,0,L|148:348,1,105.000004005432,0|0,1:0|0:0,0:0:0:0:
72,248,49590,5,2,0:0:0:0:
72,248,49754,1,2,0:0:0:0:
96,124,50082,2,0,P|80:72|40:40,2,105.000004005432,2|2|2,0:0|0:0|0:0,0:0:0:0:
116,184,50902,1,4,0:0:0:0:
212,320,51230,6,0,P|280:336|352:304,1,140,0|2,1:0|0:0,0:0:0:0:
400,156,51885,1,0,1:0:0:0:
400,156,52049,1,0,0:0:0:0:
364,80,52213,2,0,L|288:92,1,70,2|0,0:0|0:0,0:0:0:0:
220,52,52541,2,0,L|144:64,1,70,0|0,1:0|0:0,0:0:0:0:
104,132,52869,1,2,0:0:0:0:
104,216,53033,6,0,L|36:240,2,70,0|0|0,0:0|1:0|0:0,0:0:0:0:
184,192,53525,2,0,P|216:128|288:100,1,140,2|0,0:0|1:0,0:0:0:0:
464,196,54180,2,0,P|432:260|360:288,1,140,2|0,0:0|1:0,0:0:0:0:
212,344,54836,6,0,L|136:344,2,70,4|0|0,0:0|0:0|1:0,0:0:0:0:
296,344,55328,2,0,P|368:360|428:328,1,140,4|0,0:0|0:0,0:0:0:0:
424,331,55820,1,0,1:0:0:0:
476,172,56148,6,0,P|464:104|412:52,1,140,4|0,0:0|1:1,0:0:0:0:
324,104,56639,2,0,P|256:92|204:40,1,140,0|0,0:0|0:0,0:0:0:0:
120,40,57131,1,0,1:1:0:0:
44,192,57459,6,0,P|56:224|80:256,1,70,2|0,0:0|0:0,0:0:0:0:
160,232,57787,2,0,P|192:244|224:268,1,70,0|0,1:1|0:0,0:0:0:0:
288,316,58115,2,0,L|360:316,1,70,2|0,0:0|0:0,0:0:0:0:
444,316,58443,1,0,1:1:0:0:
472,108,58771,6,0,P|428:52|356:32,1,140,6|0,0:0|1:1,0:0:0:0:
172,116,59426,2,0,P|216:172|288:192,1,140,6|0,0:0|1:1,0:0:0:0:
448,192,60082,5,6,0:0:0:0:
416,268,60246,2,0,L|448:292,2,35,0|0|0,1:0|1:0|1:1,0:0:0:0:
340,300,60574,1,0,0:0:0:0:
260,280,60738,2,0,P|188:260|124:260,1,140,6|0,0:0|1:1,0:0:0:0:
76,56,61394,6,0,P|112:44|148:44,1,70,4|0,0:0|0:0,0:0:0:0:
184,140,61721,2,0,P|220:152|256:152,1,70,0|2,1:1|0:0,0:0:0:0:
356,148,62049,1,2,0:0:0:0:
356,148,62213,1,0,0:0:0:0:
452,192,62377,1,0,1:1:0:0:
452,192,62541,1,0,0:0:0:0:
496,264,62705,2,0,P|460:284|428:288,1,70,2|0,0:0|0:0,0:0:0:0:
384,356,63033,2,0,P|342:355|313:342,1,70,0|2,1:0|0:0,0:0:0:0:
272,272,63361,6,0,P|224:228|152:220,1,140,2|0,0:0|1:1,0:0:0:0:
68,232,63853,1,0,0:0:0:0:
96,152,64016,2,0,P|144:108|216:100,1,140,2|0,0:0|1:1,0:0:0:0:
300,120,64508,1,2,0:0:0:0:
356,180,64672,2,0,L|432:180,1,70,2|0,0:0|0:0,0:0:0:0:
468,256,65000,2,0,L|392:256,1,70,0|0,1:0|0:0,0:0:0:0:
416,340,65328,2,0,P|352:376|288:348,1,140,2|0,0:0|1:1,0:0:0:0:
204,300,65820,1,2,0:0:0:0:
116,240,65984,5,2,0:0:0:0:
152,32,66312,1,0,1:1:0:0:
360,60,66639,2,0,P|424:88|464:148,1,140,6|0,0:0|1:1,0:0:0:0:
388,188,67131,1,2,0:0:0:0:
308,208,67295,2,0,P|268:220|236:236,1,70,2|0,0:0|0:0,0:0:0:0:
160,240,67623,2,0,P|172:200|188:168,1,70,0|0,1:0|0:0,0:0:0:0:
212,96,67951,6,0,P|156:52|88:64,2,140,2|0|2,0:0|1:1|0:0,0:0:0:0:
288,292,68934,1,0,1:0:0:0:
420,132,69262,6,0,P|444:160|460:192,1,70,2|0,0:0|0:0,0:0:0:0:
492,268,69590,1,0,1:1:0:0:
492,268,69754,1,2,0:0:0:0:
440,332,69918,2,0,P|372:360|308:340,1,140,2|0,0:0|1:1,0:0:0:0:
244,288,70410,1,0,0:0:0:0:
188,224,70574,6,0,L|116:224,1,70,6|0,0:0|0:0,0:0:0:0:
44,148,70902,1,0,1:0:0:0:
44,148,70984,1,0,0:0:0:0:
44,148,71066,1,0,0:0:0:0:
132,88,71230,2,0,L|204:88,1,70,6|0,0:0|0:0,0:0:0:0:
304,120,71558,2,0,L|348:120,2,35,0|0|0,1:1|0:0|0:0,0:0:0:0:
276,200,71885,6,0,P|304:256|384:284,1,140,6|0,0:0|1:1,0:0:0:0:
376,180,72377,1,2,0:0:0:0:
380,76,72541,2,0,P|436:104|464:184,2,140,2|0|2,0:0|1:1|0:0,0:0:0:0:
296,64,73361,1,0,0:0:0:0:
212,64,73525,2,0,L|140:64,1,70,0|2,1:0|0:0,0:0:0:0:
56,64,73853,6,0,P|52:132|92:192,1,140,2|0,0:0|1:1,0:0:0:0:
188,156,74344,1,0,0:0:0:0:
288,124,74508,2,0,P|292:192|252:252,1,140,2|0,0:0|1:1,0:0:0:0:
180,324,75000,5,2,0:0:0:0:
280,360,75164,2,0,P|316:372|356:372,1,70,2|0,0:0|0:0,0:0:0:0:
340,268,75492,2,0,P|365:239|399:219,1,70,0|0,1:0|0:0,0:0:0:0:
492,192,75820,2,0,P|500:112|464:56,1,140,2|0,0:0|1:1,0:0:0:0:
388,44,76312,1,2,0:0:0:0:
304,36,76475,6,0,P|268:36|232:44,1,70,2|0,0:0|0:0,0:0:0:0:
212,148,76803,2,0,P|176:148|140:140,1,70,0|0,1:1|0:0,0:0:0:0:
48,92,77131,6,0,P|16:148|28:224,1,140,4|0,0:0|1:1,0:0:0:0:
132,208,77623,1,2,0:0:0:0:
236,192,77787,2,0,P|268:248|256:324,1,140,2|0,0:0|1:1,0:0:0:0:
152,308,78279,1,0,0:0:0:0:
52,284,78443,6,0,P|28:256|12:220,1,70,2|0,0:0|0:0,0:0:0:0:
92,192,78771,2,0,P|116:164|132:128,1,70,0|2,1:1|0:0,0:0:0:0:
152,52,79098,2,0,P|224:60|272:108,1,140,2|0,0:0|1:1,0:0:0:0:
312,180,79590,1,0,0:0:0:0:
240,256,79754,6,0,L|312:256,1,70,2|0,0:0|0:0,0:0:0:0:
240,336,80082,2,0,L|168:336,1,70,0|2,1:0|0:0,0:0:0:0:
88,312,80410,2,0,P|48:256|40:180,1,140,2|0,0:0|1:0,0:0:0:0:
39,186,80902,1,0,0:0:0:0:
48,104,81066,6,0,P|88:88|124:80,1,70,6|0,0:0|0:0,0:0:0:0:
196,60,81394,1,0,1:1:0:0:
196,60,81475,1,0,0:0:0:0:
196,60,81557,1,0,0:0:0:0:
240,132,81721,6,0,P|280:148|316:156,1,70,6|0,0:0|0:0,0:0:0:0:
388,176,82049,2,0,L|424:148,2,35,0|0|0,1:1|0:0|0:0,0:0:0:0:
324,228,82377,6,0,P|276:272|200:288,1,140,4|0,0:0|1:1,0:0:0:0:
152,196,82869,1,0,0:0:0:0:
128,92,83033,2,0,P|176:48|252:32,1,140,2|0,0:0|1:1,0:0:0:0:
332,32,83525,1,0,0:0:0:0:
416,36,83689,6,0,P|452:52|476:72,1,70,2|0,0:0|0:0,0:0:0:0:
428,140,84016,2,0,P|392:156|368:176,1,70,0|0,1:1|0:0,0:0:0:0:
392,256,84344,2,0,P|428:272|452:292,2,70,2|0|0,0:0|0:0|1:1,0:0:0:0:
320,300,84836,1,0,0:0:0:0:
248,344,85000,6,0,P|176:336|124:292,1,140,4|0,0:0|1:1,0:0:0:0:
148,192,85492,1,0,0:0:0:0:
188,96,85656,2,0,P|260:104|312:148,1,140,2|0,0:0|1:1,0:0:0:0:
364,208,86148,1,0,0:0:0:0:
416,276,86312,5,0,1:0:0:0:
416,276,86475,2,0,P|348:316|284:320,1,140,0|0,1:1|1:3,1:1:0:0:
200,264,86967,2,0,P|188:228|188:192,2,70,8|8|8,1:3|2:3|2:3,1:1:0:0:
256,192,87623,12,0,90246,0:0:0:0:
