osu file format v12

[General]
AudioFilename: WWonder tale.mp3
AudioLeadIn: 0
PreviewTime: 61394
Countdown: 0
SampleSet: Soft
StackLeniency: 0.7
Mode: 0
LetterboxInBreaks: 0
WidescreenStoryboard: 0

[Editor]
DistanceSpacing: 1.2
BeatDivisor: 4
GridSize: 4

[Metadata]
Title:W:Wonder tale (TV Size)
TitleUnicode:W:Wonder tale (TV Size)
Artist:Tamura Yukari
ArtistUnicode:田村ゆかり
Creator:remy11
Version:Easy
Source:Ore no Kanojo to Osananajimi ga Shuraba Sugiru
Tags:ending oreshura
BeatmapID:234450
BeatmapSetID:85217

[Difficulty]
HPDrainRate:2
CircleSize:3
OverallDifficulty:2
ApproachRate:3
SliderMultiplier:0.6
SliderTickRate:2

[Events]
//Background and Video events
0,0,"kulSc3eIx510687D6.jpg",0,0
//Break Periods
//Storyboard Layer 0 (Background)
//Storyboard Layer 1 (Fail)
//Storyboard Layer 2 (Pass)
//Storyboard Layer 3 (Foreground)
//Storyboard Sound Samples
//Background Colour Transformations
3,100,163,162,255

[TimingPoints]
1151,379.746835443038,4,2,1,50,1,0
8745,-100,4,2,1,5,0,0
8935,327.868852459016,4,2,1,60,1,0
40410,-100,4,2,1,50,0,0
51230,-100,4,2,1,60,0,0
61394,-100,4,2,1,70,0,1
87623,-100,4,2,1,5,0,0

[Colours]
Combo1 : 128,128,255
Combo2 : 236,217,247
Combo3 : 255,148,40
Combo4 : 255,128,255

[HitObjects]
112,232,2669,6,0,P|156:268|232:276,2,120,2|2|2,0:0|0:0|0:0,0:0:0:0:
172,100,4948,2,0,L|172:32,2,60,0|0|2,0:0|0:0|0:0,0:0:0:0:
284,192,6467,1,2,0:0:0:0:
256,192,7226,12,0,8745,0:0:0:0:
72,88,9590,6,0,P|128:68|192:64,1,120,0|6,1:0|0:0,0:0:0:0:
256,192,10902,1,0,0:0:0:0:
324,64,11557,6,0,P|384:68|440:88,1,120,2|0,0:0|0:0,0:0:0:0:
456,232,12869,2,0,P|396:228|340:208,1,120,2|0,0:0|0:0,0:0:0:0:
224,124,14180,6,0,L|224:64,2,60,2|0|0,0:0|0:0|0:0,0:0:0:0:
96,192,15492,1,4,1:2:0:0:
204,288,16148,1,0,0:0:0:0:
348,288,16803,2,0,P|392:240|416:192,1,120,2|0,0:0|0:0,0:0:0:0:
272,192,18115,6,0,P|228:144|204:96,2,120,0|0|4,0:0|0:0|0:0,0:0:0:0:
392,116,20082,6,0,L|436:68,2,60,0|0|2,0:0|0:0|0:0,0:0:0:0:
444,252,21394,2,0,P|416:300|360:332,1,120,0|2,0:0|0:0,0:0:0:0:
220,332,22705,2,0,L|156:332,2,60,0|0|2,0:0|0:0|0:0,0:0:0:0:
328,236,24016,2,0,P|268:232|224:192,1,120,0|4,0:0|0:0,0:0:0:0:
324,88,25328,6,0,L|324:24,2,60,0|0|2,0:0|0:0|0:0,0:0:0:0:
424,192,26639,1,0,0:0:0:0:
324,296,27295,2,0,P|372:328|432:328,2,120,2|0|2,0:0|0:0|0:0,0:0:0:0:
144,312,29426,6,0,L|144:212,1,90,8|4,0:3|0:0,0:0:0:0:
76,192,30246,6,0,P|98:135|132:84,1,120,0|0,1:0|1:0,0:0:0:0:
256,16,31557,1,0,1:0:0:0:
396,52,32213,1,0,1:0:0:0:
396,192,32869,2,0,L|396:252,2,60,0|0|0,1:0|0:0|1:0,0:0:0:0:
324,192,33853,2,0,L|256:192,1,60,2|0,0:0|1:0,0:0:0:0:
124,228,34836,1,0,1:0:0:0:
184,268,35164,6,0,L|236:300,1,60,2|0,0:0|1:0,0:0:0:0:
380,300,36148,1,0,1:0:0:0:
380,228,36475,2,0,L|380:164,1,60,2|0,0:0|1:0,0:0:0:0:
236,164,37459,1,0,1:0:0:0:
256,192,37787,12,4,40410,0:0:0:0:
256,192,41066,5,0,1:0:0:0:
148,96,41721,2,0,P|92:60|32:56,2,120,0|0|0,0:0|1:0|0:0,0:0:0:0:
292,84,43689,5,0,1:0:0:0:
224,208,44344,2,0,P|264:300|388:280,1,240,2|4,0:0|0:0,0:0:0:0:
432,148,46312,6,0,P|384:64|260:88,2,240,0|0|0,1:0|1:0|1:0,0:0:0:0:
396,288,49590,1,0,0:0:0:0:
256,324,50246,1,2,0:0:0:0:
196,192,50902,6,0,P|172:140|124:96,1,120,4|0,0:0|0:0,0:0:0:0:
20,192,52213,1,2,0:0:0:0:
88,320,52869,2,0,L|24:320,2,60,0|0|2,0:0|0:0|0:0,0:0:0:0:
228,284,54180,1,0,0:0:0:0:
304,164,54836,2,0,P|340:136|380:116,2,90,2|0|0,0:0|0:0|1:0,0:0:0:0:
332,228,56148,6,0,P|300:284|257:329,1,120,2|0,0:0|0:0,0:0:0:0:
128,268,57459,2,0,P|132:203|152:144,1,120,2|0,0:0|0:0,0:0:0:0:
256,52,58771,6,0,P|324:40|384:40,1,120,6|4,0:0|0:0,0:0:0:0:
340,180,60082,2,0,P|408:192|468:192,1,120,6|4,0:0|0:0,0:0:0:0:
372,308,61394,6,0,P|316:332|256:328,1,120,4|0,0:0|0:0,0:0:0:0:
128,268,62705,1,2,0:0:0:0:
156,124,63361,6,0,L|112:80,2,59.9999999999999,0|0|2,0:0|1:1|0:0,0:0:0:0:
288,64,64672,2,0,P|344:40|404:44,1,120,0|2,0:0|0:0,0:0:0:0:
476,168,65984,1,0,0:0:0:0:
404,292,66639,6,0,P|364:336|300:344,1,120,4|0,0:0|0:0,0:0:0:0:
296,200,67951,2,0,P|256:156|192:148,1,120,2|0,0:0|0:0,0:0:0:0:
60,112,69262,2,0,B|28:196|28:196|108:236|96:324,1,240,2|6,0:0|0:0,0:0:0:0:
212,228,71230,5,4,0:0:0:0:
356,228,71885,2,0,P|412:248|448:296,2,120,6|0|2,0:0|0:0|0:0,0:0:0:0:
304,96,73853,5,0,0:0:0:0:
160,96,74508,2,0,P|108:132|44:140,2,120,2|0|2,0:0|0:0|0:0,0:0:0:0:
268,192,76475,1,0,0:0:0:0:
412,192,77131,2,0,B|412:252|412:252|444:308|444:308|328:348,2,240,6|2|2,0:0|0:0|0:0,0:0:0:0:
472,64,80410,5,0,0:0:0:0:
328,64,81066,1,6,0:0:0:0:
256,192,81721,1,4,0:0:0:0:
120,244,82377,6,0,P|60:224|28:172,2,120,4|0|2,0:0|0:0|0:0,0:0:0:0:
256,192,84344,1,0,0:0:0:0:
392,140,85000,6,0,P|452:160|484:212,2,120,4|0|2,0:0|0:0|0:0,0:0:0:0:
256,192,86967,1,8,2:3:0:0:
256,192,87623,12,0,90246,0:0:0:0:
